#TITLE:Insane Techniques (Radio Edit);
#SUBTITLE:;
#ARTIST:kors k;
#TITLETRANSLIT:;
#SUBTITLETRANSLIT:;
#ARTISTTRANSLIT:;
#GENRE:Electro-Dance;
#CREDIT:;
#BANNER:Insane Techniques (Radio Edit).png;
#BACKGROUND:Insane Techniques (Radio Edit)-bg.png;
#LYRICSPATH:;
#CDTITLE:;
#MUSIC:Insane Techniques (Radio Edit).mp3;
#OFFSET:-0.076406;
#SAMPLESTART:26.320000;
#SAMPLELENGTH:15.000000;
#SELECTABLE:YES;
#BPMS:0.000000=146.000000
;
#STOPS:
;
#BGCHANGES:0.000=Insane Techniques (Radio Edit).avi=1.000=0=0=0=StretchNoLoop====,
99999=-nosongbg-=1.000=0=0=0 // don't automatically add -songbackground-
;
#KEYSOUNDS:;
#ATTACKS:;

//---------------dance-single - ----------------
#NOTES:
     dance-single:
     :
     Easy:
     4:
     0.283474,0.269669,0.134933,0.150808,0.019843,214.000000,17.000000,19.000000,0.000000,0.000000,0.000000,0.283474,0.269669,0.134933,0.150808,0.019843,214.000000,17.000000,19.000000,0.000000,0.000000,0.000000:
0000
0000
0000
0000
,
0000
0000
0000
0000
,
0000
0000
0000
0000
,
0000
0000
0000
0000
,
2000
0000
0000
0000
,
3002
0000
0000
0000
,
0023
0000
0100
0100
,
0200
0000
0030
0300
,
0000
1001
0001
0100
,
0000
0110
0010
1000
,
0000
1100
0100
0001
,
0000
0110
0010
0001
,
0000
1001
1000
0010
,
0000
0110
0100
0001
,
0010
0010
0100
0100
,
1000
0010
0100
0001
,
0010
0010
0100
0100
,
1000
0001
1000
0001
,
0100
0100
0010
0010
,
1000
0001
1000
0001
,
0010
0010
0001
0001
,
1000
0100
1000
0100
,
1000
1000
0010
0010
,
0200
0001
0010
1300
,
0010
0010
0100
0100
,
0001
1000
0001
1000
,
0100
0100
0010
0010
,
0001
1000
0001
1000
,
0010
0010
1000
1000
,
0001
0100
0001
0100
,
0001
0001
0010
0010
,
0100
1000
0100
1000
,
1002
0000
0000
0000
,
0000
0000
0000
0000
,
0203
0000
0000
0000
,
0320
0000
2030
0000
,
3002
0000
0000
0000
,
0000
0000
0000
0000
,
0203
0000
0000
0000
,
0320
0000
2030
0000
,
3000
0001
0000
0001
0000
0001
0000
0000
,
0000
0001
0000
0001
0000
0001
0000
0000
,
0000
1000
0000
1000
0000
1000
0000
0000
,
0000
1000
0000
1000
0000
1000
0000
0000
,
0000
0010
0000
0010
0000
0010
0000
0000
,
0000
0010
0000
0010
0000
0010
0000
0000
,
0000
0100
0000
0100
0000
0100
0000
0000
,
2002
0000
0000
3003
,
1000
0000
1000
0100
,
0010
0000
0010
0001
,
0100
0000
0100
0010
,
1000
0000
1000
1001
,
0001
0000
0010
0110
,
0100
0000
1000
1010
,
0010
0010
0100
0100
,
0010
1000
0001
0100
,
0002
0000
0000
0000
,
0000
0000
1003
1000
,
0010
1000
0001
0010
,
0100
1000
0001
0100
,
0010
1000
0010
1000
,
0001
0100
0001
0100
,
0001
0010
0100
0001
,
1000
0010
0100
1000
,
0010
0100
0010
0100
,
0001
1000
0001
1000
,
0000
0000
0000
0000
1001
0000
0000
0000
0000
1000
0000
0000
0000
0000
1000
0000
,
0000
0000
0000
0000
1001
0000
0000
0000
0000
0001
0000
0001
0000
0000
0001
0000
,
0000
0000
0000
0000
0110
0000
0000
0000
0000
0010
0000
0000
0000
0000
0000
0000
,
0002
0000
1003
1000
,
0000
0000
0000
0000
0110
0000
0000
0000
0000
0010
0000
0000
0000
0000
0010
0000
,
0000
0110
0100
0100
,
0001
0100
0010
1000
,
0001
0010
0100
1000
,
2002
0000
0000
0000
,
0000
0000
3003
0000
;

//---------------dance-single - ----------------
#NOTES:
     dance-single:
     :
     Hard:
     10:
     0.822074,0.898895,0.269867,0.150808,0.777852,672.000000,34.000000,19.000000,0.000000,0.000000,0.000000,0.822074,0.898895,0.269867,0.150808,0.777852,672.000000,34.000000,19.000000,0.000000,0.000000,0.000000:
// measure 0
0000
0000
0000
0000
,  // measure 1
0000
0000
0000
0000
,  // measure 2
0000
0000
0000
0000
,  // measure 3
0000
0000
0000
0000
,  // measure 4
0010
1000
0010
1000
0001
1000
0001
0100
0010
1000
0010
0100
0000
0001
0100
0001
,  // measure 5
0010
0001
0010
0001
1000
0001
1000
0100
0010
0001
0010
0100
0000
1000
0100
1000
,  // measure 6
0010
0100
0020
0000
1030
0010
1000
0010
0100
0001
0100
0001
1000
0001
1000
0001
,  // measure 7
0020
0000
0000
0000
0130
0000
0100
1000
,  // measure 8
0010
0000
0010
0000
0100
0000
0001
0000
0010
0100
0000
0100
1000
0000
0010
0000
,  // measure 9
0100
0000
0001
0000
1000
0000
0001
0000
0010
0001
0100
0001
1000
0000
0010
0000
,  // measure 10
0100
0000
0001
0000
0010
0000
0100
0000
0010
0001
0000
0001
0100
0000
0010
0000
,  // measure 11
1000
0000
0010
0000
1000
0000
0001
0000
0010
0000
0001
0000
1000
0100
0010
0000
,  // measure 12
0100
0010
1001
0000
0001
0001
0100
0100
,  // measure 13
0010
0000
1010
0000
0101
0000
0001
1000
0001
1000
0001
1000
0100
0000
0010
0000
,  // measure 14
0200
0000
0000
0000
1300
0100
1000
0000
1001
0000
0000
0000
0101
0000
0000
0000
,  // measure 15
0100
0000
0100
0000
1001
0000
0010
0000
0000
0010
0000
0000
1000
0000
0010
0000
,  // measure 16
0100
0000
0001
0000
0010
0000
0001
0010
0000
0001
0010
0100
1000
0000
0010
0000
,  // measure 17
1000
0000
0001
0000
0010
0000
0001
0100
0000
0001
0100
0010
1000
0000
0100
0000
,  // measure 18
0010
0000
0100
0000
1000
0000
0010
1000
0000
1000
0010
0100
0001
0000
1000
0000
,  // measure 19
0001
0000
0010
0000
0100
0000
1000
0010
0000
1000
0100
0010
0001
0000
1000
0000
,  // measure 20
0001
0000
0100
0000
0001
0000
0010
0100
0000
0010
0001
0100
0001
0000
1000
0000
,  // measure 21
0010
0000
0100
0000
0010
0000
1000
0100
0000
0010
0100
0010
0002
0000
0000
0003
,  // measure 22
0011
0000
0010
0100
0000
0100
1000
0000
1000
0001
0000
0001
0100
0010
0100
0010
,  // measure 23
2010
0000
0000
0000
0001
0000
0000
0000
0100
0000
3001
0000
1000
0000
0001
1000
,  // measure 24
0010
0000
0100
0010
0100
0010
0000
1000
0000
0010
0100
0010
0100
0000
0001
0000
,  // measure 25
1000
0000
0100
0010
0100
0010
0000
0001
0010
0100
0010
0100
0010
0000
0010
0000
,  // measure 26
0001
0000
1000
0001
1000
0001
0000
0010
0000
0001
1000
0001
1000
0000
0000
0000
,  // measure 27
0100
0000
1000
0001
1000
0001
0000
0100
0001
1000
0001
1000
0001
0000
0001
0000
,  // measure 28
0021
0000
0130
0000
0010
0001
0000
1000
0000
0001
1000
0001
1000
0000
0000
0000
,  // measure 29
0010
0000
0100
0000
0001
0100
0000
0010
0000
1000
0001
1000
0002
0000
0013
0000
,  // measure 30
0110
0011
1100
1001
,  // measure 31
0011
0000
0000
0000
0000
0000
0011
0000
0000
0000
0000
0000
0101
0000
0000
0000
0000
0000
0101
0000
0000
0000
0000
0000
0001
0000
0000
0100
0000
0000
0001
0000
0000
0100
0000
0000
0010
0000
1000
0000
0010
0000
1000
0000
0010
0000
1000
0000
,  // measure 32
0001
0010
0100
0010
0100
1000
0001
0010
,  // measure 33
0100
0010
0100
1000
0100
1000
0010
0100
,  // measure 34
0001
1000
0100
0001
1000
0010
0001
1000
,  // measure 35
0100
0010
0100
1000
0010
0100
0001
1000
,  // measure 36
0100
0010
0100
1000
0001
1000
0010
0100
,  // measure 37
0010
0001
1000
0001
0010
0001
0010
0100
,  // measure 38
1000
0100
0001
0100
0001
0010
1000
0010
,  // measure 39
0001
0010
1000
0001
0100
1000
0001
0100
,  // measure 40
0010
1000
0001
1000
0100
1000
0001
1000
,  // measure 41
0010
0100
0001
0100
0010
0100
1100
0000
,  // measure 42
0001
0000
0010
1000
0010
0000
0010
0000
0100
0000
0010
0000
0001
0000
0010
0000
,  // measure 43
0100
0000
0001
0000
1000
0000
0001
0000
0100
0000
0001
0000
0000
0000
0010
0100
,  // measure 44
0010
0100
1000
0100
0001
0100
0010
0100
,  // measure 45
1000
0010
0100
0010
0001
0010
1010
0000
,  // measure 46
1000
0000
0001
0010
0001
0000
0001
0000
0100
0000
0001
0000
1000
0000
0001
0000
,  // measure 47
0010
0001
0010
0001
0100
0010
0100
0010
1000
0010
1000
0010
0100
0001
0100
0001
,  // measure 48
1000
0000
0000
0100
0000
0000
1000
0000
0001
0100
0010
1000
0001
0000
0010
0000
,  // measure 49
0001
0000
0000
0100
0000
0000
0001
0000
0010
0001
1000
0100
1000
0000
0010
0000
,  // measure 50
0100
0000
0000
0001
0000
0000
0100
0000
0010
1000
0001
0010
0001
0000
0010
0000
,  // measure 51
0100
0000
0000
1000
0000
0000
0100
0000
1000
0010
0100
0001
0011
0000
1100
0000
,  // measure 52
1000
0000
0010
1000
0000
1000
0001
0000
0010
0001
1000
0100
0110
0000
1001
0000
,  // measure 53
0001
0000
0100
0001
0000
0001
0010
0010
0100
0010
0100
0000
0110
0000
0000
0000
,  // measure 54
1100
0000
1000
0001
0000
0001
0100
0000
0100
0010
0000
0010
1000
0000
0001
0000
,  // measure 55
0010
0001
1000
0010
0100
0001
1000
0100
0001
0100
1000
0010
0100
0001
1000
0010
,  // measure 56
0200
0000
0000
0000
,  // measure 57
0000
0000
0000
0000
0000
0000
0000
0000
0310
0000
0100
0010
0100
0000
0001
0000
,  // measure 58
1000
0000
0100
1000
0000
0100
1000
0100
1000
0010
0100
0001
1000
0000
0001
0000
,  // measure 59
0010
0000
0001
0010
0000
0001
0010
0001
0100
0010
1000
0001
0010
0000
0100
0000
,  // measure 60
0010
0000
0001
0010
0000
0001
0100
0001
1000
0100
1000
0010
0100
0000
0001
0000
,  // measure 61
1000
0000
0010
0001
0000
0010
0001
0010
1000
0001
0010
0100
1000
0000
0010
0000
,  // measure 62
0100
0000
0001
0100
0000
0001
0100
0001
1000
0100
0001
0100
1000
0000
0010
0000
,  // measure 63
0100
0000
0001
0100
0000
0001
1000
0000
0001
0010
1000
0010
0001
0000
0010
0000
,  // measure 64
0010
0000
0100
1000
0000
0100
1000
0001
0100
0001
0100
0010
1000
0000
0001
0000
,  // measure 65
0011
0000
1100
0000
1000
0000
1010
0000
0020
0000
0000
0000
0130
0001
0010
0100
,  // measure 66
1000
0000
0010
1000
0020
0000
0130
0000
0010
0100
0000
0000
0100
0000
0101
0000
,  // measure 67
0001
0000
1000
0100
2000
0000
3010
0000
1000
0001
0000
0001
0020
0000
0130
0000
,  // measure 68
0010
0000
0001
0010
0002
0000
1003
0000
0001
0100
0000
0000
0010
0000
1010
0000
,  // measure 69
2001
0000
0000
0000
3001
1000
1200
0310
,  // measure 70
0100
0000
1000
0001
2000
0000
3010
0000
1000
0100
0000
0000
0010
0000
0110
0000
,  // measure 71
0010
0000
0001
0100
0002
0000
1003
0001
0100
0001
0000
0010
0000
0100
0010
0100
,  // measure 72
1000
0000
1000
0000
1000
0000
0100
0010
0100
0000
1000
0010
1000
0010
0100
0010
,  // measure 73
0100
0000
0001
0100
0001
1000
0001
1000
0100
0000
0010
0000
0100
0000
1000
0000
,  // measure 74
2002
0000
0000
0000
,  // measure 75
0000
0000
3003
0000
;

//---------------dance-single - ----------------
#NOTES:
     dance-single:
     :
     Medium:
     6:
     0.450156,0.419484,0.134933,0.063498,0.099216,372.000000,17.000000,8.000000,0.000000,0.000000,0.000000,0.450156,0.419484,0.134933,0.063498,0.099216,372.000000,17.000000,8.000000,0.000000,0.000000,0.000000:
0000
0000
0000
0000
,
0000
0000
0000
0000
,
0000
0000
0000
0000
,
0000
0000
0000
0000
,
0001
0000
0010
0000
0001
0000
0100
0000
0010
0000
0000
0010
0000
0000
0010
0000
,
1000
0000
0010
0000
1000
0000
0100
0000
0010
0000
0000
0010
0000
0000
0010
0000
,
0001
0010
0001
0010
0100
1000
0100
1000
,
0002
0000
0000
0000
1003
0000
1000
0001
,
0100
0000
0110
0000
0010
1000
0010
0000
,
1000
0000
1001
0000
0001
0010
0001
0000
,
0010
0000
0110
0000
0100
1000
0100
0000
,
1000
0000
1100
0000
1000
0100
0001
0000
,
0100
0000
0110
0000
0010
0001
0100
0000
,
0010
0000
0110
0000
0010
1000
0100
0000
,
0020
0000
0031
0001
1001
0000
1000
0000
,
0010
0000
0010
0000
0000
0000
0100
0000
0000
0100
0000
0000
0001
0000
0000
0000
,
1000
0100
0001
0000
0100
0100
0100
0000
,
0010
0100
1000
0000
0001
0001
0001
0000
,
0100
0001
0010
0000
0100
0100
0100
0000
,
1000
0100
0010
0000
0100
0100
0100
0000
,
1000
0001
0100
0000
0001
0010
0100
0000
,
1000
0001
0100
0000
0010
0100
0001
0000
,
0010
0000
0000
0010
0000
0000
0100
0000
0000
0100
0000
0000
1000
0000
0100
0000
,
0020
0001
0100
1030
,
0010
0001
0010
0000
0001
0100
0001
0000
,
0100
1000
0100
0000
1000
0010
1000
0000
,
0010
1000
0010
0000
1000
0100
1000
0000
,
0100
0001
0100
0000
0001
0010
0001
0000
,
0010
0100
1000
0000
0010
0100
0001
0000
,
0100
0010
1000
0000
0100
0010
0001
0000
,
1000
1000
1000
1000
,
0001
0010
0001
0010
0100
1000
0100
1000
,
0010
1000
0000
0010
1000
0000
0010
0100
,
0000
0010
0100
0000
0010
0100
0000
0100
,
0001
0000
0100
0001
0000
0100
0001
0000
,
0100
1000
0000
0100
1000
0100
0010
1000
,
0001
0010
0000
0001
0010
0000
0001
0100
,
0000
0010
0100
0000
0010
0100
0000
0100
,
1000
0000
0100
1000
0000
0100
1000
0000
,
0100
0001
0000
0100
0001
0010
0100
0010
,
0001
1000
0000
1000
0000
1000
0000
1000
,
0000
0010
0000
0010
0000
0110
0000
0000
,
0100
0001
0000
0001
0000
0001
0000
0001
,
0000
1000
0000
1000
0000
1100
0000
0100
,
0100
0010
0000
0010
0000
0010
0000
0010
,
0000
0001
0000
0001
0000
0011
0000
0000
,
0001
1000
0000
1000
0000
1000
0000
1000
,
0020
0000
0000
0000
,
0130
0000
0000
0100
0000
0000
0000
0000
0001
0000
0100
0000
0001
0000
0000
0000
,
1000
0000
0000
1000
0000
0000
0000
0000
0001
0000
0010
0000
0001
0000
0000
0000
,
0100
0000
0000
0100
0000
0000
0000
0000
0010
0000
1000
0000
0010
0000
0000
0000
,
1000
0000
0000
1000
0000
0000
0000
0000
0001
0000
0010
0000
0001
0000
0001
0000
,
1000
0000
0000
1000
0000
0000
0000
0000
0010
0000
1000
0000
0010
0000
0010
0000
,
0100
0000
0000
0100
0000
0000
0000
0000
0001
0000
0100
0000
0001
0000
0000
0000
,
1000
0000
0000
0100
0000
0000
1000
0000
0000
0001
0000
0000
0100
0000
0001
0000
,
1000
0100
0010
0001
1000
0010
0100
0001
,
2002
0000
0000
0000
,
0000
0000
3003
1000
,
0010
0000
0000
0010
0000
0000
0010
0000
0100
0000
0010
0000
0100
0000
0000
0000
,
0001
0000
0000
0001
0000
0000
0001
0000
0100
0000
0001
0000
0100
0000
0000
0000
,
0010
0000
0000
0010
0000
0000
0010
0000
1000
0000
0010
0000
1000
0000
0000
0000
,
0001
0000
0000
0010
0000
0000
0001
0000
1000
0000
0010
0000
1000
0000
0000
0000
,
0100
0000
0000
0100
0000
0000
0100
0000
0010
0000
0100
0000
0010
0000
0000
0000
,
0001
0000
0000
0001
0000
0000
0001
0000
0010
0000
0001
0000
0010
0000
0000
0000
,
0100
0000
0000
0100
0000
0000
0100
0000
1000
0000
0100
0000
1000
0000
0000
0000
,
0001
0100
0000
0001
0000
0000
1001
0000
,
1000
0000
0000
0000
1100
0000
0000
0000
0000
0100
0000
0000
0000
0000
0010
0000
,
0001
0000
0000
0000
1001
0000
0000
0000
0000
0001
0000
0100
0000
0000
0010
0000
,
1000
0000
0000
0000
1100
0000
0000
0000
0000
0100
0000
0000
0000
0000
0100
0000
,
0020
0000
0031
0001
,
1000
0000
0000
0000
1010
0000
0000
0000
0000
0010
0000
0000
0000
0000
0010
0000
,
0100
0000
0101
0000
0001
1000
0001
1000
,
0100
0010
0100
0010
0001
1000
0001
1000
,
0010
0000
0010
0000
0100
0010
1000
0001
,
0200
0000
0000
0000
,
0000
0000
0300
0000
;

//---------------dance-single - ----------------
#NOTES:
     dance-single:
     :
     Beginner:
     1:
     0.092979,0.117472,0.063498,0.111122,0.000000,60.000000,8.000000,14.000000,0.000000,0.000000,0.000000,0.092979,0.117472,0.063498,0.111122,0.000000,60.000000,8.000000,14.000000,0.000000,0.000000,0.000000:
0000
0000
0000
0000
,
0000
0000
0000
0000
,
0000
0000
0000
0000
,
0000
0000
0000
0000
,
0020
0000
0000
0000
,
0000
0000
0000
0000
,
0230
0000
0000
0000
,
0000
0000
0000
0300
,
0000
0001
0000
0000
,
0000
0001
0000
0000
,
0000
0001
0000
0000
,
0000
0001
0000
0000
,
0000
1000
0000
0000
,
0000
1000
0000
0000
,
1000
0000
1000
0000
,
0000
1001
0000
0000
,
0010
0000
0000
0000
,
0010
0000
0000
0000
,
0100
0000
0000
0000
,
0100
0000
0000
0000
,
0001
0000
0000
0000
,
0001
0000
0000
0000
,
1000
0000
0000
0000
,
2000
0000
0000
0000
,
3000
0000
0000
0000
,
1000
0000
0000
0000
,
0100
0000
0000
0000
,
0100
0000
0000
0000
,
0010
0000
0000
0000
,
0010
0000
0000
0000
,
0001
0000
0000
0000
,
0001
0000
0000
0000
,
2002
0000
0000
0000
,
0000
0000
0000
0000
,
3003
0000
0000
0000
,
0000
0000
0000
0000
,
0220
0000
0000
0000
,
0000
0000
0000
0000
,
0330
0000
0000
0000
,
0000
0000
0000
0000
,
2000
0000
0000
0000
,
3000
0000
0000
0000
,
2000
0000
0000
0000
,
3000
0000
0000
0000
,
0002
0000
0000
0000
,
0003
0000
0000
0000
,
0002
0000
0000
0000
,
1003
0000
0000
0000
,
0000
0010
0000
0000
,
0000
0010
0000
0000
,
0000
0100
0000
0000
,
0000
0100
0000
0110
,
0000
0000
0000
0110
,
0000
0000
0000
0110
,
0010
0000
0000
0000
,
0100
0000
0000
0000
,
2002
0000
0000
0000
,
0000
0000
3003
0000
,
1000
0000
0000
0000
,
0100
0000
0000
0000
,
0001
0000
0000
0000
,
0100
0000
0000
0000
,
1000
0000
0000
0000
,
0010
0000
0000
0000
,
0001
0000
0000
0000
,
0010
0000
0000
0000
,
0000
0100
0000
0000
,
0000
0100
0000
0000
,
0000
0001
0000
0000
,
2000
0000
3000
0000
,
0000
0001
0000
0000
,
0000
0010
0000
0000
,
0100
0000
0000
0000
,
1000
0000
0000
0000
,
1001
0000
0000
0000
;
