#TITLE:ANDROMEDA;
#SUBTITLE:-SF_2011 Mix-;
#ARTIST:Sota Fujimori;
#TITLETRANSLIT:;
#SUBTITLETRANSLIT:;
#ARTISTTRANSLIT:;
#GENRE:;
#CREDIT:;
#BANNER:[Qualifier Singles & Doubles] - ANDROMEDA -SF_2011 Mix-.png;
#BACKGROUND:[Qualifier Singles & Doubles] - ANDROMEDA -SF_2011 Mix--bg.png;
#LYRICSPATH:;
#CDTITLE:cdtitle.png;
#MUSIC:[Qualifier Singles & Doubles] - ANDROMEDA -SF_2011 Mix-.ogg;
#OFFSET:0.000000;
#SAMPLESTART:73.848106;
#SAMPLELENGTH:15.384621;
#SELECTABLE:YES;
#BPMS:0.000000=156.000000
;
#STOPS:12.000000=0.769000,
26.000000=0.769000,
88.000000=0.769000,
182.000000=0.769000,
260.000000=0.769000
;
#BGCHANGES:;
#KEYSOUNDS:;
#ATTACKS:;

//---------------dance-single - xRGTMx-CSP----------------
#NOTES:
     dance-single:
     xRGTMx-CSP:
     Challenge:
     10:
     0.778275,0.813067,0.248502,0.143366,0.807631,529.000000,26.000000,15.000000,0.000000,0.000000,0.000000,0.778275,0.813067,0.248502,0.143366,0.807631,529.000000,26.000000,15.000000,0.000000,0.000000,0.000000:
0000
0000
0000
0000
,
0000
0000
0000
0000
,
0000
0000
0000
0000
,
0220
0330
0000
0000
0001
1000
0000
0000
1000
0000
0001
0000
0100
0000
0000
0000
,
0010
0000
1000
0000
0001
1000
0100
0000
,
0010
0000
0001
0000
0010
0100
1000
0000
,
0010
0000
0000
0000
0100
0000
0000
0000
2002
3003
0000
0000
0010
0100
0000
0000
,
0001
0010
0001
0000
0010
0000
0100
0000
1000
0000
0001
0000
0100
0000
0001
0000
,
1000
0100
0010
0001
0010
0100
1000
0000
,
0001
0010
0100
0100
0001
1000
0100
0100
,
0010
1000
0100
0100
0001
1000
0110
0000
,
1000
0010
1000
0000
0010
0000
0100
0000
0001
0000
1000
0000
0100
0000
1000
0000
,
0001
0100
0010
1000
0010
0100
0001
0000
,
1000
0000
0010
0000
0100
0000
0100
0000
1000
0001
1000
0000
0100
0000
0100
0000
,
0010
1000
0100
0010
0100
2001
0000
0000
,
3010
0000
0000
1000
0000
0000
0001
0000
0000
0010
0000
0000
0001
0000
1000
0000
,
0001
0000
0000
0100
0000
0000
0010
0000
0000
1000
0100
0000
1000
0000
0001
0000
,
0100
0000
0000
0001
0000
0000
1000
0000
0000
0100
0000
0000
0001
0000
0100
0000
,
1000
0000
0000
0010
0000
0000
0100
0000
0000
0001
0010
0000
0001
1000
0000
1000
,
0010
0000
0000
1000
0000
0000
0100
0000
0000
0001
0000
0000
0100
0000
1000
0000
,
0010
0000
1000
0000
0001
0000
0020
0000
0000
1000
0000
0000
0100
0000
0000
0000
,
0031
0000
0000
0010
0000
0000
0100
0000
1000
0001
0100
0000
0001
0000
0010
0000
,
0220
0330
0000
0000
0001
1000
0000
0000
1000
0100
0000
1000
0000
0010
0000
0000
,
0100
0000
0001
0000
0010
0000
0001
0000
1000
0010
0000
1000
0000
0100
0000
0000
,
0010
0000
0001
0000
1000
0000
1000
0000
0001
0100
0000
0001
0000
0010
0000
0000
,
0100
0000
1000
0000
0010
0000
1000
0000
0001
0010
0000
0001
0000
0100
0000
0000
,
0010
1000
0010
1000
0001
0000
0000
0000
1000
0100
0000
0001
0000
0100
0000
0000
,
1000
0000
0100
0000
0100
0000
0001
0000
1000
0010
0000
0001
0000
0010
0000
0000
,
1000
0000
0010
0000
0100
0010
0100
0000
0001
0010
0000
1000
0000
0010
0000
0000
,
0001
0000
0100
0000
0100
0000
1000
0000
0001
0100
0000
1000
0000
0100
0000
0000
,
0001
1000
0010
1000
0001
0000
0000
0001
1000
0100
0000
1000
0000
1010
0000
0000
,
0100
0000
0001
0000
0010
0000
0001
0000
1000
0010
0000
1000
0000
1100
0000
0000
,
0010
0000
0001
0000
1000
0010
1000
0000
0001
0100
0000
0001
0000
0011
0000
0000
,
0100
0000
1000
0000
0010
0000
1000
0000
0001
0010
0000
0001
0000
0101
0000
0000
,
0010
1000
0001
0010
0001
0000
0000
0001
1000
0100
0000
0010
0000
0010
0000
0000
,
1000
0000
0001
0000
0010
0000
0001
0000
1000
0010
0000
0100
0000
0100
0000
0000
,
1000
0000
0001
0000
0100
0010
0100
0000
0001
0010
0000
0100
0000
0100
0000
0000
,
0001
0010
0001
1000
0000
1000
0000
0000
0011
0000
0000
0110
0000
0000
1100
0000
,
0000
0110
0000
0000
1001
0000
0000
0000
1000
0001
0000
0001
0100
0000
0000
0100
,
0001
1000
0000
1000
0100
0000
0000
0100
1000
0001
0000
0001
0010
0000
0000
0010
,
0001
1000
0000
1000
0010
0000
0000
0010
1000
0100
0000
0100
0010
0000
0100
0000
,
1000
0000
0010
0000
0001
0000
1000
0000
0100
0001
0000
0001
0010
0000
0100
0000
,
1000
0000
0001
0000
1001
0000
2000
0000
3001
1000
0000
1000
0010
0000
0000
0010
,
1000
0001
0000
0001
0010
0000
0000
0010
0001
1000
0000
1000
0100
0000
0000
0100
,
1000
0001
0000
0001
0100
0000
0000
0100
0001
0000
0010
0000
1000
0000
0100
0000
,
1000
0000
0010
0000
0001
0000
0100
0000
0220
0330
0000
0000
1000
0001
0000
0000
,
1000
0010
1000
0000
0001
0100
0001
1000
0100
1000
0100
0010
0100
0000
1000
0000
,
0001
0010
0001
0000
1000
0100
1000
0001
0100
0001
0100
0010
0100
0000
0001
0000
,
1000
0000
0100
0010
0100
0000
1000
0100
1000
0000
0001
0100
0001
0000
1000
0010
,
1000
0000
0001
0010
0001
0000
0100
0010
0000
0100
0000
0000
1001
0000
1000
0000
,
0001
0100
0001
0000
1000
0100
0010
0100
1000
0010
1000
0010
0100
0000
0001
0000
,
1000
0100
1000
0000
0001
0100
0010
0100
0001
0010
0001
0010
0100
0000
1000
0000
,
0001
0010
0100
0100
0001
1000
0010
0010
,
0001
0000
1000
0000
0100
0000
0100
0000
0010
0000
0100
0000
1001
0000
1000
0001
,
1000
0010
1000
0000
0001
0010
0100
0010
0001
1000
0010
1000
0010
0000
0100
0000
,
0001
0010
0001
0000
1000
0100
0010
0100
1000
0010
1000
0010
0100
0000
0001
0000
,
1000
0000
0100
0010
0001
0000
0010
0100
1000
0000
0001
0100
0010
0000
1000
0010
,
0100
0000
0001
0010
0100
0000
1000
0100
0010
0100
0000
0000
1001
0000
0000
1000
,
0001
0010
0001
0000
1000
0010
0100
0010
1000
0001
0010
0001
0010
0000
0100
0000
,
1000
0010
1000
0000
0001
0100
0010
0100
0001
0010
0001
0010
0100
0000
1000
0000
,
0001
0010
1000
0001
0100
1000
0010
0100
,
2002
0000
0000
0000
3003
0000
0000
0000
1010
0000
0000
0011
0000
0000
0110
0000
,
1001
1000
0010
0100
,
0001
0000
0010
0000
0001
1000
0010
0000
,
0100
0001
0010
0001
,
0220
0330
0000
0000
1001
0000
1000
0001
0000
0000
0000
0000
0000
0000
0000
0000
;

//---------------dance-double - xRGTMx-CDP----------------
#NOTES:
     dance-double:
     xRGTMx-CDP:
     Challenge:
     10:
     0.771448,0.813067,0.210271,0.143366,0.778958,528.000000,22.000000,15.000000,0.000000,0.000000,0.000000,0.771448,0.813067,0.210271,0.143366,0.778958,528.000000,22.000000,15.000000,0.000000,0.000000,0.000000:
00000000
00000000
00000000
00000000
,
00000000
00000000
00000000
00000000
,
00000000
00000000
00000000
00000000
,
02200000
03300000
00000000
00000000
10000000
00010000
00000000
00000000
10000000
00000000
01000000
00000000
00100000
00000000
00000000
00000000
,
00001000
00000000
00000100
00000000
00000001
00000100
00000010
00000000
,
00010000
00000000
01000000
00000000
10000000
00100000
01000000
00000000
,
00001000
00000000
00000000
00000000
00010000
00000000
00000000
00000000
00000220
00000330
00000000
00000000
00000001
00001000
00000000
00000000
,
00000010
00001000
00000010
00000000
00000100
00000000
00001000
00000000
00010000
00000000
00100000
00000000
10000000
00000000
00010000
00000000
,
00100000
00001000
00000100
00000010
00001000
00000001
00000010
00000000
,
00000001
00001000
00000100
00000100
00000010
00010000
00001000
00001000
,
00000100
00010000
00100000
00100000
01000000
10000000
10010000
00000000
,
01000000
00010000
01000000
00000000
00100000
00000000
00010000
00000000
00001000
00000000
00000100
00000000
00000001
00000000
00001000
00000000
,
00000100
00010000
00100000
01000000
00010000
10000000
01000000
00000000
,
10000000
00000000
00010000
00000000
00100000
00000000
00100000
00000000
01000000
00001000
01000000
00000000
00001000
00000000
00010000
00001000
,
00010000
00000100
00001000
00000010
00000100
00000102
00000000
00000000
,
00000013
00000000
00000000
00000001
00000000
00000000
00001000
00000000
00000000
00000010
00000000
00000000
00001000
00000000
00000100
00000000
,
00010000
00000000
00000000
00100000
00000000
00000000
01000000
00000000
00000000
00010000
00100000
00000000
00010000
00000000
10000000
00000000
,
01000000
00000000
00000000
10000000
00000000
00000000
00010000
00000000
00000000
01000000
00000000
00000000
00010000
00000000
00100000
00000000
,
00001000
00000000
00000000
00000100
00000000
00000000
00000010
00000000
00000000
00001000
00000100
00000000
00001000
00000001
00000000
00000000
,
00000010
00000000
00000000
00000100
00000000
00000000
00010000
00000000
00000000
00001000
00000000
00000000
00000100
00000000
00000010
00000000
,
00010000
00000000
00000000
00001000
00000000
00000000
00200000
00000000
00000000
01000000
00000000
00000000
10000000
00000000
00000000
00000000
,
00310000
00000000
00100000
00001000
00000000
00000000
01000000
00000000
00100000
10000000
00100000
00000000
01000000
00000000
00010000
00000000
,
00022000
00033000
00000000
00000000
00000100
00000010
00000000
00000000
00000001
00001000
00000000
00000010
00000000
00001000
00000000
00000000
,
00000100
00000000
00010000
00000000
00001000
00000000
00100000
00000000
00010000
10000000
00000000
00100000
00000000
10000000
00000000
00000000
,
00010000
00000000
00100000
00000000
00001000
00000000
00010000
00000000
00000100
00001000
00000000
00000100
00000000
00000010
00000000
00000000
,
00000001
00000000
00000100
00000000
00000010
00000000
00001000
00000000
00000100
00010000
00000000
00001000
00000000
00100000
00000000
00000000
,
00010000
00100000
00010000
00100000
01000000
10000000
01000000
00000000
10000000
00010000
00000000
01000000
00000000
00010000
00000000
00000000
,
00100000
00000000
00001000
00000000
00010000
00000000
00000100
00000000
00001000
00000001
00000000
00000100
00000000
00000001
00000000
00000000
,
00001000
00000000
00000100
00000000
00010000
00000000
00001000
00000000
00100000
00010000
00000000
00100000
00000000
01000000
00000000
00000000
,
10000000
00000000
00100000
00000000
01000000
00000000
00010000
00000000
00100000
00001000
00000000
00001000
00010000
00000100
00001000
00000000
,
00001000
00000100
00001000
00000100
00000010
00000001
00000010
00000001
00001000
00000010
00000000
00001000
00000000
00000100
00000000
00000100
,
00010000
00000000
00100000
00000000
00010000
00000000
00001000
00000000
00100000
00010000
00000000
01000000
00000000
00001000
00000000
00010000
,
00001000
00000000
00000010
00000000
00001000
00000000
00010000
00000000
00000010
00000100
00000000
00000001
00000000
00001000
00000000
00001000
,
00000100
00000000
00010000
00000000
00100000
00000000
00010000
00000000
00001000
00100000
00000000
00010000
00000000
01000000
00000000
00010000
,
00100000
01000000
10000000
00010000
01000000
00001000
00010000
00001000
00010000
00000100
00000000
00000010
00000000
00000010
00000000
00001000
,
00000001
00000000
00000100
00000000
00000010
00000000
00010000
00000000
00001000
00100000
00000000
01000000
00000000
01000000
00000000
00010000
,
10000000
00000000
00100000
00000000
00010000
00000000
00100000
00000000
10000000
00010000
00000000
00100000
00000000
00001000
00000000
00010000
,
00001000
00000000
00000010
00000001
00000000
00000100
00000000
00000000
00001010
00000000
00000000
00011000
00000000
00000000
00110000
00000000
,
00000000
01100000
00000000
00000000
10010000
00000000
00000000
00000000
10000000
00100000
00000000
00100000
00010000
00000000
00000000
00000000
,
00001000
00000010
00000000
00000010
00000001
00000000
00000000
00000000
00000001
00000100
00000000
00000100
00001000
00000000
00000000
00000000
,
00010000
01000000
00000000
01000000
10000000
00000000
00000000
00000000
00010000
00000000
10000000
00000000
00100000
00000000
01000000
00000000
,
00001000
00010000
00010000
00000100
00000100
00000010
00000100
00001000
,
00000010
00000000
00000100
00000000
00001001
00000000
00002000
00000000
00003001
00000010
00000000
00000010
00001000
00000000
00000000
00000000
,
00010000
00100000
00000000
00100000
10000000
00000000
00000000
00000000
10000000
01000000
00000000
01000000
00010000
00000000
00000000
00000000
,
00001000
00000100
00000000
00000100
00000001
00000000
00000000
00000000
00001000
00000000
00000001
00000000
00000100
00000000
00000010
00000000
,
00010000
00000000
00001000
00010000
00001000
00000000
00100000
00000000
02200000
03300000
00000000
00000000
10000000
00010000
00000000
00000000
,
10000000
00100000
01000000
00000000
00010000
00100000
00001000
00010000
00000100
00001000
00000100
00001000
00000010
00000000
00000100
00000000
,
00000001
00000010
00000100
00000000
00001000
00000100
00010000
00001000
00100000
00010000
00100000
00010000
01000000
00000000
00100000
00000000
,
10000000
00000000
01000000
00100000
00010000
00000000
00100000
01000000
10000000
00000000
00010000
01000000
00001000
00000000
00010000
00000100
,
00000010
00000000
00000001
00000100
00000010
00000000
00001000
00000100
00010000
00001000
00000000
00000000
00110000
00000000
00000000
00000000
,
10000000
01000000
00100000
00000000
00010000
01000000
00001000
00010000
00000010
00001000
00000010
00001000
00000100
00000000
00000010
00000000
,
00000001
00000100
00000010
00000000
00001000
00000010
00010000
00001000
01000000
00010000
01000000
00010000
00100000
00000000
01000000
00000000
,
10000000
00100000
01000000
01000000
00100000
00001000
00010000
00010000
,
00100000
00001000
00000100
00000100
00001000
00000001
00000110
00000000
,
00000001
00000100
00000010
00000000
00001000
00000100
00010000
00001000
00100000
00010000
00100000
00010000
01000000
00000000
00100000
00000000
,
10000000
01000000
00100000
00000000
00010000
00100000
00001000
00010000
00000100
00001000
00000100
00001000
00000010
00000000
00000100
00000000
,
00000001
00000000
00000010
00000100
00001000
00000000
00000100
00000010
00000001
00000000
00001000
00000010
00010000
00000000
00001000
00100000
,
01000000
00000000
10000000
00100000
01000000
00000000
00010000
00100000
00001000
00010000
00000000
00000000
00001100
00000000
00000000
00000000
,
00000001
00000010
00000100
00000000
00001000
00000010
00010000
00001000
01000000
00010000
01000000
00010000
00100000
00000000
01000000
00000000
,
10000000
00100000
01000000
00000000
00010000
01000000
00001000
00010000
00000010
00001000
00000010
00001000
00000100
00000000
00000010
00000000
,
00000001
00000100
00000010
00000010
00000100
00010000
00001000
00001000
,
00220000
00000000
00000000
00000000
00000000
00000000
00330000
00000000
01100000
00000000
00000000
11000000
00000000
00000000
01010000
00000000
,
00011000
00010000
00000100
00000010
,
00000001
00000000
00000100
00000000
00000010
00010000
00001000
00000000
,
00100000
10000000
01000000
00010000
,
02200000
03300000
00000000
00000000
10010000
00000000
10000000
00010000
00000000
00000000
00000000
00000000
00000000
00000000
00000000
00000000
;

//---------------dance-single - xRGTMx-ESP----------------
#NOTES:
     dance-single:
     xRGTMx-ESP:
     Hard:
     9:
     0.652659,0.625436,0.162482,0.344079,0.477888,425.000000,17.000000,36.000000,0.000000,0.000000,0.000000,0.652659,0.625436,0.162482,0.344079,0.477888,425.000000,17.000000,36.000000,0.000000,0.000000,0.000000:
0000
0000
0000
0000
,
0000
0000
0000
0000
,
0000
0000
0000
0000
,
0220
0330
0000
0000
1000
0001
0000
0000
1000
0000
0100
0000
0010
0000
0000
0000
,
0001
0000
0010
0000
0100
1000
0001
0000
,
0100
0000
0010
0000
1000
0010
0100
0000
,
0001
0000
0000
0000
1000
0000
0000
0000
2002
3003
0000
0000
0100
0010
0000
0000
,
1000
0100
0010
0100
1000
0001
0100
0010
,
0100
0001
0010
0100
1000
0100
0010
0000
,
0001
0100
1000
0100
0001
0010
1000
0010
,
0001
0100
1000
0001
0010
1000
1001
0000
,
0001
0100
0010
0100
0001
1000
0100
0010
,
0100
1000
0010
0100
0001
0100
0010
0000
,
1000
0100
0001
0100
1000
0010
0001
0010
,
1000
0100
0001
0010
1000
2001
0000
0000
,
3001
0000
0000
0010
0000
0000
0010
0000
0000
1000
0000
0000
1000
0000
0001
0000
,
1000
0000
0000
0010
0000
0000
0010
0000
0000
0001
1000
0000
0100
0000
0000
0000
,
1000
0000
0000
0100
0000
0000
0100
0000
0000
0001
0000
0000
0001
0000
1000
0000
,
0001
0000
0000
0100
0000
0000
0100
0000
0000
1000
0001
0000
0001
1000
0000
0000
,
0001
0000
0000
0010
0000
0000
0010
0000
0000
0100
0000
0000
1000
0000
0100
0000
,
0001
0000
0000
0010
0000
0000
0020
0000
0000
1000
0000
0000
0001
0000
0000
0000
,
0130
0000
0000
0001
0000
0000
1000
0000
0100
0010
0100
0000
1000
0000
0010
0000
,
0220
0330
0000
0000
1000
0001
0000
0000
1000
0010
0000
0100
0000
0010
0000
0000
,
2000
0000
0000
0000
3200
0000
0000
0000
0310
0001
0000
0100
0000
0001
0000
0000
,
0020
0000
0000
0000
0032
0000
0000
0000
1003
0001
0000
1000
0000
0010
0000
0000
,
0002
0000
0000
0000
0023
0000
0000
0000
1030
0100
0000
0001
0000
0100
0000
0000
,
1000
0001
0000
0001
1000
0000
0000
0000
0100
1000
0000
0001
0000
0100
0000
0000
,
2000
0000
0000
0000
3200
0000
0000
0000
0301
0100
0000
0010
0000
1000
0000
0000
,
0002
0000
0000
0000
0023
0000
0000
0000
1030
0010
0000
0001
0000
0100
0000
0000
,
0020
0000
0000
0000
2030
0000
0000
0000
3001
0010
0000
0001
0000
1000
0000
0000
,
0010
0100
0000
0001
1000
0000
0000
0000
0001
0010
0000
0001
0000
0100
0000
0000
,
1000
0000
0100
0000
0001
0000
0000
0000
1000
0010
0000
1000
0000
0100
0000
0000
,
0001
0000
0100
0000
1000
0000
0000
0000
0010
0100
0000
0001
0000
0010
0000
0000
,
0100
0000
1000
0000
0100
0000
0000
0000
0010
0001
0000
1000
0000
0010
0000
0000
,
1000
0001
0000
1000
0001
0000
0000
0000
1000
0010
0000
0100
0000
0100
0000
0000
,
0001
0000
0100
0000
1000
0000
0000
0000
0001
0010
0000
0100
0000
0100
0000
0000
,
1000
0000
0100
0000
0001
0000
0000
0000
0010
0100
0000
1000
0000
0010
0000
0000
,
0100
0001
0000
1000
0000
0100
0000
0000
0010
0000
0000
0001
0000
0000
1000
0000
,
0000
0001
0000
0000
0110
0000
0000
0000
2000
0000
0000
0000
0100
0000
0000
0000
,
3200
0001
0302
0010
,
0023
0000
1000
0000
1030
0100
0001
0000
,
0100
0001
0010
0000
0001
0010
1000
0000
,
0010
1000
0100
1000
2000
0000
0010
0000
,
3020
0001
0032
0100
,
0203
0000
1000
0000
1300
0010
0001
0000
,
0100
0000
1000
0000
0010
0000
0000
0000
2002
3003
0000
0000
0100
0010
0000
0000
,
1000
0100
1000
0000
0001
0100
0000
0100
0001
0000
0010
0000
0100
0000
1000
0000
,
0001
0100
0001
0000
1000
0100
0000
0100
1000
0000
0010
0000
0100
0000
0001
0000
,
1000
0100
0001
0100
1000
0010
0001
0010
,
1000
0100
0001
1000
0010
0001
1001
0000
,
1000
0010
1000
0000
0001
0010
0000
0010
0001
0000
0100
0000
0010
0000
1000
0000
,
0001
0010
0001
0000
1000
0010
0000
0010
1000
0000
0100
0000
0010
0000
0001
0000
,
1000
0001
0010
0010
1000
0001
0100
0100
,
1000
0001
0010
0010
1000
0001
0110
0000
,
0001
0010
0001
0000
1000
0010
0000
0010
0100
0000
0001
0000
0010
0000
0001
0000
,
1000
0010
1000
0000
0001
0010
0000
0010
0100
0000
1000
0000
0010
0000
0100
0000
,
0001
0010
1000
0001
1000
0010
0001
1000
,
0001
0100
1000
0001
1000
0100
1001
0000
,
0001
0100
0001
0000
1000
0100
0000
0100
0010
0000
0001
0000
0100
0000
0001
0000
,
1000
0100
1000
0000
0001
0100
0000
0100
0010
0000
1000
0000
0100
0000
0010
0000
,
0001
0010
0100
0100
0001
1000
0100
0100
,
2002
0000
0000
0000
3003
0000
0000
0000
1100
0000
0000
0101
0000
0000
0110
0000
,
1001
1000
0010
0100
,
0001
0000
0010
0000
0001
1000
0010
0000
,
0100
0001
0010
0001
,
0220
0330
0000
0000
2002
0000
0000
3003
0000
0000
0000
0000
0000
0000
0000
0000
;

//---------------dance-single - xRGTMx-DSP----------------
#NOTES:
     dance-single:
     xRGTMx-DSP:
     Medium:
     7:
     0.465600,0.437805,0.305848,0.305848,0.057347,277.000000,32.000000,32.000000,0.000000,0.000000,0.000000,0.465600,0.437805,0.305848,0.305848,0.057347,277.000000,32.000000,32.000000,0.000000,0.000000,0.000000:
0000
0000
0000
0000
,
0000
0000
0000
0000
,
0000
0000
0000
0000
,
0220
0330
0000
0000
1001
0000
0000
0000
1000
0000
0000
0000
0100
0000
0000
0000
,
0100
0001
1000
0010
,
0010
0001
1000
0100
,
0010
0000
0000
0000
0001
0000
0000
0000
0220
0330
0000
0000
1001
0000
0000
0000
,
1000
0100
1000
0000
0100
0000
0100
0000
,
0001
0100
0001
0000
0010
0000
0010
0000
,
2000
0100
3002
0100
,
2003
3002
0013
1001
,
0001
0010
0001
0000
0010
0000
0010
0000
,
1000
0010
1000
0000
0100
0000
0100
0000
,
0002
0010
2003
0010
,
3002
0000
2003
0000
3010
0010
0000
0000
,
1000
0100
0001
0100
,
1000
0000
0010
0000
0100
0010
0100
0000
,
0001
0010
1000
0010
,
0001
0000
0100
0000
0010
0100
0010
0000
,
1000
0100
0100
0001
,
1000
0000
0001
0000
0100
0010
0100
0000
,
0001
0100
0100
1000
,
2002
3003
0000
0000
0110
0000
0000
0000
1000
0000
0000
0000
1010
0000
0000
0000
,
0010
0100
0001
0011
,
0010
0100
1000
1001
,
0001
0100
0001
1001
,
0110
1001
1000
1100
,
0100
0010
0001
0101
,
0100
0010
1000
1001
,
0001
0010
0001
1001
,
0110
0000
0000
0000
1001
0000
0000
0000
0100
0000
0000
1000
0100
0000
0000
0000
,
1000
0000
0000
0000
0001
0000
0000
0000
0100
0000
0000
0001
0100
0000
0000
0000
,
0001
0000
0000
0000
1000
0000
0000
0000
0010
0000
0000
1000
0010
0000
0000
0000
,
1000
0000
0000
0000
0001
0000
0000
0000
0010
0000
0000
0001
0010
0000
0000
0000
,
0002
0000
0000
0000
2003
0000
0000
0000
3001
0000
0000
1000
0100
0000
0000
0000
,
0010
0000
0000
0000
0010
0000
0000
0000
1000
0000
0000
0001
0100
0000
0000
0000
,
0010
0000
0000
0000
0010
0000
0000
0000
0001
0000
0000
1000
0100
0000
0000
0000
,
1000
0000
0000
0001
0000
0100
0000
0000
0010
0000
0000
0100
0000
0000
0010
0000
,
0000
0100
0000
0000
0010
0000
0000
0000
2000
0000
0000
0000
0100
0000
0000
0000
,
3200
0010
0320
0001
,
0032
1000
1003
0010
,
0100
0001
1000
0100
,
0010
1001
0002
0100
,
0203
0010
0320
1000
,
2030
0001
3001
0010
,
0100
0000
0000
0000
1000
0000
0000
0000
2002
3003
0000
0000
0110
0000
0000
0000
,
1010
0000
1000
0000
0100
1000
0100
0000
,
0010
0000
0001
0000
0100
0001
0100
0000
,
0010
0010
0001
1000
,
0100
0000
0100
0000
0001
1000
0001
0000
,
1100
0000
1000
0000
0010
1000
0010
0000
,
0100
0000
0001
0000
0010
0001
0010
0000
,
0100
0100
0001
1000
,
0010
0010
1001
0110
,
0011
0000
0001
0000
0100
0001
0100
0000
,
0010
0000
1000
0000
0100
1000
0100
0000
,
0010
0010
1000
0001
,
0100
0000
0100
0000
1000
0001
1000
0000
,
0101
0000
0001
0000
0010
0001
0010
0000
,
0100
0000
1000
0000
0010
1000
0010
0000
,
0100
0100
1000
0001
,
0220
0000
0000
0000
0330
0000
0000
0000
1000
0000
0000
0001
0000
0000
1000
0000
,
1001
1000
0010
0100
,
0001
0000
0010
0000
0001
1000
0010
0000
,
0100
0001
0010
0001
,
0220
0330
0000
0000
2002
0000
0000
3003
0000
0000
0000
0000
0000
0000
0000
0000
;

//---------------dance-single - xRGTMx-BSP----------------
#NOTES:
     dance-single:
     xRGTMx-BSP:
     Easy:
     4:
     0.359099,0.375262,0.181597,0.286733,0.000000,214.000000,19.000000,30.000000,0.000000,0.000000,0.000000,0.359099,0.375262,0.181597,0.286733,0.000000,214.000000,19.000000,30.000000,0.000000,0.000000,0.000000:
0000
0000
0000
0000
,
0000
0000
0000
0000
,
0000
0000
0000
0000
,
0220
0330
0000
0000
0000
0000
0000
0000
1001
0000
0000
0000
0000
0000
0000
0000
,
1000
0000
0100
0000
,
0100
0000
0001
0000
,
1000
0000
0000
0000
0000
0000
0000
0000
0220
0330
0000
0000
0000
0000
0000
0000
,
1001
1000
0001
0001
,
0100
0100
0001
0000
,
1000
0010
0010
0001
,
1000
0001
0110
0000
,
0001
0001
1000
1000
,
0100
0100
1000
0000
,
0001
0010
0010
1000
,
0001
0000
1000
0000
0000
0110
0000
0000
,
1001
1000
0100
0000
,
1000
0000
0001
0000
0200
0300
0000
0000
,
0001
1000
0100
0000
,
1000
0000
0001
0000
0200
0300
0000
0000
,
1001
1000
0010
0000
,
1000
0001
0020
0000
,
0031
1000
0010
1000
,
2002
3003
0000
0000
0000
0000
0000
0000
1000
0000
0000
0000
0100
0000
0000
0000
,
0100
0001
1000
0100
,
0100
0001
1000
0010
,
0010
0001
1000
0010
,
0010
0001
1000
0001
,
0100
0100
1000
0001
,
0100
0100
1000
0001
,
0010
0010
1000
0001
,
0010
0010
1000
0100
,
0010
0010
1000
0001
,
0010
0010
0100
0001
,
0010
0010
1000
0001
,
0010
0010
1000
0100
,
0010
0010
1000
0001
,
0010
0010
0100
0001
,
0010
0000
0010
0000
0001
0000
0000
1000
,
0000
1001
0002
0003
,
0200
0300
2000
3000
,
0020
0030
0001
0100
,
1000
0000
1000
0010
,
0001
0000
2000
3000
,
0200
0300
0002
0003
,
0020
0030
1000
0100
,
0001
0000
0000
0000
0010
0000
0000
0000
2002
3003
0000
0000
0000
0000
0000
0000
,
1000
0100
0001
0100
,
1000
0010
0001
0010
,
1000
0100
0010
0001
,
0100
0010
2002
3003
,
0001
0100
1000
0100
,
0001
0010
1000
0010
,
0001
0100
0010
1000
,
0100
0010
2002
3003
,
1000
0010
0010
0001
,
1000
0100
0100
0001
,
1000
0100
0010
0001
,
0010
0100
1000
1001
,
0001
0100
0100
1000
,
0001
0010
0010
1000
,
0001
0100
0010
1000
,
2002
3003
0110
0000
,
1001
1000
0010
0100
,
0001
0000
0010
0000
0002
0003
0000
0000
,
1000
0001
0100
0001
,
0220
0330
0000
0000
2002
0000
0000
3003
0000
0000
0000
0000
0000
0000
0000
0000
;

//---------------dance-single - xRGTMx-BEG----------------
#NOTES:
     dance-single:
     xRGTMx-BEG:
     Beginner:
     3:
     0.267617,0.249458,0.191155,0.047789,0.000000,171.000000,20.000000,5.000000,0.000000,0.000000,0.000000,0.267617,0.249458,0.191155,0.047789,0.000000,171.000000,20.000000,5.000000,0.000000,0.000000,0.000000:
0000
0000
0000
0000
,
0000
0000
0000
0000
,
0000
0000
0000
0000
,
0110
0000
1000
0000
,
0100
0000
0100
0000
,
0001
0000
1000
0000
,
0001
0000
0110
0000
,
1001
0000
1000
0000
,
0001
0001
0001
0000
,
0100
0100
0010
0000
,
0010
0010
0100
0000
,
1001
0000
0001
0000
,
1000
1000
1000
0000
,
0100
0100
0010
0000
,
0010
0000
0010
0000
0200
0300
0000
0000
,
1001
0000
1000
0000
,
0100
0000
0000
0000
0200
0300
0000
0000
,
0001
0000
1000
0000
,
0010
0100
0010
0000
,
1001
0000
0001
0000
,
0100
0000
0100
0000
,
1000
0000
0001
0000
,
0110
0000
1000
1000
,
1000
0000
0100
0100
,
0100
0000
0001
0001
,
0001
0000
0010
0010
,
0010
0000
1000
1000
,
1000
0000
0100
0100
,
0100
0000
0001
0001
,
0001
0000
0010
0010
,
0010
0000
1000
1000
,
0100
0000
0100
0100
,
0001
0000
0001
0001
,
0010
0000
0010
0010
,
1000
0000
1000
1000
,
0100
0000
0100
0100
,
0001
0000
0001
0001
,
0010
0000
0000
0000
0020
0000
0000
0030
,
0000
1001
1001
0000
,
1000
0000
0100
0000
,
0100
0000
0001
0000
,
0001
0000
0100
0000
,
0100
0000
1000
0000
,
0010
0000
0100
0000
,
0001
0000
0010
0010
,
0010
0000
1001
0000
,
1000
1000
1000
1000
,
1000
1000
1001
0000
,
0001
0001
0001
0001
,
0001
0001
1001
0000
,
0100
0100
0100
0100
,
0100
0100
0110
0000
,
0010
0010
0010
0010
,
0010
0010
0110
0000
,
1000
1000
1000
1000
,
1000
1000
1001
0000
,
0001
0001
0001
0001
,
0001
0001
1001
0000
,
0100
0100
0100
0100
,
0100
0100
0110
0000
,
0010
0010
0010
0010
,
0010
0000
0110
0000
,
1001
0000
1000
0000
,
0100
0000
0010
0000
,
0001
0000
0100
0000
,
0220
0330
0000
0000
;

//---------------dance-double - xRGTMx-EDP----------------
#NOTES:
     dance-double:
     xRGTMx-EDP:
     Hard:
     9:
     0.654024,0.625436,0.305848,0.277175,0.439657,418.000000,32.000000,29.000000,0.000000,0.000000,0.000000,0.654024,0.625436,0.305848,0.277175,0.439657,418.000000,32.000000,29.000000,0.000000,0.000000,0.000000:
00000000
00000000
00000000
00000000
,
00000000
00000000
00000000
00000000
,
00000000
00000000
00000000
00000000
,
02200000
03300000
00000000
00000000
10000000
00010000
00000000
00000000
10000000
00000000
00100000
00000000
01000000
00000000
00000000
00000000
,
00010000
00000000
00100000
00000000
00001000
00010000
00000100
00000000
,
00000010
00000000
00000001
00000000
00000100
00000001
00001000
00000000
,
00000100
00000000
00000000
00000000
00010000
00000000
00000000
00000000
02200000
03300000
00000000
00000000
00010000
10000000
00000000
00000000
,
00010000
00100000
01000000
00100000
00001000
00010000
00100000
00010000
,
00001000
00000010
00000100
00001000
00000010
00000100
00000001
00000000
,
00001000
00000001
00000100
00000100
00010000
00000100
00001000
00001000
,
00010000
00000100
00001000
00100000
00010000
00000100
00001001
00000000
,
00001000
00000010
00000100
00000010
00010000
00001000
00000010
00001000
,
00010000
00100000
01000000
00010000
00100000
01000000
10000000
00000000
,
00010000
10000000
01000000
01000000
00001000
01000000
00010000
00010000
,
00001000
01000000
00010000
00000010
00001000
00210000
00000000
00000000
,
01300000
00000000
00000000
10000000
00000000
00000000
00010000
00000000
00000000
00100000
00000000
00000000
00001000
00000000
00010000
00000000
,
00001000
00000000
00000000
00010000
00000000
00000000
00000100
00000000
00000000
00000010
00000001
00000000
00001000
00000000
00000000
00000000
,
00000101
00000000
00000000
00000001
00000000
00000000
00001000
00000000
00000000
00000010
00000000
00000000
00010000
00000000
00001000
00000000
,
00010000
00000000
00000000
00001000
00000000
00000000
01000000
00000000
00000000
00100000
10000000
00000000
00010000
00000000
00010000
00000000
,
00100000
00000000
00000000
01000000
00000000
00000000
10000000
00000000
00000000
00100000
00000000
00000000
00010000
00000000
00100000
00000000
,
01000000
00000000
00000000
00001000
00000000
00000000
00020000
00000000
00000000
00000100
00000000
00000000
00000010
00000000
00000000
00000000
,
00030100
00000000
00000000
00000100
00001000
00000000
00000010
00000000
00010000
00000000
00000000
00010000
00001000
00000000
00100000
00000000
,
02200000
03300000
00000000
00000000
10010000
00000000
00000000
00000000
00010000
00100000
00000000
00001000
00000000
00010000
00000000
00000000
,
00000200
00000000
00000000
00000000
00000320
00000000
00000000
00000000
00000031
00000100
00000000
00000010
00000000
00010000
00000000
00000000
,
00002000
00000000
00000000
00000000
00203000
00000000
00000000
00000000
00310000
01000000
00000000
00100000
00000000
10000000
00000000
00000000
,
02000000
00000000
00000000
00000000
23000000
00000000
00000000
00000000
30010000
00100000
00000000
00001000
00000000
00010000
00000000
00000000
,
00001000
00000000
00000000
00010000
00000010
00000000
00000000
00000000
00001000
00000100
00000000
00010000
00000000
00001000
00000000
00000000
,
00200000
00000000
00000000
00000000
02300000
00000000
00000000
00000000
13000000
00100000
00000000
01000000
00000000
00001000
00000000
00000000
,
00020000
00000000
00000000
00000000
00030200
00000000
00000000
00000000
00001300
00000010
00000000
00000100
00000000
00000001
00000000
00000000
,
00000020
00000000
00000000
00000000
00000032
00000000
00000000
00000000
00001003
00000100
00000000
00010000
00000000
00001000
00010000
00000000
,
00001000
00100000
00000000
00010000
02000000
00000000
00000000
00000000
03010000
10000000
00000000
00100000
00000000
01000000
00000000
00000000
,
00010000
00000000
00100000
00000000
00001000
00000000
00000000
00000000
00010000
00000100
00000000
00001000
00000000
00000010
00000000
00000000
,
00000100
00000000
00000001
00000000
00000010
00000000
00000000
00000000
00001000
00000010
00000000
00000001
00000000
00000100
00000000
00000000
,
00000010
00000000
00010000
00000000
00001000
00000000
00000000
00000000
00100000
00001000
00000000
01000000
00000000
00010000
00000000
00000000
,
01000000
00000000
00100000
00000000
10010000
00000000
00000000
00000000
00010000
10000000
00000000
01000000
00000000
00100000
00000000
00000000
,
00010000
00000000
01000000
00000000
00001000
00000000
00000000
00000000
00010000
00000010
00000000
00001000
00000000
00000100
00000000
00000000
,
00000010
00000000
00000001
00000000
00000100
00000000
00000000
00000000
00001000
00000100
00000000
00000001
00000000
00000010
00000000
00000000
,
00000100
00000000
00010000
00000000
00001000
00000000
00000000
00000000
00011000
00000000
00000000
00110000
00000000
00000000
01100000
00000000
,
00000000
11000000
00000000
00000000
10010000
00000000
00000000
00000000
10000000
00000000
00000000
00000000
01100000
00000000
00000000
00000000
,
00010000
00001100
00000010
00000101
,
00000010
00000000
00001100
00000000
00010000
00001000
00100000
00000000
,
00010000
10000000
00100000
00000000
01000000
00001000
00010000
00001000
,
00010000
00000100
00000010
00000000
00000001
00000000
00000110
00000000
,
00001000
00110000
01000000
10100000
,
01000000
00000000
00110000
00000000
00001000
00010000
00000100
00000100
,
00000001
00000000
00001000
00000000
00000010
00000000
00000010
00000000
00002002
00003003
00000000
00000000
00000001
00001000
00000000
00000000
,
00000010
00000100
00000000
00000000
00000001
00001000
00000000
00001000
00000100
00000000
00010000
00000000
00001000
00000000
00010000
00000000
,
00100000
00010000
00000000
00000000
00001000
00100000
00000000
00100000
01000000
00000000
10000000
00000000
00010000
00000000
00000000
00000000
,
10000000
00100000
00010000
00001000
00000100
00000010
00000100
00001000
,
00010000
00100000
10000000
01000000
00100000
00010000
10010000
00000000
,
01000000
00100000
00000000
00000000
10000000
00010000
00000000
00010000
00100000
00000000
00001000
00000000
00010000
00000000
00001000
00000000
,
00000010
00001000
00000000
00000000
00010000
00000100
00000000
00000100
00000010
00000000
00000001
00000000
00001000
00000000
00000000
00000000
,
00000001
00000100
00001000
00010000
00100000
01000000
00100000
00010000
,
00001000
00000100
00000001
00000010
00000100
00001000
00000110
00000000
,
00001000
00000001
00001000
00000000
00000100
00010000
00000000
00010000
00001000
00000000
00100000
00000000
00100000
00000000
10000000
00000000
,
00010000
10000000
00010000
00000000
01000000
00001000
00000000
00001000
00010000
00000000
00000010
00000000
00000010
00000000
00000001
00000000
,
00001000
00000100
00000010
00000100
00001000
00100000
00010000
00100000
,
10000000
01000000
00100000
00001000
00010000
00001000
01100000
00000000
,
00010000
10000000
00010000
00000000
00100000
00001000
00000000
00001000
00010000
00000000
00000100
00000000
00000100
00000000
00000001
00000000
,
00001000
00000001
00001000
00000000
00000010
00010000
00000000
00010000
00001000
00000000
01000000
00000000
01000000
00000000
10000000
00000000
,
00010000
00100000
01000000
00100000
00010000
00000100
00001000
00000100
,
00002002
00000000
00000000
00000000
00003003
00000000
00000000
00000000
00001010
00000000
00000000
00011000
00000000
00000000
00110000
00000000
,
00011000
00010000
00000100
00000010
,
00000001
00000000
00000100
00000000
00000010
00010000
00001000
00000000
,
00100000
10000000
01000000
00010000
,
02200000
03300000
00000000
00000000
20020000
00000000
00000000
30030000
00000000
00000000
00000000
00000000
00000000
00000000
00000000
00000000
;

//---------------dance-double - xRGTMx-DDP----------------
#NOTES:
     dance-double:
     xRGTMx-DDP:
     Medium:
     6:
     0.427368,0.406533,0.162482,0.219829,0.023894,273.000000,17.000000,23.000000,0.000000,0.000000,0.000000,0.427368,0.406533,0.162482,0.219829,0.023894,273.000000,17.000000,23.000000,0.000000,0.000000,0.000000:
// measure 0
00000000
00000000
00000000
00000000
,  // measure 1
00000000
00000000
00000000
00000000
,  // measure 2
00000000
00000000
00000000
00000000
,  // measure 3
02200000
03300000
00000000
00000000
10010000
00000000
00000000
00000000
10000000
00000000
00000000
00000000
01000000
00000000
00000000
00000000
,  // measure 4
01000000
00001000
00010000
00000000
,  // measure 5
00000100
00000000
00001000
00000010
,  // measure 6
00000010
00000000
00000000
00000000
00000001
00000000
00000000
00000000
00000220
00000330
00000000
00000000
00001001
00000000
00000000
00000000
,  // measure 7
00000001
00001000
00000010
00000000
00001000
00000000
00000100
00000000
,  // measure 8
00010000
00010000
00001000
00001000
,  // measure 9
00100000
00010000
00010000
00001000
,  // measure 10
01000000
00100000
00100000
00010000
,  // measure 11
10000000
00010000
00100000
00000000
00010000
00000000
01000000
00000000
,  // measure 12
00001000
00001000
00010000
00010000
,  // measure 13
00000010
00001000
00001000
00010000
,  // measure 14
00000100
00000000
00000010
00000000
00000001
00002000
00000000
00000000
,  // measure 15
00003001
00000010
00000010
00001000
,  // measure 16
00000100
00000000
00010000
00000000
00001000
00010000
00001000
00000000
,  // measure 17
00100000
00010000
00010000
00001000
,  // measure 18
00100000
00000000
01000000
00000000
10000000
00010000
00000000
00010000
,  // measure 19
10000000
01000000
01000000
00010000
,  // measure 20
00100000
00002000
00010000
00100000
,  // measure 21
00013000
00001000
00010000
00000100
,  // measure 22
00000220
00000330
00000000
00000000
00001001
00000000
00000000
00000000
00000001
00000000
00000000
00000000
00000010
00000000
00000000
00000000
,  // measure 23
00000010
00001000
00000100
00010000
,  // measure 24
00010000
00100000
00010000
01000000
,  // measure 25
01000000
10000000
00010000
00100000
,  // measure 26
01100000
10010000
10000000
00100000
,  // measure 27
00100000
00010000
00100000
00001000
,  // measure 28
00001000
00000010
00001000
00000100
,  // measure 29
00000100
00000001
00001000
00000010
,  // measure 30
00000110
00000000
00001001
00000000
00000001
00001000
00000001
00000000
,  // measure 31
00000100
00000000
00000100
00000000
00010000
00001000
00010000
00000000
,  // measure 32
01000000
00000000
01000000
00000000
00010000
10000000
00010000
00000000
,  // measure 33
00100000
00000000
00100000
00000000
10000000
00010000
00100000
00000000
,  // measure 34
00011000
00000000
00000110
00000000
00000001
00001000
00000001
00000000
,  // measure 35
00000010
00000000
00000010
00000000
00010000
00001000
00010000
00000000
,  // measure 36
00100000
00000000
00100000
00000000
00010000
10000000
00010000
00000000
,  // measure 37
01000000
00000000
00000000
00001000
00000000
00010000
00000000
00000000
00010000
00000000
00000000
00001000
00000000
00000000
00010000
00000000
,  // measure 38
00000000
00001000
00000000
00000000
00010000
00000000
00000000
00000000
00000200
00000000
00000000
00000000
00000300
00000000
00000000
00000000
,  // measure 39
00002000
00003000
00000020
00000030
,  // measure 40
00000200
00000300
00000001
00000010
,  // measure 41
00000100
00001000
00010000
00100000
,  // measure 42
01000000
10000000
00200000
00300000
,  // measure 43
00020000
00030000
02000000
03000000
,  // measure 44
00200000
00300000
10000000
01000000
,  // measure 45
00100000
00000000
00000000
00000000
00010000
00000000
00000000
00000000
00022000
00033000
00000000
00000000
00000000
00000000
00000000
00000000
,  // measure 46
00000010
00001000
00000010
00000000
00000100
00000001
00000100
00000000
,  // measure 47
00000010
00010000
00001000
00001000
,  // measure 48
00000100
00010000
00000100
00000000
00100000
00001000
00100000
00000000
,  // measure 49
00010000
10000000
01000000
01000000
,  // measure 50
00100000
10000000
00100000
00000000
01000000
00010000
01000000
00000000
,  // measure 51
00100000
10000000
00010000
00010000
,  // measure 52
00001000
00100000
00001000
00000000
00010000
00000100
00010000
00000000
,  // measure 53
00000010
00001000
00000001
00001001
,  // measure 54
00001000
00000001
00001000
00000000
00000010
00000100
00000010
00000100
,  // measure 55
00000001
00000010
00000100
00001000
,  // measure 56
00010000
10000000
00010000
00000000
00100000
01000000
00100000
01000000
,  // measure 57
10000000
00100000
01000000
00010000
,  // measure 58
00001000
00000001
00001000
00000000
00000100
00000010
00000100
00000010
,  // measure 59
00000001
00000100
00000010
00001000
,  // measure 60
00010000
10000000
00010000
00000000
01000000
00100000
01000000
00100000
,  // measure 61
20000000
00000000
00000000
00000000
00000000
00000000
00000000
00000000
30010000
00000000
00000000
00100000
00000000
00000000
00001000
00000000
,  // measure 62
00011000
00010000
00000100
00000010
,  // measure 63
00000001
00000000
00000100
00000000
00000010
00010000
00001000
00000000
,  // measure 64
00100000
00010000
01000000
00100000
,  // measure 65
02200000
03300000
00000000
00000000
20020000
00000000
00000000
30030000
00000000
00000000
00000000
00000000
00000000
00000000
00000000
00000000
;

//---------------dance-double - xRGTMx-BSP----------------
#NOTES:
     dance-double:
     xRGTMx-BSP:
     Easy:
     3:
     0.260790,0.311822,0.162482,0.066904,0.000000,167.000000,17.000000,7.000000,0.000000,0.000000,0.000000,0.260790,0.311822,0.162482,0.066904,0.000000,167.000000,17.000000,7.000000,0.000000,0.000000,0.000000:
// measure 0
00000000
00000000
00000000
00000000
,  // measure 1
00000000
00000000
00000000
00000000
,  // measure 2
00000000
00000000
00000000
00000000
,  // measure 3
01100000
00000000
10000000
00000000
,  // measure 4
01000000
00000000
01000000
00000000
,  // measure 5
00010000
00000000
00100000
00000000
,  // measure 6
00001000
00000000
00011000
00000000
,  // measure 7
00000001
00000001
00000010
00000000
,  // measure 8
00000001
00000000
00001000
00000000
,  // measure 9
00000100
00010000
00010000
00000000
,  // measure 10
00001000
00000000
00100000
00000000
,  // measure 11
00010000
01000000
01000000
00000000
,  // measure 12
00100000
00000000
10000000
00000000
,  // measure 13
00010000
00010000
00100000
00100000
,  // measure 14
00001000
00000000
00000000
00000000
00022000
00033000
00000000
00000000
,  // measure 15
00000001
00000000
00001000
00000000
,  // measure 16
00000100
00000000
00000100
00000000
00000200
00000300
00000000
00000000
,  // measure 17
00010000
00000000
00001000
00000000
,  // measure 18
00100000
00000000
00100000
00000000
00200000
00300000
00000000
00000000
,  // measure 19
00010000
00000000
10000000
00000000
,  // measure 20
01000000
01000000
02000000
00000000
,  // measure 21
03100000
00000000
00001000
00000000
,  // measure 22
00011000
00000000
00000001
00000001
,  // measure 23
00001000
00000000
00000100
00010000
,  // measure 24
00010000
00000000
00001000
00001000
,  // measure 25
00100000
00000000
00010000
10000000
,  // measure 26
10000000
00000000
00010000
00010000
,  // measure 27
00100000
00000000
00001000
00010000
,  // measure 28
00010000
00000000
00000100
00000100
,  // measure 29
00001000
00000000
00000010
00000100
,  // measure 30
00000100
00000000
00000001
00001000
,  // measure 31
00000001
00000000
00001000
00001000
,  // measure 32
00000100
00000000
00010000
00001000
,  // measure 33
00010000
00000000
00001000
00001000
,  // measure 34
00100000
00000000
00010000
10000000
,  // measure 35
00010000
00000000
00100000
00010000
,  // measure 36
00001000
00000000
00010000
00000100
,  // measure 37
00010000
00000000
00000000
00000000
00000010
00000000
00000000
00000100
,  // measure 38
00000000
00000010
00001001
00000000
,  // measure 39
00000100
00000000
00011000
00000000
,  // measure 40
01000000
00000000
10010000
00000000
,  // measure 41
00100000
00000000
00011000
00000000
,  // measure 42
00000010
00000000
00001001
00000000
,  // measure 43
00000100
00000000
00011000
00000000
,  // measure 44
01000000
00000000
10010000
00000000
,  // measure 45
00100000
00000000
00011000
00000000
,  // measure 46
00000001
00000010
00000010
00001000
,  // measure 47
00000100
00000000
00010000
00000000
,  // measure 48
00001000
00100000
00100000
10000000
,  // measure 49
01000000
00000000
10000000
00000000
,  // measure 50
00010000
00100000
00100000
01000000
,  // measure 51
00001000
00000000
00010000
00000000
,  // measure 52
00000100
00001000
00001000
00010000
,  // measure 53
00000100
00000010
00002002
00003003
,  // measure 54
00000001
00000100
00000100
00001000
,  // measure 55
00000010
00000000
00010000
00000000
,  // measure 56
00001000
01000000
01000000
10000000
,  // measure 57
00100000
00000000
10000000
00000000
,  // measure 58
00010000
01000000
01000000
00100000
,  // measure 59
00001000
00000000
00010000
00000000
,  // measure 60
00000010
00001000
00001000
00010000
,  // measure 61
00000010
00000000
00000110
00000000
,  // measure 62
00011000
00000000
00010000
00000000
,  // measure 63
00000100
00000000
00000100
00000000
,  // measure 64
00000001
00000000
00001000
00000000
,  // measure 65
00011000
01100000
00000000
00000000
;
