#TITLE:Lunu Dehi;
#SUBTITLE:;
#ARTIST:Gypsies;
#TITLETRANSLIT:;
#SUBTITLETRANSLIT:;
#ARTISTTRANSLIT:;
#GENRE:;
#CREDIT:;
#BANNER:[ROUND L] - Lunu Dehi;
#BACKGROUND:[ROUND L] - Lunu Dehi-bg;
#LYRICSPATH:;
#CDTITLE:cdtitle.png;
#MUSIC:[ROUND L] - Lunu Dehi.ogg;
#OFFSET:1.000000;
#SAMPLESTART:65.333328;
#SAMPLELENGTH:15.000000;
#LASTBEATHINT:204.758316;
#SELECTABLE:YES;
#DISPLAYBPM:127.000000;
#BPMS:0.000000=125.800011
,12.000000=126.500000
,44.000000=126.800011
,124.000000=126.699997
,314.000000=124.000000
;
#STOPS:
;
#BGCHANGES:;
#KEYSOUNDS:;
#ATTACKS:;

//---------------dance-single - ----------------
#NOTES:
     dance-single:
     :
     Beginner:
     1:
     0.149725,0.236985,0.020754,0.103770,0.000000,101.000000,99.000000,2.000000,10.000000,0.000000,0.000000,0.149725,0.236985,0.020754,0.103770,0.000000,101.000000,99.000000,2.000000,10.000000,0.000000,0.000000:
0000
0000
0000
0000
,
0000
0000
0000
0000
,
0000
0000
0000
0000
,
1000
0000
1000
0000
,
0001
0000
0001
0000
,
0100
0000
0100
0000
,
0010
0000
0010
0000
,
0000
1000
0000
1000
,
0000
0001
0000
0001
,
0010
0020
0000
0030
,
0100
0200
0000
0300
,
1000
0000
0100
0000
,
0010
0000
0001
0000
,
0100
0000
0001
0000
,
0010
0000
0100
0000
,
1000
0000
0010
0000
,
0100
0000
0001
0000
,
0010
0000
0001
0000
,
0100
0000
0010
0000
,
2000
0000
3000
0000
,
0002
0000
0003
0000
,
0020
0000
0030
0000
,
0200
0000
0300
0000
,
2000
0000
3000
0000
,
0002
0000
0003
0000
,
0100
0000
0100
0000
,
0010
0000
2002
3003
,
0001
0000
0010
0000
,
0100
0000
1000
0000
,
0010
0000
1000
0000
,
0100
0000
0010
0000
,
0001
0000
0100
0000
,
0010
0000
1000
0000
,
0100
0000
0010
0000
,
0001
0000
1000
0000
,
1000
1000
1000
1000
,
0001
0001
0001
0001
,
0010
0010
0000
0000
,
0100
0100
0000
0000
,
0010
0010
0010
0010
,
0100
0100
0100
0100
,
1000
1000
0000
0000
,
0001
0001
0000
0000
,
0100
0100
0000
0000
,
0001
0001
0000
0000
,
1000
1000
0000
0000
,
0010
0010
0000
0000
,
1000
1000
0000
0000
,
0100
0100
0000
0000
,
0010
0010
0000
0000
,
0001
0001
0000
1001
;

//---------------dance-single - ----------------
#NOTES:
     dance-single:
     :
     Easy:
     3:
     0.269802,0.315980,0.342441,0.394326,0.000000,182.000000,149.000000,33.000000,38.000000,0.000000,0.000000,0.269802,0.315980,0.342441,0.394326,0.000000,182.000000,149.000000,33.000000,38.000000,0.000000,0.000000:
0000
0000
0000
0000
,
0000
0000
0000
0000
,
0000
0000
0000
0000
,
2100
0100
0100
3100
,
0012
0010
0010
0013
,
0102
0100
0100
0103
,
2010
0010
3200
0320
,
0030
0001
0001
0001
,
0000
1000
1000
1000
,
0010
0020
0000
0130
,
0100
0200
0000
0310
,
1000
1000
0000
0100
,
0001
0001
0000
0100
,
1000
0010
0100
0001
,
0010
0000
0110
0010
,
0001
0001
0000
0100
,
1000
1000
0000
0100
,
0001
0010
0100
1000
,
0001
1000
0010
0000
,
1000
0000
0100
0010
,
0001
0100
0000
0110
,
0001
0000
0100
0010
,
1000
0100
0000
1001
,
1000
0100
0010
0001
,
0010
0100
0000
1000
,
0010
0100
0001
0100
,
0010
1000
2002
3003
,
0001
0010
0000
0001
,
0100
0001
0000
1000
,
0100
1000
0010
1000
,
2002
3003
0220
0330
,
1000
0010
0000
1000
,
0100
1000
0000
0001
,
0100
0001
0010
0001
,
0220
0330
2002
3003
,
1000
0100
1000
0100
,
0010
0001
0010
0001
,
0101
2020
0000
3030
,
1100
0022
0000
0033
,
0001
0010
0001
0010
,
0100
1000
0100
1000
,
1010
0202
0000
0303
,
0011
2200
0000
3300
,
1000
0100
0001
0100
,
1000
0010
0001
0010
,
0110
0220
0000
0330
,
1001
2002
0000
3003
,
0101
0202
0000
0303
,
1100
2200
0000
3300
,
0011
0022
0000
0033
,
1010
2020
3030
1001
;

//---------------dance-single - ----------------
#NOTES:
     dance-single:
     :
     Medium:
     5:
     0.385431,0.421306,0.114147,0.186786,0.000000,260.000000,249.000000,11.000000,18.000000,0.000000,0.000000,0.385431,0.421306,0.114147,0.186786,0.000000,260.000000,249.000000,11.000000,18.000000,0.000000,0.000000:
// measure 0
0000
0000
0000
0000
,  // measure 1
0000
0000
0000
0000
,  // measure 2
0000
0000
0000
0000
,  // measure 3
1000
0000
1000
0000
1000
0000
1000
0100
,  // measure 4
0010
0000
0010
0000
0010
0000
0100
0010
,  // measure 5
0001
0000
0001
0000
0001
0000
0001
0100
,  // measure 6
0010
0000
0010
0000
2002
0000
0000
3003
,  // measure 7
1000
0100
1000
0000
0010
0010
0010
0000
,  // measure 8
0100
0001
0100
0000
0010
0010
0010
0000
,  // measure 9
1000
1000
1000
2000
0000
0000
3000
0000
,  // measure 10
0001
0001
0001
0002
0000
0000
0003
0000
,  // measure 11
1000
0000
0010
0000
0100
0000
0001
0010
,  // measure 12
0001
0000
0010
0000
0100
0000
1000
0001
,  // measure 13
1000
0000
0010
0100
0001
0000
1000
0000
,  // measure 14
1020
0000
0100
0000
1030
0000
0001
1000
,  // measure 15
0010
0000
0100
0000
0010
0000
1000
0001
,  // measure 16
0100
0000
0010
0000
0100
0000
0001
1000
,  // measure 17
0100
0000
0010
0001
1000
0000
0010
1000
,  // measure 18
0001
0100
0110
1001
,  // measure 19
1000
0100
1000
0000
0010
0000
0110
0000
,  // measure 20
0001
0100
0001
0000
0010
0000
0110
0000
,  // measure 21
0010
0001
0010
0000
0100
0000
1001
0000
,  // measure 22
0100
1000
0100
0000
0010
0000
1001
0000
,  // measure 23
1000
0100
0001
0100
0000
0000
0010
0001
,  // measure 24
1000
0010
0100
0000
1001
0000
0100
0010
,  // measure 25
1000
0000
0001
0100
0010
0000
0100
0001
,  // measure 26
0010
0010
0010
0010
2002
0000
3003
0000
,  // measure 27
1000
0000
0100
0000
0010
0000
0001
0100
,  // measure 28
0001
0000
0100
0000
0010
0000
1000
0010
,  // measure 29
1000
0000
0001
0010
0001
0000
0100
0000
,  // measure 30
0200
0000
0010
0000
0301
0000
1000
0001
,  // measure 31
0010
0000
0100
0000
1000
0000
0001
0100
,  // measure 32
0010
0000
0100
0000
0001
0000
1000
0100
,  // measure 33
0010
0000
0100
1000
0010
0000
0100
0000
,  // measure 34
0001
0000
0010
0000
0100
1000
0001
0100
,  // measure 35
0010
0010
0010
0000
1000
1000
1000
0000
,  // measure 36
0001
0001
0001
0000
0100
0100
0100
0000
,  // measure 37
0001
0010
0010
0020
0000
0000
0130
0000
,  // measure 38
1000
0010
0010
0020
0000
0000
0130
0000
,  // measure 39
0100
0100
0100
0000
0001
0001
0001
0000
,  // measure 40
1000
1000
1000
0000
0010
0010
0010
0000
,  // measure 41
1000
0100
0100
0200
0000
0000
1300
0000
,  // measure 42
0001
0100
0100
0200
0000
0000
0301
0000
,  // measure 43
0010
0000
0010
0001
0010
0100
1000
0000
,  // measure 44
0100
1000
0010
1000
0010
0100
0001
0000
,  // measure 45
1000
1000
0001
0002
0000
0000
0013
0000
,  // measure 46
0100
0100
0010
0020
0000
0000
0031
0000
,  // measure 47
0100
0001
0100
0002
0000
0000
1003
0000
,  // measure 48
0010
1000
0010
2000
0000
0000
3100
0000
,  // measure 49
0010
0001
0010
0002
0000
0000
1003
0000
,  // measure 50
1000
0010
1000
0020
0000
0030
0110
0000
;

//---------------dance-single - ----------------
#NOTES:
     dance-single:
     :
     Hard:
     8:
     0.590006,0.684622,0.466965,0.487719,0.441022,398.000000,353.000000,45.000000,47.000000,0.000000,0.000000,0.590006,0.684622,0.466965,0.487719,0.441022,398.000000,353.000000,45.000000,47.000000,0.000000,0.000000:
0000
0000
0000
0000
,
0000
0000
0000
0000
,
0000
0000
0000
0000
0000
0000
0000
0000
0000
0000
0000
0000
0000
0000
0001
0100
,
0002
0000
0003
0000
0002
0000
0003
0000
0002
0000
0003
0000
0001
0000
0001
0100
,
0020
0000
0030
0000
0020
0000
0030
0000
0020
0000
0030
0000
0010
0000
1000
0100
,
2000
0000
3000
0000
2000
0000
3000
0000
2000
0000
3000
0000
1000
0000
1000
0100
,
0020
0000
0030
0000
0020
0000
0030
0000
0001
1000
0001
1000
0010
0000
0000
0000
,
0000
0000
1000
0100
1000
0000
0001
0100
0001
0100
0000
0010
0000
0100
0010
0000
,
0000
0000
1000
0010
1000
0000
0001
0010
0001
0010
0000
0100
0000
0010
0100
0000
,
1000
1010
1010
1020
0000
0000
0130
0000
,
0001
0011
0011
0021
0000
0000
0130
0000
,
0010
0000
0000
0001
0010
0000
0100
0000
1000
0100
0000
0100
1000
0000
0000
0000
,
0010
0000
0000
1000
0100
0000
0010
0000
0001
0100
0000
0100
0001
0000
1000
0000
,
0200
0000
0000
0320
0000
0000
0031
0000
1000
0000
0010
0100
0010
0000
1000
0000
,
0001
0000
1000
0001
0010
0000
0000
0001
0010
0000
0000
0000
0001
0000
1000
0000
,
0100
0000
0000
1000
0100
0000
0010
0000
0001
0010
0000
0010
0001
0000
0000
0000
,
0100
0000
0000
0001
0010
0000
0100
0000
1000
0010
0000
0010
1000
0000
0001
0000
,
0020
0000
0000
0230
0000
0000
1300
0000
0001
0000
0100
0010
0100
0000
0001
0000
,
1000
0100
0001
0000
1000
0010
0001
1000
,
0002
0000
0000
0203
0000
0000
0320
0000
0000
0000
0000
0000
1030
0000
0000
0000
,
1000
0000
0010
0100
0000
0010
2000
0000
0000
0000
3000
0000
1000
0000
0001
0000
,
2000
0000
0000
3200
0000
0000
0320
0000
0000
0000
0000
0000
0031
0000
0010
0000
,
0001
0000
0100
0010
0000
0100
0002
0000
0000
0000
0000
0000
1003
0000
0010
0000
,
1000
0001
0100
0020
0000
0000
1030
1000
,
0001
0000
0010
0100
0000
0010
1000
0000
0001
0000
0100
0000
1000
0000
0001
0000
,
2000
0000
3002
0000
1003
0010
0100
0001
,
0010
0110
0110
0110
2002
0000
3003
0000
,
1000
0000
0000
1000
0010
0000
0100
0000
0001
1000
0000
0001
1000
0000
0000
0000
,
0001
0000
0000
0001
0100
0000
0010
0000
1000
0001
0000
1000
0001
0000
0010
0000
,
0200
0000
0000
0320
0000
0000
0032
0000
1003
0000
0010
0100
0010
0000
1000
0000
,
0100
0000
0010
0100
0010
0000
0000
0001
0010
0000
0000
0000
0100
0000
1000
0000
,
0001
0000
0000
0001
1000
0000
0100
0000
1000
0010
0000
1000
0010
0000
0000
0000
,
0100
0000
0000
0100
0010
0000
1000
0000
0001
0010
0000
0100
1000
0000
0010
0000
,
0200
0000
0000
0320
0000
0000
2030
0000
3001
0000
0010
0100
0010
0000
0001
0000
,
0100
0000
0001
0000
1000
0000
0100
0000
1000
0010
0000
0100
0000
0001
0010
0000
,
0001
0100
0001
0100
0001
0000
1000
0000
1000
0010
1000
0010
1000
0000
0010
0000
,
0010
0100
0010
0100
0010
0000
1000
0000
0001
1000
0001
1000
0001
0000
0100
0000
,
0010
1010
1010
2010
0000
0000
3001
0000
,
0100
0101
0101
0102
0000
0000
1003
0000
,
1000
0100
1000
0000
0001
0100
0001
0000
0100
0000
0100
0000
0010
0000
0010
0000
,
1000
0010
1000
0000
0001
0010
0001
0000
0010
0000
0010
0000
0100
0000
0100
0000
,
1000
1100
1100
1200
0000
0000
0310
0000
,
0001
0011
0011
0011
0000
0200
0000
0000
,
1300
0000
0000
0100
1000
0000
0100
1000
0000
0001
0000
0001
0100
0001
0100
0000
,
0010
0100
0001
0000
0001
0000
0100
0001
0000
1000
0000
1000
0100
1000
0100
0000
,
0010
0011
1001
1020
0000
0000
0130
0000
,
0100
0101
1001
1200
0000
0000
0310
0000
,
0011
0101
1010
1200
0000
0000
1300
0000
,
1010
1100
0011
0201
0000
0000
0310
0000
,
1010
0110
0101
2001
0000
0000
3100
0000
,
0011
1001
1100
0220
0000
0330
1001
0000
;

//---------------dance-single - ----------------
#NOTES:
     dance-single:
     :
     Challenge:
     7:
     0.386914,0.605627,0.425457,0.155655,0.140089,261.000000,220.000000,41.000000,15.000000,0.000000,0.000000,0.386914,0.605627,0.425457,0.155655,0.140089,261.000000,220.000000,41.000000,15.000000,0.000000,0.000000:
0000
0000
0000
0000
,
0000
0000
0000
0000
,
0000
0000
0000
0000
,
0101
0101
0101
0101
,
1010
1010
1010
1010
,
1100
1100
1100
1100
,
0011
0000
0011
0000
0004
0000
0000
0003
,
0000
1000
0100
1000
0040
0000
0000
0130
,
0000
0001
0100
0001
0040
0000
0000
0130
,
4000
0000
0000
3200
0000
0000
0310
0000
,
0004
0000
0000
0203
0000
0000
0310
0000
,
1000
0000
0000
1000
0100
0000
0010
0000
0100
0000
1000
0000
0001
0000
0010
0000
,
0001
0000
0000
0001
0100
0000
0010
0000
1000
0000
0010
0000
0100
0000
0001
0000
,
1000
0000
0000
0010
0000
0000
0100
0000
0004
0000
0000
0000
4003
0000
0000
0000
,
3040
0000
0400
0000
0000
0000
0000
0000
0000
0330
0000
0000
1000
0000
0100
0000
,
0010
0000
0000
0001
0010
0000
0100
0000
1000
0000
0010
0000
0100
0000
0001
0000
,
0010
0000
0000
1000
0010
0000
0100
0000
1000
0000
0010
0000
0100
0000
0001
0000
,
1000
0000
0000
1000
0001
0000
0100
0000
0040
0000
0000
0000
0430
0000
0000
0000
,
0301
0100
1000
0000
0001
0010
1000
0000
,
0004
0000
0003
0110
,
4000
0000
3000
0110
,
0040
0000
0030
1001
,
0400
0000
0300
1001
,
4040
0000
3030
0101
,
0044
0000
0033
1100
,
1000
0001
0100
0010
1000
0001
0010
0100
,
0440
0000
0000
0330
0220
0000
0330
0000
,
1000
0000
0000
0010
0001
0000
0010
0000
1000
0000
0100
0000
0010
0000
0000
0000
,
0001
0000
0000
0010
1000
0000
0010
0000
0001
0000
0100
0000
0010
0000
1000
0000
,
0100
0000
0000
0010
0000
0000
0001
0000
4000
0000
0000
0000
3004
0000
0000
0000
,
0403
0040
0000
0000
0330
0000
0001
0010
,
0001
0000
0000
0100
1000
0000
0100
0000
0001
0000
0010
0000
0100
0000
0000
0000
,
1000
0000
0000
0100
0001
0000
0100
0000
1000
0000
0010
0000
0100
0000
0001
0000
,
0010
0000
0000
0100
0000
0000
1000
0000
0004
0000
0000
0000
4003
0000
0000
0000
,
3010
0000
1000
0000
0001
0000
0100
0000
0001
0040
0000
0000
0000
0000
0031
0000
,
4000
0400
0000
0000
0000
0000
0000
0000
0000
0000
0000
0000
3300
0000
0110
0000
,
0004
0400
0000
0000
0000
0000
0000
0000
0000
0000
0000
0000
0303
0000
0110
0000
,
4000
0000
0000
3020
0000
0000
0130
0000
,
0004
0000
0000
0023
0000
0000
0130
0000
,
4000
0040
0000
0000
0000
0000
0000
0000
0000
0000
0000
0000
3030
0000
1001
0000
,
0004
0040
0000
0000
0000
0000
0000
0000
0000
0000
0000
0000
0033
0000
1001
0000
,
0400
0000
0000
0302
0000
0000
0013
0000
,
0400
0000
0000
1300
0000
0040
0000
0000
,
1030
0000
0000
0100
0010
0000
0100
1000
0000
1000
0000
1000
0001
1000
0001
0000
,
0001
0100
0010
0000
0010
0000
0100
0001
0000
0001
0000
0001
1000
0001
1000
0000
,
4400
0000
3300
0120
0000
0000
0031
0000
,
0404
0000
0303
0120
0000
0000
1030
0000
,
4004
0000
3003
0220
0000
0300
1030
0000
,
0440
0000
0330
2002
0000
3000
0013
0000
,
0044
0000
0033
2100
0000
0000
3001
0000
,
4040
0000
3030
0102
0000
0003
1001
0000
;
