#TITLE:We Can't Stop;
#SUBTITLE:;
#ARTIST:Miley Cyrus;
#TITLETRANSLIT:;
#SUBTITLETRANSLIT:;
#ARTISTTRANSLIT:;
#GENRE:Pop;
#CREDIT:usaminseijin;
#BANNER:[ROUND K] - We Can't Stop.png;
#BACKGROUND:[ROUND K] - We Can't Stop-bg.png;
#LYRICSPATH:[ROUND K] - We Can't Stop.lrc;
#CDTITLE:cdtitle.png;
#MUSIC:[ROUND K] - We Can't Stop.ogg;
#OFFSET:-0.276000;
#SAMPLESTART:48.244999;
#SAMPLELENGTH:15.000000;
#SELECTABLE:YES;
#BPMS:0.000000=80.000000
;
#STOPS:
;
#BGCHANGES:0.000=[ROUND K] - We Can't Stop-bg.png=1.000=0=1=1,
13.000=[ROUND K] - We Can't Stop.avi=1.000=0=0=1,
99999=-nosongbg-=1.000=0=0=0 // don't automatically add -songbackground-
;
#KEYSOUNDS:;
#ATTACKS:;

//---------------dance-single - ----------------
#NOTES:
     dance-single:
     :
     Medium:
     6:
     0.226502,0.374018,0.243925,0.142289,0.066063,156.000000,132.000000,24.000000,14.000000,0.000000,0.000000,0.226502,0.374018,0.243925,0.142289,0.066063,156.000000,132.000000,24.000000,14.000000,0.000000,0.000000:
0000
0000
0000
0000
,
0000
0000
0000
0000
,
0000
0000
0000
0000
,
0000
0000
0000
2000
,
3001
0000
0000
0200
,
0320
0000
0030
2000
,
3002
0000
0003
0020
,
0230
0000
0300
2000
,
3001
0010
0001
1000
,
0001
0100
0010
0100
,
0001
1000
0010
1000
,
0100
1000
0001
1000
0010
1000
0001
1000
,
0010
0000
1001
0000
0010
0000
1001
0001
,
0100
0000
0000
0000
1001
0000
0000
0000
0100
0000
0010
0010
1001
0100
0100
0000
,
1000
0000
0110
0000
0001
0000
0110
0100
,
0001
1000
0100
1000
0001
1000
0110
1000
,
0001
1000
0001
1000
0001
0000
0000
0000
0010
0100
0010
0100
0010
0000
0000
0000
,
0001
0100
0001
0100
0001
0000
0000
0000
1000
0010
1000
0010
1000
0000
0001
0000
,
2000
0000
0000
0000
3001
0000
0000
0000
0100
0000
0000
0000
0001
0100
0001
0000
,
1000
0000
0000
0000
0010
0100
0010
0000
1000
0000
0000
0000
1001
0000
0000
0000
,
2000
0000
0000
0000
,
3002
0000
0000
0000
0000
0000
0000
0000
0000
0000
0000
0000
0000
0000
0000
0023
,
0000
0000
0000
0000
,
0230
0000
0000
0000
0000
0000
0000
1300
,
1000
0000
1001
0100
0100
0000
0110
0000
,
0001
0000
1001
0010
0010
0000
0110
0000
,
1000
0000
1010
0100
0100
0000
0101
0000
,
1000
1100
0010
0011
,
0001
0000
1001
0010
0010
0000
0110
0000
,
0001
0000
1001
0100
0100
0000
0110
0000
,
0010
0000
0011
0100
0100
0000
1100
0000
,
0001
0101
0010
2010
,
3001
0000
0000
0000
;

//---------------dance-single - ----------------
#NOTES:
     dance-single:
     :
     Hard:
     9:
     0.304906,0.471588,0.325233,0.193107,0.177862,210.000000,178.000000,32.000000,19.000000,0.000000,0.000000,0.304906,0.471588,0.325233,0.193107,0.177862,210.000000,178.000000,32.000000,19.000000,0.000000,0.000000:
0000
0000
0000
0000
,
0000
0000
0000
0000
,
0000
0000
0000
0000
,
0000
0000
0000
2000
,
3001
0000
0000
0200
,
0320
0000
0030
2000
,
3002
0000
0003
0020
,
0230
0000
0300
2000
,
3001
0000
0000
0000
0010
0001
0010
0001
1000
0001
1000
0001
1000
0010
1000
0000
,
0001
0000
0000
0000
0100
0010
0100
0010
1000
0010
1000
0010
1000
0001
1000
0000
,
0001
0000
0000
0000
1000
0010
1000
0010
0000
1000
0001
1000
0001
0000
1000
0000
,
0100
1000
0001
1000
0010
1000
0001
1000
,
0010
0000
0000
0000
1001
0000
1000
0001
0100
0010
0100
0010
1001
0000
0001
0000
,
0100
0000
0000
0000
1001
0000
0000
0000
0100
0010
0100
0010
1001
0100
0010
0000
,
1000
0000
0000
0000
0110
0000
0001
1000
0001
1000
0001
0000
0110
0000
0100
0000
,
0001
0000
1000
0001
1000
0000
1001
0000
0100
0000
1000
0000
0110
0000
1000
0000
,
0001
1000
0100
1000
0001
0000
0000
0000
0010
0100
0001
0100
0010
0000
0000
0000
,
0001
0100
0010
0100
0001
0000
0000
0000
1000
0010
0100
0010
1000
0000
0001
0000
,
2000
0000
0000
0000
3001
0000
0000
0000
0100
0000
0000
0000
0001
0100
0001
0000
,
1000
0000
0000
0000
0010
0100
0010
0000
1000
0000
0100
0000
1001
0000
0010
0000
,
2000
0000
0001
0000
,
3002
0000
0000
0000
0000
0000
0000
0000
0010
0000
0000
0000
0000
0000
0000
0023
,
0000
0000
0000
0000
,
0230
0000
0000
0000
0000
0000
0000
1300
,
1000
0000
1001
0100
0100
0001
0110
1000
,
0001
0100
1001
0010
0010
0000
0110
0110
,
1001
1001
1010
0110
0101
0000
0101
0101
,
1000
0100
1000
0000
1100
0000
1001
0000
0101
0000
0000
0000
0021
0000
0000
0000
,
0031
0000
1001
0010
0010
0000
0210
0000
,
0301
0000
1001
0100
0100
0000
0210
0000
,
0310
0000
0011
0100
0100
0000
2100
0000
,
3002
0100
0013
2010
,
3001
0000
0000
0000
;

//---------------dance-single - ----------------
#NOTES:
     dance-single:
     :
     Easy:
     4:
     0.172780,0.243925,0.132126,0.132126,0.005082,119.000000,106.000000,13.000000,13.000000,0.000000,0.000000,0.172780,0.243925,0.132126,0.132126,0.005082,119.000000,106.000000,13.000000,13.000000,0.000000,0.000000:
0000
0000
0000
0000
,
0000
0000
0000
0000
,
0000
0000
0000
0000
,
0000
0000
0000
2000
,
3001
0000
0000
0200
,
0320
0000
0030
2000
,
3002
0000
0003
0020
,
0230
0000
0300
2000
,
3001
0010
0001
1000
,
0001
0100
0010
0100
,
0001
1000
0010
1000
,
0100
1000
0000
1000
0001
1000
0000
1000
,
0010
1000
0010
1001
,
0100
0001
0100
1001
,
1000
0010
0001
0110
,
0001
1000
0000
1000
0001
1000
0010
1000
,
0001
0001
0001
0000
0010
0010
0010
0000
,
0100
0100
0100
0000
1000
1000
1000
0001
,
2000
0000
3001
0000
0100
0000
0001
0001
,
1000
0000
0010
0010
1000
0000
1001
0000
,
2000
0000
0000
0000
,
3002
0000
0000
0000
0000
0000
0000
0000
0000
0000
0000
0000
0000
0000
0000
0023
,
0000
0000
0000
0000
,
0230
0000
0000
0000
0000
0000
0000
0300
,
1000
0001
0100
0110
,
0001
1000
0010
0110
,
1000
0010
0100
0101
,
1000
0100
0010
0011
,
0001
1000
0010
0110
,
0001
1000
0100
0110
,
0010
0011
0100
1100
,
0001
0100
0010
1010
,
0001
0000
0000
0000
;

//---------------dance-single - ----------------
#NOTES:
     dance-single:
     :
     Beginner:
     1:
     0.091472,0.162617,0.091472,0.030491,0.000000,63.000000,54.000000,9.000000,3.000000,0.000000,0.000000,0.091472,0.162617,0.091472,0.030491,0.000000,63.000000,54.000000,9.000000,3.000000,0.000000,0.000000:
// measure 0
0000
0000
0000
0000
,  // measure 1
0000
0000
0000
0000
,  // measure 2
0000
0000
0000
0000
,  // measure 3
0000
0000
0000
0000
,  // measure 4
0001
0000
0000
0000
,  // measure 5
0020
0000
0030
0000
,  // measure 6
0002
0000
0003
0000
,  // measure 7
0200
0000
0300
0000
,  // measure 8
0000
0010
0000
0010
,  // measure 9
0000
0100
0000
0100
,  // measure 10
0000
1000
0000
1000
,  // measure 11
0000
0001
0000
0001
,  // measure 12
0010
0000
0010
0000
,  // measure 13
0100
0000
0100
0000
,  // measure 14
1000
0000
1000
0000
,  // measure 15
0001
0000
0001
1000
,  // measure 16
0001
0001
0010
0010
,  // measure 17
0100
0100
1000
1000
,  // measure 18
0000
1000
0000
1001
,  // measure 19
0000
0010
0010
0000
,  // measure 20
1000
0000
0000
0000
,  // measure 21
0001
0000
0000
0000
,  // measure 22
0010
0000
0000
0000
,  // measure 23
0100
0000
0000
0000
,  // measure 24
0000
0001
0000
0010
,  // measure 25
0000
1000
0000
0010
,  // measure 26
0000
0100
0000
0010
,  // measure 27
0000
1000
0000
0001
,  // measure 28
0000
1001
0000
1001
,  // measure 29
0000
0110
0000
0110
,  // measure 30
0000
1001
0000
1001
,  // measure 31
0000
0110
0000
0110
,  // measure 32
0100
0000
0000
0000
;
