#TITLE:Wuv U;
#SUBTITLE:-More2 HAPPY Re-Mix Special-;
#ARTIST:Yu_Asahina;
#TITLETRANSLIT:;
#SUBTITLETRANSLIT:;
#ARTISTTRANSLIT:;
#GENRE:;
#CREDIT:;
#BANNER:wuv u.png;
#BACKGROUND:wuv u - bg.png;
#LYRICSPATH:;
#CDTITLE:cd-rikame.png;
#MUSIC:[ROUND C] - Wuv U -More2 HAPPY Re-Mix Special-.ogg;
#OFFSET:-1.367;
#SAMPLESTART:33.925;
#SAMPLELENGTH:11.980;
#SELECTABLE:YES;
#BPMS:0.000=177.000,195.000=70.800,196.750=70.800,197.000=177.000;
#STOPS:;
#BGCHANGES:;
#KEYSOUNDS:;

//---------------dance-single - Rikame----------------
#NOTES:
     dance-single:
     Rikame:
     Challenge:
     11:
     0.801,0.853,0.640,0.103,0.493:
0000
0000
0000
0000
,
0000
0000
0000
0000
,
0000
0000
0000
0000
,
0000
0000
0000
0000
,
0000
0000
0000
0000
,
0000
0000
0000
0000
,
0001
1000
0100
0010
0001
1000
0100
0010
0001
0100
0010
1000
0001
0100
0010
1000
,
0001
0000
0001
0010
0400
0000
1300
0000
0010
0100
0010
0000
2010
0000
3100
0000
,
1001
0000
0001
0000
0100
0010
1000
0000
0001
0000
1000
0100
0000
0000
0100
0000
,
0010
0000
0001
0000
1000
0010
0100
0010
1000
0010
0100
0001
0010
0100
1000
0000
,
0010
0000
0100
0000
0010
1000
0001
0000
0010
0000
0100
1000
0000
0000
1000
0000
,
M010
M000
M100
M000
M001
M010
M100
M010
M001
M010
M100
M010
M001
0100
0010
0000
,
0100
0000
0001
0000
0010
0100
1000
0000
0010
0000
0100
0001
0000
0000
0001
0000
,
0010
0000
0100
0000
1000
0001
0100
0001
1000
0001
0100
0001
0010
0100
1000
0000
,
0001
0010
0001
0100
0010
1000
0010
0100
0001
0010
0100
1000
0001
1000
0010
0100
,
0001
0010
0001
0100
0010
1000
0100
1000
0001
0000
0100
0000
0010
0000
1000
0000
,
1010
0000
0001
0010
0100
1100
0011
0101
,
0000
0000
0100
0010
0100
0000
0001
0000
1000
0000
1010
0000
0000
0000
0101
0000
,
0100
0010
1000
0100
0010
0011
1100
1010
,
0000
0000
0010
0100
0010
0000
1000
0000
1100
0000
0000
0001
0100
0000
0010
0000
,
1001
0000
1000
0100
0010
0000
0001
0000
1000
0000
1010
0000
0000
0000
0101
0000
,
0001
0000
1000
0100
0010
0000
0001
0000
0101
0000
0100
0010
1000
0000
0001
0000
,
0011
0000
1000
0000
0100
0000
0010
0000
0101
0000
1000
0100
1000
0010
1000
0010
,
0100
0000
0100
0001
0010
0000
0010
0100
1000
0000
0001
0010
0001
0100
0001
0100
,
0020
0000
0000
0000
1030
0000
0100
0000
0010
0000
0001
1000
0001
0000
0100
0000
,
0000
0000
0100
0010
1000
0000
0001
0000
0010
0000
0100
0000
0011
0000
1000
0000
,
0010
0000
1000
0000
0010
0000
0100
0000
0001
0000
0010
0001
0010
0000
0100
0000
,
1000
0000
0010
1000
0001
0000
0010
0000
1100
0000
0010
0000
0101
0000
1000
0000
,
0002
0000
0000
0000
0103
0000
0010
0000
1000
0000
0100
1000
0100
0000
0010
0000
,
0000
0000
0001
0100
0010
0000
1000
0000
0100
0000
0010
0001
0100
0001
0100
0000
,
0011
0001
0100
0010
0101
1000
0100
0010
,
0000
0000
0010
0000
0000
0000
0010
0000
0020
0000
0000
0000
0031
0000
1000
0001
,
1000
0010
0100
0010
1000
0001
0010
0001
,
0100
0100
0100
0100
0100
0100
0010
1000
,
0100
0000
0100
0010
0001
0000
1000
0000
0010
0000
0010
0100
0001
0000
1000
0000
,
0101
0010
0101
0010
1101
0000
1011
0000
,
0001
0010
0001
0100
0010
0010
0010
0010
,
1000
0000
1000
0100
0010
0000
0001
0000
0100
0000
0100
0010
1000
0000
1000
0000
,
0001
0000
0001
0010
0100
1000
0010
0000
0100
0000
0001
0000
0010
0000
0001
0000
,
1100
0000
0010
0000
1100
0000
0010
0000
1000
0001
0100
0010
1000
0001
0100
0010
,
1000
0000
1200
0000
0310
0010
0001
1000
,
0010
0000
0010
0000
0010
0000
0010
0000
0101
0000
0001
0010
0100
1000
0100
1000
,
0001
0000
0001
0000
0100
0000
0100
0000
0010
0000
0010
1000
0100
0000
0110
0000
,
0000
0000
0110
0000
0000
0000
0110
0000
0001
0010
0100
1000
0001
0100
0010
1000
,
0001
1000
0010
0101
1000
0000
1010
0001
,
0000
0000
0011
0000
0100
0000
0000
0000
1010
0000
0010
0100
0001
0000
0001
0000
,
1000
0100
0010
0001
0100
0000
0010
0000
1000
0000
0100
0000
1000
0000
1010
0000
,
0000
0000
1001
0000
0000
0000
0011
0000
0010
0100
0010
0100
2000
0000
0000
0000
,
0000
0000
0000
3MMM
,
0000
0000
0000
0000
10M1
0000
0000
0000
1000
0000
0000
0010
0000
0000
0100
0000
,
0010
0000
1000
0000
0001
0000
0000
0000
0010
0000
0000
0100
0000
0000
0010
0000
,
0001
0000
1000
0000
0010
0000
0000
0000
0100
0000
0000
0001
0000
0000
0100
0000
,
0010
0000
1000
0000
0100
0000
0000
0000
0010
0000
0000
0001
0000
0000
0010
0000
,
0100
1000
1010
0000
0110
1000
0011
0100
,
1001
0010
1001
0000
0101
0010
1100
0001
,
1010
0000
1000
0100
0010
0000
0000
0000
0011
0000
1000
0000
0101
0000
0010
0000
,
1100
0000
0001
0000
1000
0010
0100
0010
1000
0100
0010
0001
1000
0000
0010
0000
,
0100
0001
1100
0000
0110
1000
0101
0010
,
1001
0100
1001
0000
0011
1000
0010
0010
,
1100
0000
0001
0100
0010
1000
0001
1000
0100
0010
0001
1000
0010
0000
0100
0000
,
0001
0000
0010
0000
0100
0000
1000
0000
0001
0100
0001
0010
0100
1000
0010
0100
,
0010
1000
0001
0000
0201
0000
0000
0000
0310
0000
2100
0000
0000
0000
0000
0000
,
3001
0000
0000
0000
0101
0000
0000
0100
0001
1000
0001
0000
0020
0000
0000
0000
,
0430
0000
0000
0000
0000
0000
0000
0000
0000
0000
0000
0000
0000
0000
0000
0300
1001
0000
0000
0000
0000
0000
0000
0000
1000
0000
0000
0000
0000
0000
0000
0000
0100
0000
0000
0000
0000
0000
0000
0000
0010
0000
0000
0000
0000
0000
0000
0000
1001
0000
0000
0000
0000
0000
0000
0000
0001
0000
0000
0000
0000
0000
0000
0000
,
0100
0000
0010
0000
1M00
0M01
0M10
0M01
1M00
0M01
0M10
0M01
1M00
0M00
0M01
0M00
,
0M10
0000
0100
0000
1000
0000
0000
0000
0001
0000
0100
0000
0010
0000
1000
0001
,
1000
0000
0100
0000
0000
0000
0100
0010
0001
0000
1000
0000
0010
0000
0100
0000
,
1010
0001
0010
0001
0010
0100
1000
0001
,
0101
0000
0100
0000
0010
0000
0100
0001
1000
0000
0100
0000
0011
0000
0100
0000
,
1010
0001
1000
0000
0010
0100
0001
0010
,
0110
0000
0001
0000
0000
0000
0001
0100
0010
0000
1000
0000
0100
0000
0010
0001
,
1000
0001
1000
0000
1100
0000
0001
0000
0010
0000
0100
0000
1010
0000
1000
0000
,
0010
0000
0100
0000
0000
0000
0100
0000
0000
0000
0001
1000
0001
0000
0010
0000
,
0100
0000
0000
0000
0000
0000
0000
0000
1000
0000
0000
0000
0000
0000
0000
0000
0001
0000
0000
0000
0000
0000
0000
0000
0100
0000
0000
0000
0000
0000
0000
0000
0010
0000
0000
0000
0000
0000
0000
0000
1000
0000
0000
0000
0000
0000
0000
0000
0200
0000
0000
0000
0000
0000
0000
0000
0000
0000
0000
0000
0000
0000
0000
0300
,
1010
0000
0001
0000
0101
0000
0100
0010
1000
0000
0100
0000
0010
0000
0010
0000
,
0011
0000
0001
0000
1000
0010
0100
0001
0100
0000
0010
1000
0100
0000
1000
0000
,
0001
0000
0010
0000
0101
0000
1000
0100
0010
0000
0001
0000
1010
0000
0001
0000
,
1100
0000
0000
0000
0000
0000
0000
0000
0010
0000
0000
0000
0000
0000
0000
0000
1001
0000
0000
0000
0000
0000
0000
0000
0001
0000
0000
0000
0000
0000
0000
0000
1000
0000
0000
0000
0000
0000
0000
0000
0010
0000
0000
0000
0000
0000
0000
0000
0200
0000
0000
0000
0000
0000
0000
0000
0000
0000
0000
0000
0000
0000
0000
0300
,
0011
0000
2000
0000
0000
0000
3001
0010
0001
0000
0100
0000
0100
0000
0010
0000
,
1010
0000
0100
0000
0011
0000
0001
1000
0001
0000
0100
0000
1010
0000
0001
0000
,
0010
1100
0000
0101
0000
0110
1002
0000
,
0013
0100
1000
0001
0020
0000
0000
0000
0000
0000
0000
0000
0000
0000
0000
0000
,
0000
0000
0000
0000
0000
0000
0000
MM3M
;

//---------------dance-single - Rikame----------------
#NOTES:
     dance-single:
     Rikame:
     Beginner:
     1:
     0.094,0.179,0.088,0.000,0.000:
0000
0000
0000
0000
,
0000
0000
0000
0000
,
0000
0000
0000
0000
,
0000
0000
0000
0000
,
0000
0000
0000
0000
,
0000
0000
0000
0000
,
1001
0000
0000
0000
,
0000
0000
0000
0000
,
0001
0000
0000
0000
,
0100
0000
0000
0000
,
0010
0000
0000
0000
,
0100
0000
0000
0000
,
0001
0000
0000
0000
,
1000
0000
0000
0000
,
0100
0000
0100
0000
,
0100
0000
0000
0000
,
1001
0000
0000
0000
,
0110
0000
0000
0000
,
1001
0000
0000
0000
,
0001
0000
0001
0000
,
1001
0000
0000
0000
,
0110
0000
0000
0000
,
1001
0000
1001
0000
,
0000
0000
0000
0000
,
1000
0000
0000
0000
,
0010
0000
0000
0000
,
0100
0000
0000
0000
,
0001
0000
0000
0000
,
0010
0000
0000
0000
,
0001
0000
0000
0000
,
1000
0000
1000
0000
,
1000
0000
0000
0000
,
0001
0000
0000
0000
,
0100
0000
0000
0000
,
0010
0000
0000
0000
,
1000
0000
0000
0000
,
0100
0000
0000
0000
,
0010
0000
0000
0000
,
0001
0000
0000
0000
,
1000
0000
0000
0000
,
0010
0000
0000
0000
,
0100
0000
0000
0000
,
0001
0000
0000
0000
,
0010
0000
0000
0000
,
1001
0000
0000
0110
,
0000
0000
1001
0000
,
0000
0000
0000
0000
,
0000
0000
0000
0000
,
0000
0000
0000
0000
,
0000
1000
0000
0000
,
0000
0100
0000
0000
,
0000
0010
0000
0000
,
0000
0001
0000
0000
,
0000
1000
0000
0000
,
0000
0001
0000
0000
,
0000
0100
0000
0000
,
0000
0010
0000
0000
,
0000
1000
0000
0000
,
0000
0100
0000
0000
,
0000
0010
0000
0000
,
0000
0001
0000
0000
,
0000
1000
0000
0000
,
0000
0010
0000
0000
,
0000
0100
0000
0000
,
0000
0001
0000
0000
,
0000
0010
0000
0000
,
0000
0100
0000
0000
,
0000
1000
0000
0000
,
0000
0001
0000
0000
,
0000
1000
0000
0000
,
0000
0010
0000
0000
,
0000
0100
0000
0000
,
0000
0001
0000
0000
,
0000
0010
0000
0000
,
0000
0010
0000
0000
,
0000
0100
0000
0000
,
0000
1000
0000
0000
,
0000
0010
0000
0000
,
0000
0010
0000
0000
,
0000
0100
0000
0100
,
0000
0100
0000
0000
,
0000
1001
0000
0000
;

//---------------dance-single - Rikame----------------
#NOTES:
     dance-single:
     Rikame:
     Easy:
     3:
     0.177,0.213,0.074,0.044,0.000:
0000
0000
0000
0000
,
0000
0000
0000
0000
,
0000
0000
0000
0000
,
0000
0000
0000
0000
,
0000
0000
0000
0000
,
0000
0000
0000
0000
,
2002
0000
0000
0000
,
3003
0000
0000
0000
,
0001
0000
0001
0000
,
0010
0000
0000
0000
,
0100
0000
0100
0000
,
2000
0000
0000
0000
,
3001
0000
0001
0000
,
0100
0000
0000
0000
,
0010
0000
0010
0000
,
2000
0000
0000
0000
,
3001
0001
0001
0000
,
1000
1000
1000
0000
,
0010
0000
0100
0000
,
0001
1000
0001
0000
,
0010
0010
0010
0000
,
0100
0100
0100
0000
,
1000
0000
0001
0000
,
0100
0010
0100
0100
,
0001
0000
0001
0000
,
1000
0000
1000
0000
,
0010
0000
0100
0000
,
0001
1000
0001
0000
,
0010
0000
0010
0000
,
0100
0000
0100
0000
,
1000
0000
0001
0000
,
0000
0000
0000
0000
,
1000
0000
1000
0000
,
0001
0010
0100
1000
,
0001
0000
0100
0000
,
0010
0000
0010
0000
,
1000
0000
0001
0100
,
0010
0000
1000
0000
,
0100
0000
0010
0000
,
0001
0001
1000
1000
,
0001
0000
0100
0000
,
0010
1000
0010
0000
,
0100
0000
0001
0000
,
0000
0000
0000
0000
,
1010
0000
0000
0011
,
0000
0000
0110
0000
,
1000
0000
0001
0000
,
0000
0000
0000
0000
,
0000
0000
0000
1001
,
0000
0001
0000
0000
,
0000
0100
0000
0000
,
0000
0010
0000
0000
,
0000
1000
0000
0000
,
0000
0001
0000
0001
,
0000
0010
0000
0100
,
0000
1000
0000
1000
,
0000
0010
0000
0100
,
0000
0001
0000
1000
,
0000
0100
0000
0010
,
0000
0001
0000
0100
,
0000
0010
0000
1000
,
0000
0001
0001
0000
,
0000
1000
1000
0000
,
0000
0010
0000
0100
,
0000
0002
0000
0000
,
0000
1003
1000
1000
,
0000
0010
0010
0010
,
0000
0100
0000
0001
,
0000
0010
0000
0001
,
0001
1000
1000
1000
,
0000
0100
0100
0100
,
0000
0011
0000
1010
,
0000
0000
0000
0000
,
0000
0001
0010
0001
,
0000
0100
0001
0100
,
0000
0010
0000
1000
,
0000
0100
0000
0010
,
0010
0001
1000
0001
,
0000
0010
0001
0010
,
0000
0101
0000
1100
,
0000
0000
0000
0000
,
0000
2001
0000
0000
,
0000
0000
0000
0000
0000
0000
0000
3001
;

//---------------dance-single - Rikame----------------
#NOTES:
     dance-single:
     Rikame:
     Medium:
     7:
     0.475,0.457,0.206,0.243,0.015:
0000
0000
0000
0000
,
0000
0000
0000
0000
,
0000
0000
0000
0000
,
0000
0000
0000
0000
,
0000
0000
0000
0000
,
0000
0000
0000
0000
,
0001
0100
0001
0100
,
0010
0000
1000
1000
,
0011
0001
0100
0010
,
1000
0100
0010
0001
1000
0100
0010
0001
,
1000
0010
0100
0001
,
1000
0010
0100
0001
1000
0010
0100
0001
,
1000
0001
0010
0100
,
1000
0001
0100
0010
1000
0001
0100
0010
,
2000
3200
0320
0032
,
1003
1010
0110
0101
,
0001
0000
0010
0100
2000
0000
0000
3001
,
0000
0100
0010
0100
0002
0000
0000
0000
,
1003
0100
1000
0001
0010
0000
0001
0100
,
0000
0100
0010
1000
0002
0000
0000
0000
,
1003
0000
0010
0100
0002
0000
0000
1003
,
0000
0100
0010
0100
2000
0000
0000
0000
,
3001
0010
0100
1000
0100
0010
0001
1000
,
0000
0010
0000
0100
0002
0000
0000
0000
,
1003
0000
0001
0100
0020
0000
0000
1030
,
0000
1000
0100
0010
0002
0000
0000
0000
,
0103
0010
1000
0010
0100
0000
0100
0001
,
0000
0001
0010
0100
1000
0000
1001
0000
,
0001
0000
0100
0010
2000
0000
3100
0010
,
0000
0010
0001
1000
0020
0000
0130
0000
,
0001
0100
0010
1000
0001
1000
0100
0010
,
0000
0010
0000
0010
0002
0000
1003
0000
,
0001
1010
0100
0011
,
1000
0100
0010
0001
1000
0100
0010
0001
,
1000
1000
0010
0010
,
0100
0100
0011
1100
,
0001
0000
0001
0000
1000
0010
0100
0001
,
0010
0010
0100
1000
,
0001
0100
0001
0100
0010
0000
0010
0000
,
1000
0100
0010
0001
1000
0100
0010
0001
,
1000
0000
0010
0000
0100
0001
1000
0000
,
0001
0010
0100
1000
0001
0010
0100
0000
,
1000
0010
1000
0010
0100
0001
1000
0100
,
0000
0100
0000
0100
0010
0000
0001
0000
,
1010
0000
0000
0101
0000
0000
0011
0000
,
0000
1100
0000
0000
0001
1000
0001
1000
,
0010
0100
0001
0000
0010
0100
1000
0001
,
0000
0001
0000
0001
0100
0000
0020
0000
,
0030
0000
0000
0000
,
0000
0000
0000
0000
1000
0000
0000
0000
1000
0000
0000
1000
0000
0000
1000
0000
,
1000
0000
0000
0000
0010
0000
0000
0000
0010
0000
0000
0010
0000
0000
0010
0000
,
0010
0000
0000
0000
0100
0000
0000
0000
0100
0000
0000
0100
0000
0000
0100
0000
,
0100
0000
0000
0000
0001
0000
0000
0000
0001
0000
0000
0001
0000
0000
0001
0000
,
0001
1000
0010
0100
,
0101
0011
1000
0010
,
0100
0001
1000
0100
,
0010
0000
0101
0000
0001
0100
0010
1000
,
0010
0100
0001
0000
1010
0000
0100
0000
,
0011
1000
0101
0010
,
1100
0001
0110
1000
,
0101
1000
0011
0100
,
1010
0000
0001
0000
0010
0100
0000
0000
,
2000
0000
3002
0000
0103
0010
0000
0000
,
2000
0000
3001
0010
0100
1000
0001
0100
,
0010
1000
0002
0000
0000
0000
0000
0000
,
0000
0000
1003
0000
0100
0010
0002
0000
,
1003
0010
0000
0010
0100
0001
2000
0000
,
3100
0000
1000
0001
1000
0100
0010
0000
,
0001
0100
0000
0001
0100
0010
2000
0000
,
3002
0000
0013
0000
0100
1000
0020
0000
,
0130
0001
0000
0001
0010
0100
2000
0000
,
3001
0000
0010
0100
0010
0001
0100
0010
,
1000
0100
0000
0100
0000
0010
0001
0010
,
0100
1000
0001
0100
0001
0100
0020
0000
,
1030
0100
0000
1000
0100
0010
0002
0000
,
1003
0000
0010
0100
0010
1000
0001
0010
,
0001
1000
0010
0000
0110
0000
0101
0000
,
1100
0000
1000
0010
1000
0010
0200
0000
,
0301
0010
0000
0001
0010
0100
2000
0000
,
3001
0000
0100
0010
0100
0001
1000
0010
,
0100
0001
0000
0001
0000
1000
0020
0000
,
0130
2002
0000
0000
,
0000
0000
0000
0000
0000
0000
0000
3003
;

//---------------dance-single - Rikame----------------
#NOTES:
     dance-single:
     Rikame:
     Hard:
     9:
     0.587,0.610,0.221,0.243,0.088:
0000
0000
0000
0000
,
0000
0000
0000
0000
,
0000
0000
0000
0000
,
0000
0000
0000
0000
,
0000
0000
0000
0000
,
0000
0000
0000
0000
,
0001
0010
0100
1000
0001
1000
0100
0010
,
0001
0000
0001
1000
0001
0000
0100
0000
0010
0100
0010
0000
2001
0000
3100
0000
,
1001
0001
0010
0100
0010
0001
0100
0010
,
1000
0100
0001
0100
1000
0010
0001
0010
,
1000
0001
0010
0001
1000
0010
1000
0001
,
0010
0100
1000
0001
1000
0010
0100
0001
,
1000
0100
0010
0001
1000
0001
0100
0010
,
1000
0010
0001
0010
1000
0100
0001
0100
,
1000
0010
0100
0001
0100
0010
1000
0001
,
0101
0000
0010
0000
1100
0000
0001
1000
0001
0000
0010
0000
0100
0000
1000
0000
,
0001
0000
0001
0100
0010
1000
1000
0001
,
0000
0000
0001
1000
0001
0000
0100
0000
0010
0000
1010
0000
0000
0000
0101
0000
,
0001
1000
0001
0010
0100
1000
1000
0002
,
0000
0000
0103
0010
0100
0000
0001
0000
2000
0000
0000
0000
0000
0000
0000
0000
,
3001
0000
0010
0100
1000
0001
0000
0001
,
0100
0000
0010
1000
0010
0000
0100
0000
0001
0000
0010
0001
0010
0000
0100
0000
,
1100
1000
0010
0100
0101
0001
0010
0100
,
0000
0000
1000
0001
1000
0000
0010
0100
0010
0000
1000
0000
0100
0000
0010
0000
,
0002
0000
1003
0010
0100
0001
1000
0100
,
0000
0000
1000
0001
1000
0000
0010
0000
0200
0000
0000
0000
0301
0000
0000
0000
,
1000
1000
0100
0010
0001
0000
0001
0200
,
0000
0000
0310
1000
0010
0000
0100
0000
0002
0000
0000
0000
0000
0000
0000
0000
,
1003
0000
0001
0010
0100
1000
0001
0100
,
0000
0000
0001
1000
0001
0000
0010
0000
0200
0000
0000
0000
1300
0000
0000
0000
,
0001
0001
0100
0010
1000
0000
1000
0100
,
0000
0100
0000
0100
0020
0000
0031
0000
,
1000
0010
1000
0100
0010
0001
1000
0000
,
0001
0100
0001
0100
0001
0100
0010
1000
,
0100
0000
1000
0010
1000
0000
0001
0000
0100
0000
0010
1000
0010
0000
0000
0000
,
0100
0100
0011
1100
,
0001
0010
0001
0100
0010
1000
0001
0000
,
1000
0100
1000
0100
1000
0100
0010
0001
,
0100
0000
0001
0010
0001
0000
1000
0000
0100
0000
0010
0001
0010
0000
0100
0000
,
1000
0010
0100
0010
1010
0100
0011
0000
,
1000
0000
0001
0100
0010
0100
0001
0010
,
0000
0010
0100
1000
0010
0000
0100
0000
,
0001
1000
0001
0000
0010
0100
1000
0010
,
0000
0010
0000
0010
0200
0000
0302
0000
,
1003
0100
0000
0010
0100
0000
1000
0010
,
0000
0100
0010
0000
1010
0000
0101
0000
,
1000
0100
0010
0000
0001
0100
0010
1000
,
0000
1000
0000
1000
0100
0010
0002
0000
,
0000
0000
0000
0003
,
0000
0000
0000
0000
1000
0000
0000
0000
0010
0000
0000
0100
0000
0000
0100
0000
,
0001
0000
1000
0000
0100
0000
0000
0000
0010
0000
0000
0001
0000
0000
0001
0000
,
1000
0000
0001
0000
0100
0000
0000
0000
0010
0000
0000
1000
0000
0000
1000
0000
,
0100
0000
0010
0000
0001
0000
0000
0000
1000
0000
0000
0010
0000
0000
0010
0000
,
0100
0000
0001
0000
1001
0000
0000
0000
1100
0000
0000
0001
0000
0000
1000
0000
,
0011
0000
0100
0000
1010
0000
0000
0000
0101
0000
0000
1000
0000
0000
0001
0000
,
1100
0000
0010
0000
0101
0000
0000
0000
1010
0000
0000
0001
0000
0000
1000
0000
,
0011
0000
0100
0000
1010
0000
0000
0000
0011
0000
0001
1000
0001
0000
0010
0000
,
0100
1000
0001
0000
0001
0100
0010
0001
,
0010
1000
0100
0000
1000
0001
0010
0010
,
0100
0000
1000
0000
0001
0100
0010
0000
,
1000
0100
0000
1000
0001
0010
0200
0000
,
2300
0000
3010
0000
0010
0100
0000
0000
,
0002
0000
1003
0000
1000
0100
0020
0000
,
0032
0000
1003
0010
0001
0010
1000
0100
,
0001
0100
2000
0000
0000
3001
0100
0010
,
1000
0100
1001
0000
1000
0100
0002
0000
,
0103
0010
0000
0010
0001
0100
2000
0000
,
3100
0000
0010
0010
1000
0100
0010
0000
,
0001
0200
0000
0301
0100
0010
2000
0000
,
3001
0000
1001
0000
0001
0010
2000
0000
,
3010
0100
0000
0100
1000
0010
0002
0000
,
0013
0000
1000
0100
0001
0100
1000
0010
,
0100
0001
0000
0001
0000
1000
0010
0100
,
0001
0010
0001
0100
1000
0100
0020
0000
,
1030
0200
0000
1300
0001
0010
0200
0000
,
1300
0000
0001
0100
1000
0100
0010
1000
,
0100
0001
0100
0010
0001
1000
0010
0001
,
0010
0100
0001
0010
1000
0010
0200
0000
,
1300
0020
0000
0130
0001
1000
0200
0000
,
0310
0000
0011
0001
0100
0010
1010
1000
,
0100
0010
0000
0010
0000
0001
2000
0000
,
3010
0100
2002
0000
0000
0000
0000
0000
,
0000
0000
0000
0000
0000
0000
0000
3003
;
