#TITLE:Jordan;
#SUBTITLE:;
#ARTIST:Buckethead;
#TITLETRANSLIT:;
#SUBTITLETRANSLIT:;
#ARTISTTRANSLIT:;
#CREDIT:Lisek;
#BANNER:[ROUND C] - Jordan.png;
#BACKGROUND:[ROUND C] - Jordan-bg.png;
#LYRICSPATH:;
#CDTITLE:cdtitle.png;
#MUSIC:Jordan.ogg;
#OFFSET:-0.006;
#SAMPLESTART:24.830;
#SAMPLELENGTH:16.500;
#SELECTABLE:YES;
#BPMS:0.000=116.000,88.000=232.000,176.000=116.000,180.000=58.000,188.000=232.000,220.000=116.000;
#STOPS:;
#BGCHANGES:;

//---------------dance-single - ----------------
#NOTES:
     dance-single:
     Lisek:
     Hard:
     9:
     0.622,0.797,0.071,0.220,0.560:
0000
0000
0000
0000
,
0000
0000
0000
0000
,
0000
0000
0000
0000
,
2002
0000
0000
3003
,
1000
0000
0010
0100
0000
0010
0000
1000
0000
0100
0010
0100
2000
0000
3001
0000
,
0001
0000
0100
0010
0000
0100
0000
0001
0000
0010
0100
0010
0002
0000
1003
0000
,
0010
0000
0100
0010
0000
0100
0000
1000
0000
0100
0001
0010
0200
0000
0310
0000
,
0001
0000
1000
0001
0000
1000
0000
0010
0000
0100
1000
0100
0020
0000
0130
0000
,
0001
0000
0010
0100
0000
1000
0000
0010
0000
0100
0001
1000
0002
0000
1003
0000
,
1000
0000
0100
0010
0000
0001
0000
0100
0000
0010
1000
0001
2000
0000
3001
0000
,
1000
0000
0010
0100
0000
0001
0000
0010
0000
0100
1000
0001
2000
0000
3001
0000
,
1000
0000
0100
0010
0000
0001
0010
0100
1000
0100
0010
0001
0100
0010
1000
0000
,
0010
0000
0010
0000
0010
0000
0100
0001
0000
0010
0100
0000
1000
0001
0100
0000
,
0010
1000
0001
0100
0010
1000
0001
0010
0100
1000
0100
0010
0002
0000
1003
0000
,
0100
0000
0100
0000
0100
0000
0010
0001
0000
1000
0010
0000
0100
0001
1000
0000
,
0001
0010
0100
1000
0001
0100
0010
1000
0010
0100
0001
1000
0200
0000
0310
0000
,
0001
0000
0001
0000
0001
0000
0100
0010
0000
1000
0010
0000
0010
0100
0001
0000
,
1000
0001
1000
0100
1000
0001
0010
0001
1000
0010
1000
0001
0020
0000
0130
0000
,
1000
0000
1000
0000
1000
0000
0010
0100
0000
0001
0100
0000
0100
0010
1000
0000
,
0100
0010
0001
1000
0100
1000
0001
0010
0001
1000
0010
1000
0002
0000
0103
0000
,
2002
0000
0000
0000
,
0000
0000
0000
0000
0000
0000
0000
3003
,
1000
0010
0100
0010
,
1000
0001
0010
0001
,
1000
0010
0100
0010
,
1000
0000
0001
0010
0100
0000
1000
0000
,
0001
0100
0010
0100
,
0001
1000
0010
1000
,
0001
0100
0010
0100
,
0001
1000
0010
1000
,
0001
1000
0100
0010
0001
0000
0100
0000
,
0010
1000
0100
0010
0001
0000
1000
0000
,
0001
0010
0100
1000
0001
0000
0100
0000
,
0010
1000
0001
0100
,
0001
0010
0001
0000
1000
0010
1000
0000
,
0001
0100
0001
0000
1000
0100
1000
0000
,
0001
0100
0010
0000
1000
0010
0100
0000
,
0001
0010
0100
0000
1000
0100
0010
0000
,
0001
0100
0010
1000
,
0100
0010
0001
0010
,
0100
1000
0010
0100
,
0001
0010
0100
1000
,
0100
0010
0001
1000
,
0010
0100
0002
0000
,
1003
0010
0100
0001
,
1000
0100
0000
0000
1000
0100
0000
0000
0000
0000
0010
0000
0000
0001
0000
0000
0100
0001
0000
0000
0100
0001
0000
0000
0000
0000
1000
0000
0000
0000
0000
0000
,
0010
0100
0000
0000
0010
0100
0000
0000
0000
0000
0010
0000
0000
1000
0000
0000
0001
0000
0000
0010
0000
0000
0100
0000
2000
0000
0000
0000
3002
0000
0000
0000
,
1003
0100
0010
0001
,
1000
0010
0100
0001
,
1000
0100
0010
0100
,
1000
0001
0010
0100
,
0010
0001
1000
0010
,
0100
0001
1000
0100
,
0010
0001
0010
0100
,
1000
0001
0100
0010
,
1000
0100
0010
0100
0010
0001
0101
0000
,
1001
0001
0010
0100
0010
0001
0101
0000
,
1001
1000
0010
0100
0001
0100
0110
0000
,
2020
0000
0000
0030
0002
0000
0000
3003
,
1000
0000
1000
0000
1000
0000
0010
0100
0000
0001
1000
0000
0100
0010
0001
0000
,
1000
0100
0010
0100
1000
0001
0010
0100
1000
0010
0100
0001
2000
0000
3001
0000
,
0100
0000
0100
0000
0100
0000
0010
1000
0000
0001
0100
0000
0010
1000
0001
0000
,
0010
0100
0010
0001
0010
0100
1000
0010
0100
0001
1000
0100
0020
0000
0130
0000
,
0010
0000
0010
0000
0010
0000
0001
1000
0000
1000
0100
0000
1000
0001
0100
0000
,
0010
1000
0001
0010
0100
0010
0001
1000
0100
0010
0100
1000
0002
0000
0013
0000
,
0001
0000
0001
0000
0001
0000
0100
0010
0000
1000
0100
0000
0010
0001
1000
0000
,
0001
0010
0100
0010
0001
0100
0010
1000
0100
0010
0100
1000
0002
0000
1003
0001
;

//---------------dance-single - ----------------
#NOTES:
     dance-single:
     Lisek:
     Medium:
     5:
     0.297,0.412,0.132,0.185,0.000: // measure 1
0000
0000
0000
0000
,  // measure 2
0000
0000
0000
0000
,  // measure 3
0000
0000
0000
0000
,  // measure 4
2002
0000
0000
3003
,  // measure 5
1000
0000
0100
0000
0010
0000
0002
0003
,  // measure 6
1000
0000
0010
0000
0100
0000
0020
0030
,  // measure 7
1000
0000
0001
0000
0010
0000
0200
0300
,  // measure 8
1000
0000
0001
0000
1000
0000
0020
0030
,  // measure 9
0100
0000
0001
0000
1000
0000
0002
0003
,  // measure 10
0100
0000
0010
0000
1000
0000
0200
0300
,  // measure 11
1000
0000
0010
0000
0100
0000
0020
0030
,  // measure 12
1000
0000
0001
0000
1000
0001
1000
0000
,  // measure 13
0010
0010
0100
0100
,  // measure 14
0001
0010
0100
0000
1000
0100
0010
0000
,  // measure 15
0001
0001
1000
1000
,  // measure 16
0001
0100
0010
0000
1000
0010
0100
0000
,  // measure 17
0010
0010
1000
1000
,  // measure 18
0001
0010
0100
0000
1000
0010
0100
0000
,  // measure 19
0001
0001
0010
0010
,  // measure 20
0100
1000
0001
0000
1000
0001
0100
0000
,  // measure 21
2002
0000
0000
0000
,  // measure 22
0000
0000
0000
0000
0000
0000
0000
3003
,  // measure 23
1000
0000
0001
0000
,  // measure 24
0100
0000
0010
0000
,  // measure 25
1000
0000
0100
0000
,  // measure 26
0010
0000
0001
0000
,  // measure 27
1000
0000
0010
0000
,  // measure 28
0100
0000
0001
0000
,  // measure 29
0010
0000
0001
0000
,  // measure 30
1000
0000
0010
0000
,  // measure 31
0100
0001
0100
0000
,  // measure 32
0010
1000
0010
0000
,  // measure 33
1000
0001
1000
0000
,  // measure 34
0001
1000
0001
0000
,  // measure 35
1000
0000
0100
0000
,  // measure 36
0010
0000
0001
0000
,  // measure 37
0010
0000
0100
0000
,  // measure 38
1000
0000
0001
0000
,  // measure 39
2000
0000
0000
0000
,  // measure 40
0000
0000
3020
0000
,  // measure 41
0230
0000
0000
0000
,  // measure 42
0000
0000
0302
0000
,  // measure 43
2003
0000
0000
0000
,  // measure 44
0000
0000
3002
0000
,  // measure 45
1003
0001
1000
0001
,  // measure 46
1001
1001
0000
0000
0110
0110
0000
0000
,  // measure 47
1001
1001
0000
0000
0120
0000
1030
0001
,  // measure 48
1000
0000
0100
0000
,  // measure 49
0010
0000
0001
0000
,  // measure 50
1000
0000
0010
0000
,  // measure 51
0100
0000
0001
0000
,  // measure 52
1000
0000
0100
0000
,  // measure 53
0010
0000
0001
0000
,  // measure 54
1000
0000
0001
0000
,  // measure 55
0010
0000
0100
0000
,  // measure 56
1000
0001
0100
0110
,  // measure 57
0110
0010
1000
1001
,  // measure 58
1001
0001
0100
0110
,  // measure 59
0220
0000
0000
0300
2000
0000
0000
3030
,  // measure 60
1000
1000
0001
0001
,  // measure 61
0100
0010
1000
0000
0001
0100
0010
0000
,  // measure 62
0100
0100
0010
0010
,  // measure 63
1000
0100
0010
0000
0001
0010
0100
0000
,  // measure 64
1000
1000
0010
0010
,  // measure 65
0100
0001
0010
0000
0100
1000
0001
0000
,  // measure 66
0100
0100
0001
0001
,  // measure 67
1000
0100
0010
0000
0001
0100
0010
0000
;

//---------------dance-single - ----------------
#NOTES:
     dance-single:
     Lisek:
     Beginner:
     1:
     0.068,0.145,0.009,0.053,0.000:
0000
0000
0000
0000
,
0000
0000
0000
0000
,
0000
0000
0000
0000
,
0000
0000
0000
0000
,
1000
0000
0000
0000
,
0010
0000
0000
0000
,
1000
0000
0000
0000
,
0001
0000
0000
0000
,
0100
0000
0000
0000
,
0010
0000
0000
0000
,
1000
0000
0000
0000
,
0020
0000
0000
0030
,
1000
0000
0000
0000
,
0001
0000
0000
0000
,
1000
0000
0000
0000
,
0001
0000
0000
0000
,
0100
0000
0000
0000
,
0010
0000
0000
0000
,
0100
0000
0000
0000
,
0010
0000
0000
0000
,
2002
0000
0000
0000
,
0000
0000
3003
0000
,
1000
0000
0000
0000
,
0000
0000
0000
0000
,
0001
0000
0000
0000
,
0000
0000
0000
0000
,
1000
0000
0000
0000
,
0000
0000
0000
0000
,
0001
0000
0000
0000
,
0000
0000
0000
0000
,
1000
0000
0000
0000
,
0000
0000
0000
0000
,
0100
0000
0000
0000
,
0000
0000
0000
0000
,
0000
0010
0000
0000
,
0000
0000
0000
0000
,
0001
0000
0000
0000
,
0000
0000
0000
0000
,
1000
0000
0000
0000
,
0000
0000
0000
0000
,
0001
0000
0000
0000
,
0000
0000
0000
0000
,
1000
0000
0000
0000
,
0000
0000
0000
0000
,
0001
0000
0000
0000
,
2000
0000
0000
0000
0000
0000
0000
3000
,
0002
0000
0000
0000
0000
0000
0000
0003
,
1000
0000
0000
0000
,
0000
0000
0000
0000
,
0001
0000
0000
0000
,
0000
0000
0000
0000
,
0100
0000
0000
0000
,
0000
0000
0000
0000
,
0010
0000
0000
0000
,
0000
0000
0000
0000
,
1000
0000
0000
0000
,
0001
0000
0000
0000
,
1000
0000
0000
0000
,
0002
0000
0000
0003
,
1000
0000
0000
0000
,
0100
0000
0000
0000
,
0010
0000
0000
0000
,
0001
0000
0000
0000
,
1000
0000
0000
0000
,
0100
0000
0000
0000
,
0010
0000
0000
0000
,
0001
0000
0000
0000
;

//---------------dance-single - ----------------
#NOTES:
     dance-single:
     Lisek:
     Easy:
     2:
     0.122,0.205,0.009,0.106,0.000:
0000
0000
0000
0000
,
0000
0000
0000
0000
,
0000
0000
0000
0000
,
0000
0000
0000
0000
,
1000
0000
0100
0000
,
1000
0000
0100
0000
,
0010
0000
0001
0000
,
0010
0000
0001
0000
,
1000
0000
0001
0000
,
1000
0000
0001
0000
,
0100
0000
0010
0000
,
0200
0000
0000
0300
,
0002
0000
0000
0000
,
1003
0000
0010
0000
,
0200
0000
0000
0000
,
0310
0000
1000
0000
,
0002
0000
0000
0000
,
1003
0000
0100
0000
,
0020
0000
0000
0000
,
0031
0000
1000
0000
,
2002
0000
0000
0000
,
0000
0000
3003
0000
,
1000
0000
0000
0000
,
0010
0000
0000
0000
,
0100
0000
0000
0000
,
0001
0000
0000
0000
,
0010
0000
0000
0000
,
0001
0000
0000
0000
,
1000
0000
0000
0000
,
0010
0000
0000
0000
,
1000
0000
0000
0000
,
0001
0000
0000
0000
,
0100
0000
0000
0000
,
0001
0000
0000
0000
,
1000
0000
0000
0000
,
0100
0000
0000
0000
,
0010
0000
0000
0000
,
0001
0000
0000
0000
,
1000
0000
0000
0000
,
0010
0000
0000
0000
,
1000
0000
0000
0000
,
0010
0000
0000
0000
,
0100
0000
0000
0000
,
0001
0000
0000
0000
,
0100
0000
0000
0000
,
0010
0000
1000
0000
,
0001
0000
1000
0000
,
0001
0000
0000
0000
,
0010
0000
0000
0000
,
0100
0000
0000
0000
,
1000
0000
0000
0000
,
0001
0000
0000
0000
,
1000
0000
0000
0000
,
0010
0000
0000
0000
,
0100
0000
0000
0000
,
0002
0000
0000
0003
,
2000
0000
0000
3000
,
0020
0000
0000
0030
,
0200
0000
0000
0300
0020
0000
0000
0030
,
1000
0000
0001
0000
,
0100
0000
0010
0000
,
1000
0000
0100
0000
,
0010
0000
0001
0000
,
1000
0000
0010
0000
,
0100
0000
0010
0000
,
1000
0000
0001
0000
,
0100
0000
0010
0000
;
