#TITLE:HEAVEN & EARTH;
#SUBTITLE:(Six Blade Remix);
#ARTIST:ASY;
#TITLETRANSLIT:;
#SUBTITLETRANSLIT:;
#ARTISTTRANSLIT:;
#CREDIT:;
#BANNER:;
#BACKGROUND:;
#LYRICSPATH:;
#CDTITLE:;
#MUSIC:[ROUND C] - HEAVEN & EARTH (Six Blade Remix).ogg;
#OFFSET:1.375;
#SAMPLESTART:43.809;
#SAMPLELENGTH:15.000;
#SELECTABLE:YES;
#BPMS:0.000=174.000,129.000=261.000,129.750=348.000,132.750=261.000,133.500=174.000,134.000=87.000,137.500=431.997,140.000=174.001,180.000=87.001,184.000=174.001,254.000=908.993,255.500=174.003,317.000=348.006,319.000=174.003,319.500=347.986,321.500=174.003,322.500=348.006,324.500=174.003,325.500=348.006,327.500=174.003,328.500=348.006,330.500=174.003,331.500=348.006,333.500=174.003,334.500=348.006,336.500=174.003;
#STOPS:191.000=0.340
,255.500=0.080
;
#BGCHANGES:;

//---------------dance-single - ----------------
#NOTES:
     dance-single:
     :
     Hard:
     11:
     0.895,0.906,0.806,0.175,0.441:
0000
0000
0000
0000
,
0000
0000
0000
0000
,
0000
0000
0000
0000
,
0000
0000
0000
0000
,
0000
0000
0000
0000
0000
0000
1000
0100
,
0010
0001
0010
0100
1000
0100
0010
0001
,
0100
1000
0100
0001
0010
1000
0010
0001
,
0100
0010
1000
0100
0010
0001
0011
0000
,
0100
1000
1100
0000
1000
0010
0010
0100
,
0101
0000
0001
0100
0101
0000
0001
0010
,
0011
0000
0001
1000
1001
0000
1000
0100
,
1100
1001
1010
1001
,
1100
0000
1001
0000
1010
0000
0011
0001
,
1001
1000
0100
0010
1001
0001
0100
0010
,
1001
1000
0100
0010
1001
0001
0100
0010
,
1001
0000
0002
2000
0000
0000
3003
0000
,
0001
0100
0010
1000
0100
0010
0001
0100
0010
1000
0100
0010
,
0002
0000
0000
0000
0103
0000
0001
0000
0010
0001
0010
0001
0100
0000
0001
0000
,
0010
0000
0010
0000
0001
0000
1000
0000
0010
1000
0001
1000
0100
0000
0010
0000
,
0010
0000
0001
0000
0100
0000
0010
0000
0100
0001
0010
0001
0100
0000
0010
0000
,
0100
0000
0001
0000
0100
0000
0010
0000
0100
0010
1000
0010
0100
0000
0010
0000
,
1001
0000
1000
0000
0100
0000
0010
0000
0001
0100
0010
1000
0100
0000
1000
0000
,
0100
0000
0010
0000
0001
0000
0100
0000
0010
1000
0100
0010
0001
0000
0001
0000
,
0010
0000
0100
0000
1000
0000
0100
0000
0010
0001
1000
0001
0100
0000
0100
0000
,
0010
0000
1000
0000
0100
0000
0010
0000
0100
1000
0001
1000
0100
0000
0010
0000
,
0100
0000
0100
0000
1000
0000
0010
0000
0100
0010
1000
0010
0100
0000
0010
0000
,
0101
0000
1000
0000
0100
0000
0010
0000
0001
0100
0001
0100
0010
0000
0100
0000
,
0001
0000
0100
0000
0010
0000
1000
0000
0010
1000
0001
1000
0010
0000
0100
0000
,
0101
0000
0010
0000
1000
0000
0100
0000
0010
0100
1000
0100
0010
0000
0001
0000
,
1001
0000
0100
0000
0010
0000
0010
1000
0010
1000
0100
0000
0011
0000
0010
0000
,
0001
0000
0100
0000
0010
0000
1000
0001
0100
0001
1000
0000
1001
0000
0000
0000
,
0001
0100
0001
0000
0101
0000
0001
0000
1000
0100
1000
0000
1100
0000
2002
0000
,
0000
0000
0000
0000
,
0000
0000
0000
0000
0000
0000
0000
0000
0000
0000
0000
0000
0000
0003
0000
0000
3000
0000
0000
0000
0000
0000
0000
0000
0000
0000
0000
0000
0000
0000
0000
0000
1001
0000
0000
0000
0000
0000
0000
0000
1000
0000
0000
0000
0100
0000
0000
0000
0000
0000
0000
0000
0010
0000
0000
0000
0001
0000
0000
0000
0000
0000
0000
0000
,
0001
0000
0010
0000
0001
0000
1000
0000
0100
0000
0100
1000
0001
0000
0000
0000
0000
0000
0000
0000
0000
0000
0000
0000
0000
0000
0000
0000
0000
0000
0000
0000
,
1001
0000
0001
0000
0100
0000
0001
0000
0010
0001
0010
0000
0100
0000
1000
0000
,
0010
1000
0010
0000
1000
0000
0100
0000
0010
0001
0010
0000
0100
0000
1000
0000
,
0010
1000
0001
0000
0010
0000
0001
0000
1000
0001
0100
0000
0010
0000
1000
0000
,
0100
1000
0001
0000
0010
0000
0001
0000
0010
0001
1000
0000
0100
0000
0010
0000
,
1001
0000
0001
0000
0101
0000
0010
0000
1000
0100
1000
0000
0010
0000
0100
0000
,
0001
0100
0001
0000
0100
0000
0010
0000
1000
0010
1000
0000
0100
0000
0010
0000
,
0001
0010
0001
0000
0100
0000
0010
0000
1000
0100
0010
0000
0001
0000
0100
0000
,
0010
1000
0100
0000
0010
0000
0001
0000
0100
0010
1000
0000
0100
0000
0010
0000
,
0001
1000
0100
0000
0010
0000
0001
0000
0100
0010
1000
0000
0010
0000
0100
0000
,
0001
0010
0001
0000
0100
0000
0010
0000
1000
0100
0010
0000
0001
0000
0001
0000
,
1100
1000
0010
0100
0000
0002
0000
0000
0000
0000
0000
1000
0000
0100
0000
0003
,
0101
0000
1000
1100
0000
1000
1010
0000
,
1001
0000
0001
0011
0000
1000
1010
0100
,
0010
0000
1000
0000
0100
0010
0001
0000
1001
0000
0001
0000
0100
0000
0010
0000
,
0100
0000
0001
0000
1000
0001
1000
0000
1001
0000
0001
0000
0100
0000
0010
0000
,
1000
0000
0100
0000
0010
0100
1000
0000
1100
0000
0100
0000
0010
0000
0001
0000
,
0010
0000
0100
0000
1000
0010
0100
0000
0101
0000
0001
0000
1000
0000
0010
0000
,
0100
0000
0001
0000
1000
0100
0010
0000
0011
0000
0100
0000
1000
0000
0100
0000
,
0001
0000
0001
0000
0100
0010
1000
0000
1010
0000
0100
0000
0001
0000
0100
0000
,
1000
0000
0100
0000
0010
1000
0001
0000
0101
0000
0001
0000
0010
0001
1000
0000
,
1001
0000
1000
0000
0100
0010
0001
0000
1001
0000
0001
0000
0100
0010
1000
0000
,
1001
0000
1000
0000
0100
0010
0001
0000
1001
0000
0001
0000
0100
0010
1000
0000
,
1001
0000
1000
0000
0100
0010
0001
0000
1001
0000
0001
0000
0010
0100
1000
0000
,
1001
0000
1000
0000
0010
0100
0001
0000
1001
0000
0001
0000
0100
0010
1000
0000
,
1001
0000
1000
0000
0010
0100
0001
0000
1001
0000
0001
0000
0100
0010
1000
0000
,
1001
0000
0001
0000
1000
0010
0100
0000
1001
0000
1000
0000
0001
0100
0010
0000
,
1001
0000
0001
0000
1000
0100
0010
0000
1001
0000
1000
0000
0001
0100
0010
0000
,
1001
0000
0001
0000
1000
0100
0010
0000
1001
0000
1000
0000
0001
0100
0010
0000
,
1001
0000
0001
0000
1000
0100
0010
0000
0002
0000
0000
0000
0000
0000
0003
0000
,
1100
0100
0010
0101
0000
1001
0000
0011
,
0010
0000
0001
0100
0010
0000
0010
0000
0010
0000
0010
0000
0100
0001
0100
0000
,
0101
0010
0100
1001
0001
0100
0010
1010
,
1000
0000
0100
0010
0100
0000
0100
0000
0100
0000
0100
0000
0100
0000
0000
0000
,
1001
0100
0001
0011
0000
1100
0000
0011
,
0001
0000
0100
0010
1000
0000
1000
0000
0100
0000
0100
0000
0100
1000
0100
0000
,
1100
0000
1000
1010
0000
0101
0000
0011
,
0001
0000
0100
0010
1000
0000
1000
0000
0001
0000
0001
0000
0001
0000
0000
0000
,
1010
1000
0100
1100
0000
1001
0000
0011
,
1000
0000
0100
0010
0001
0000
0001
0000
0010
0000
0010
0000
0010
0001
0010
0000
,
0011
0000
0001
0101
0000
1010
0000
1100
,
0000
0000
0100
0010
0001
0000
0100
0000
0100
0000
0100
0000
0100
0010
1000
0001
,
0100
0010
1000
1100
0010
0001
0000
0101
,
0001
0000
0100
0010
1000
0000
1000
0000
0100
0000
0100
0000
0100
1000
0010
0100
,
0001
0001
0100
0101
0100
1010
0100
0001
,
2002
0000
3003
0220
,
0000
0330
0000
0000
2002
0000
0000
3003
,
0000
0000
0220
0000
0000
0330
0000
0000
,
2002
0000
0000
3003
0000
0000
0220
0000
,
0000
0330
0000
0000
2002
0000
0000
3003
;

//---------------dance-single - ----------------
#NOTES:
     dance-single:
     :
     Medium:
     9:
     0.671,0.769,0.665,0.116,0.067:
0000
0000
0000
0000
,
0000
0000
0000
0000
,
0000
0000
0000
0000
,
0000
0000
0000
0000
,
0000
0000
0000
0000
0000
0000
1000
0100
,
1000
0010
0100
0001
0000
1001
0000
0110
,
0000
1100
0000
0010
0001
0100
0000
1010
,
0000
1100
0000
0010
0001
0100
0000
0011
,
0000
0101
0000
0010
1000
0100
0010
0010
,
1001
0000
0000
0101
0000
0000
1100
0000
,
1001
0000
0000
0101
0000
0000
0011
0000
,
1001
1010
1001
0011
,
1001
1010
0110
0101
,
1001
1000
0010
0100
0101
0001
0010
0100
,
1100
1000
0100
0010
0011
0001
0100
0010
,
1010
0000
0000
0000
,
1000
0100
1000
0001
1000
0010
1000
0001
1000
0100
1000
0001
,
1000
0000
0100
0010
0000
0010
0001
0000
,
0010
1000
1010
0000
0100
0001
0100
0010
,
1000
0000
1000
0100
0000
0100
0010
0000
,
0001
0010
0001
0100
0010
1000
0100
0010
,
0001
0000
0001
0100
0000
0100
0001
0000
,
0010
1000
0100
1000
0010
0100
0001
0010
,
0001
0000
0001
0100
0000
0100
0010
0000
,
0100
0010
1000
0010
0100
0001
0010
0001
,
2000
0100
0000
0002
0000
3000
0000
0000
,
0000
0100
0000
0010
0000
0003
0000
0000
,
1001
0000
0001
0100
0010
1000
0100
0000
,
1001
0000
1000
0100
0010
0001
0100
0000
,
1001
0000
0001
0100
0001
0010
0001
0100
,
0001
0010
0100
1000
0010
1000
0010
0100
,
0010
0001
0001
0010
0100
0010
2000
0002
,
0000
0000
0000
0000
,
0000
0000
3003
0000
0000
0000
0000
0000
1001
0000
1000
0100
0000
0010
0001
0000
,
0000
0000
0000
0000
0001
0100
0010
0000
0000
0000
0000
0000
0000
0000
0000
0000
,
1001
0000
0001
0100
0000
0010
1000
0000
,
1000
0100
0000
0010
0001
0010
0100
0000
,
1100
0100
1000
0010
0000
0010
0100
0000
,
0001
0010
0100
1000
0000
1000
0100
0000
,
1100
0000
0010
0001
0000
0001
0100
0000
,
0010
1000
0100
0010
0001
0010
0100
1000
,
0100
0100
0010
0001
0000
0001
0100
0000
,
0010
0001
0010
1000
0000
1000
0100
0000
,
0010
1000
0010
0001
0000
0001
0010
0000
,
1000
0100
0010
0001
0100
0010
1000
0001
,
1000
0100
0010
0001
0000
2001
0000
0000
0000
0000
0000
0001
0000
0001
3000
0000
,
1100
0000
0010
0001
0000
0001
0100
0000
,
0101
0000
0010
1000
0000
1000
0100
0010
,
0001
1000
0100
0010
1001
0001
0100
0010
,
1001
1000
0100
0010
1001
0001
0100
0010
,
1001
1000
0100
0010
1001
0001
0100
0010
,
1001
1000
0010
0100
0101
0001
0010
0100
,
1100
1000
0010
0100
0101
0001
0010
0100
,
1100
1000
0010
0100
0101
0001
0010
0100
,
1100
1000
0100
0010
0011
0001
0100
0010
,
1010
1000
0100
0010
0011
0001
0100
0010
,
1010
1000
0100
0010
0011
0001
0100
0010
,
1010
1000
0100
0010
0011
0001
0100
0010
,
1010
1000
0100
0010
1001
0001
0010
0100
,
1001
1000
0010
0100
1001
0001
0010
0100
,
1001
1000
0010
0100
1001
0001
0010
0100
,
1001
1000
0010
0100
0101
0001
0010
0100
,
1100
1000
0010
0100
0101
0001
0010
0100
,
1100
1000
0010
0100
0202
0000
0000
0303
,
0001
0100
0010
1000
0000
1000
0000
1001
,
0000
1000
0010
0100
0001
0010
1001
0000
,
0001
0100
0010
1000
0000
0100
0000
0110
,
0000
0010
0001
0010
0100
0100
0100
0000
,
1000
0100
1000
0010
0000
0100
0000
0101
,
0000
0001
0100
0010
1000
1000
1000
0000
,
1100
0100
0010
0001
0000
0011
0000
0101
,
0000
0001
0100
0010
1000
1000
1000
0000
,
1010
0100
0001
0010
0000
0010
0000
0100
,
0000
0100
1000
0100
0010
0010
0010
0000
,
0011
0001
0100
0010
0000
1000
0000
0100
,
0000
0100
1000
0010
0100
0100
0100
0000
,
1001
0010
0100
1000
0000
1000
0000
1100
,
0000
0100
0010
0001
0010
0010
0010
0000
,
0011
0001
0010
0100
0010
0001
1000
0001
,
0100
0002
0000
0000
0000
0000
2003
0000
,
0000
0000
0000
0000
0000
0000
0000
0000
0000
0000
0000
0000
0000
0000
0000
0000
0000
0000
0000
0000
0000
0000
0000
0000
0000
0000
0000
0000
0000
0000
0000
0000
0000
0000
0000
0000
0000
0000
0000
0000
0000
0000
0000
0000
0000
0000
0000
0000
0000
0000
0000
0000
0000
0000
0000
0000
0000
0000
0000
0000
0000
0000
0000
0000
0000
0000
0000
0000
0000
0000
0000
0000
0000
0000
3000
0000
0000
0000
0000
0000
0000
0000
0000
0000
0000
0000
0000
0000
0000
0000
0000
0000
0000
0000
0000
0000
0200
0000
0000
0000
0000
0000
0000
0000
0000
0000
0000
0000
0000
0000
0000
0000
0000
0000
0000
0000
0000
0000
0000
0000
0000
0000
0000
0000
0000
0000
0000
0000
0000
0000
0000
0000
0000
0000
0000
0000
0000
0000
0000
0000
0000
0000
0000
0000
0000
0000
0000
0000
0000
0000
0000
0000
0000
0000
0000
0000
0000
0000
0000
0000
0000
0000
0000
0000
0000
0000
0000
0000
0000
0000
0000
0000
0000
0000
0000
0000
0000
0000
0000
0000
0000
0000
0000
0000
0000
0000
0000
0000
0000
0000
0000
0000
,
0000
0000
0000
0000
0000
0000
0000
0000
0000
0000
0000
0000
0000
0000
0000
0000
0000
0000
0000
0000
0000
0000
0000
0000
0000
0000
0300
0000
0000
0000
0000
0000
0000
0000
0000
0000
0000
0000
0000
0000
0000
0000
0000
0000
0000
0000
0000
0000
0020
0000
0000
0000
0000
0000
0000
0000
0000
0000
0000
0000
0000
0000
0000
0000
0000
0000
0000
0000
0000
0000
0000
0000
0000
0000
0000
0000
0000
0000
0000
0000
0000
0000
0000
0000
0000
0000
0000
0000
0000
0000
0000
0000
0000
0000
0000
0000
0000
0000
0000
0000
0000
0000
0000
0000
0000
0000
0000
0000
0000
0000
0000
0000
0000
0000
0000
0000
0000
0000
0000
0000
0000
0000
0000
0000
0000
0000
0000
0000
0000
0000
0000
0000
0000
0000
0000
0000
0000
0000
0000
0000
0000
0000
0000
0000
0000
0000
0000
0000
0000
0000
0000
0000
0000
0000
0000
0000
0000
0000
0000
0000
0000
0000
0000
0000
0000
0000
0000
0000
0000
0000
0030
0000
0000
0000
0000
0000
0000
0000
0000
0000
0000
0000
0000
0000
0000
0000
0000
0000
0000
0000
0000
0000
,
0002
0000
0000
0000
0000
0000
0000
0000
0000
0000
0000
0000
0000
0000
0000
0000
0000
0000
0000
0000
0000
0000
0000
0000
0000
0000
0000
0000
0000
0000
0000
0000
0000
0000
0000
0000
0000
0000
0000
0000
0000
0000
0000
0000
0000
0000
0000
0000
0000
0000
0000
0000
0000
0000
0000
0000
0000
0000
0000
0000
0000
0000
0000
0000
0000
0000
0000
0000
0000
0000
0000
0000
0000
0000
0000
0000
0000
0000
0000
0000
0000
0000
0000
0000
0000
0000
0000
0000
0000
0000
0000
0000
0000
0000
0000
0000
0000
0000
0000
0000
0000
0000
0000
0000
0000
0000
0000
0000
0000
0000
0000
0000
0000
0000
0000
0000
0000
0000
0000
0000
0000
0000
0003
0000
0000
0000
0000
0000
0000
0000
0000
0000
0000
0000
0000
0000
0000
0000
0000
0000
0000
0000
0000
0000
0200
0000
0000
0000
0000
0000
0000
0000
0000
0000
0000
0000
0000
0000
0000
0000
0000
0000
0000
0000
0000
0000
0000
0000
0000
0000
0000
0000
0000
0000
0000
0000
0000
0000
0000
0000
0000
0000
0000
0000
0000
0000
0000
0000
0000
0000
0000
0000
,
0000
0000
0000
0000
0000
0000
0000
0000
0000
0000
0000
0000
0000
0000
0000
0000
0000
0000
0000
0000
0000
0000
0000
0000
0000
0000
0000
0000
0000
0000
0000
0000
0000
0000
0000
0000
0000
0000
0000
0000
0000
0000
0000
0000
0000
0000
0000
0000
0000
0000
0000
0000
0000
0000
0000
0000
0000
0000
0000
0000
0000
0000
0000
0000
0000
0000
0000
0000
0000
0000
0000
0000
0000
0000
0300
0000
0000
0000
0000
0000
0000
0000
0000
0000
0000
0000
0000
0000
0000
0000
0000
0000
0000
0000
0000
0000
0020
0000
0000
0000
0000
0000
0000
0000
0000
0000
0000
0000
0000
0000
0000
0000
0000
0000
0000
0000
0000
0000
0000
0000
0000
0000
0000
0000
0000
0000
0000
0000
0000
0000
0000
0000
0000
0000
0000
0000
0000
0000
0000
0000
0000
0000
0000
0000
0000
0000
0000
0000
0000
0000
0000
0000
0000
0000
0000
0000
0000
0000
0000
0000
0000
0000
0000
0000
0000
0000
0000
0000
0000
0000
0000
0000
0000
0000
0000
0000
0000
0000
0000
0000
0000
0000
0000
0000
0000
0000
0000
0000
0000
0000
0000
0000
,
0000
0000
0000
0000
0000
0000
0000
0000
0000
0000
0000
0000
0000
0000
0000
0000
0000
0000
0000
0000
0000
0000
0000
0000
0000
0000
0030
0000
0000
0000
0000
0000
0000
0000
0000
0000
0000
0000
0000
0000
0000
0000
0000
0000
0000
0000
0000
0000
0000
0000
0000
0000
0000
0000
0000
0000
0000
0000
0000
0000
0000
0000
0000
0000
0000
0000
0000
0000
0000
0000
0000
0000
0000
0000
0000
0000
0000
0000
0000
0000
0000
0000
0000
0000
0000
0000
0000
0000
0000
0000
0000
0000
0000
0000
0000
0000
0000
0000
0000
0000
0000
0000
0000
0000
0000
0000
0000
0000
0000
0000
0000
0000
0000
0000
0000
0000
0000
0000
0000
0000
0000
0000
0000
0000
0000
0000
0000
0000
0000
0000
0000
0000
0000
0000
0000
0000
0000
0000
0000
0000
0000
0000
0000
0000
0000
0000
0000
0000
0000
0000
0000
0000
0000
0000
0000
0000
0000
0000
0000
0000
0000
0000
0000
0000
0000
0000
0000
0000
0000
0000
0000
0000
0000
0000
0000
0000
0000
0000
0000
0000
0000
0000
0000
0000
0000
0000
0000
0000
0000
0000
0000
0000
;

//---------------dance-double - ----------------
#NOTES:
     dance-double:
     :
     Medium:
     8:
     0.671,0.735,0.648,0.091,0.071:
00000000
00000000
00000000
00000000
,
00000000
00000000
00000000
00000000
,
00000000
00000000
00000000
00000000
,
00000000
00000000
00000000
00000000
,
00000000
00000000
00000000
00000000
00000000
00000000
10000000
01000000
,
00100000
00010000
00001000
00010000
00100000
01000000
00000000
10000000
,
00100000
10100000
00000000
00010000
01000000
01010000
00000000
00011000
,
00000000
00001100
00000000
00000011
00000000
00000101
00000000
00001010
,
00000000
00011000
00000000
00110000
00000000
00000000
00010000
01000000
,
10010000
00000000
01000000
10000000
00010000
00000000
01000000
00010000
,
00001000
00000000
00010000
00001000
00000100
00000000
00000100
00000010
,
00000101
00001001
00001100
00010100
,
00011000
00000000
00101000
00000000
00110000
00000000
10010000
10000000
,
11000000
01000000
00100000
00010000
00110000
00100000
00010000
00001000
,
00011000
00001000
00000100
00001000
00001010
00000100
00000001
00000010
,
00000012
00000000
00001000
00001000
00000003
00000000
00000000
00000000
,
00000001
00000100
00000001
00001000
00000001
00000010
00000001
00001000
00000001
00000100
00000001
00001000
,
00000001
00000000
00000001
00000100
00000000
00000100
00000010
00000000
,
00000010
00001000
00000100
00001000
00010000
00001000
00011000
00000000
,
00011000
00000000
00010000
00100000
00000000
00100000
10000000
00000000
,
10000000
01000000
00100000
01000000
10000000
01000000
00010000
00000000
,
00011000
00000000
00001000
00000100
00000000
00000100
00000010
00000000
,
00000010
00000001
00000100
00000010
00001000
00000100
00001100
00000000
,
00001001
00000000
00000001
00000100
00000000
00000100
00001000
00000000
,
00010000
00100000
10000000
00100000
00010000
01000000
00010000
00000000
,
00010000
00001000
00000000
00001000
00000000
00001000
00000100
00000000
,
00000010
00000001
00000000
00000001
00000000
00000001
00000100
00000000
,
00001010
00000000
00000100
00010000
00000000
00001000
00100000
00000000
,
00010000
01000000
00100000
10000000
00100000
01000000
00010000
00100000
,
00001000
00010000
00001000
00000100
00000000
00000011
00000000
00000110
,
00000000
00001100
00000000
00011000
00000000
00110000
00000000
01010000
,
00000000
10100000
00000000
11000000
00000000
10010000
00000000
02020000
,
00000000
00000000
00000000
00000000
,
00000000
00000000
00000000
00000000
03030000
00000000
00000000
00000000
10010000
00000000
10000000
01000000
00000000
00100000
00010000
00000000
,
00010000
00001000
00000100
00000000
00000010
00000001
00001000
00000000
00000000
00000000
00000000
00000000
00000000
00000000
00000000
00000000
,
00001001
00000000
00000001
00000100
00000000
00000010
00001000
00000000
,
00001000
00010000
00100000
00010000
00001000
00010000
01000000
00000000
,
10000000
00100000
01000000
00010000
00100000
01000000
00000000
01000000
,
10000000
00100000
01000000
00010000
01000000
00100000
10010000
00000000
,
11000000
00000000
00100000
00010000
00000000
00010000
00001000
00000000
,
00001000
00000100
00001000
00000001
00000010
00000001
00001001
00000000
,
00000011
00000000
00000010
00001000
00000000
00001000
00010000
00000000
,
00010000
00100000
10000000
01000000
00010000
00001000
00000100
00000000
,
00001100
00000000
00000010
00000001
00000000
00000001
00000100
00000000
,
00000100
00000010
00001000
00000100
00010000
00001000
00011000
00010000
,
01000000
10000000
00100000
00010000
00001000
00000200
00000000
00000000
00000000
00000000
00000000
00000010
00000000
00000010
00000300
00000000
,
00000011
00000000
00000100
00001000
00000000
00001000
00010000
00000000
,
01010000
00000000
00010000
10000000
00000000
10000000
01000000
00100000
,
00010000
10000000
01000000
00100000
01100000
10000000
01000000
00010000
,
00001000
00000100
00000001
00000010
00000110
00000100
00000001
00000100
,
00001000
00000100
00000001
00000010
00000110
00000001
00001000
00000100
,
00000010
00001000
00010000
00100000
01100000
10000000
01000000
00100000
,
00010000
01000000
00001000
00010000
00011000
00000100
00000001
00000100
,
00001000
00000010
00010000
00001000
00011000
00010000
01000000
10000000
,
01000000
00010000
00001000
00010000
00011000
00000010
00000001
00000010
,
00001000
00000100
00000010
00000001
00001001
00000001
00000100
00001000
,
00010000
00100000
01000000
10000000
10010000
01000000
00100000
00010000
,
00001000
00000100
00000010
00000001
00001001
00000100
00000010
00001000
,
00000100
00001000
00010000
00100000
00110000
00100000
10000000
00100000
,
00010000
00001000
00000100
00000010
00000011
00000001
00000100
00000010
,
00001000
00000100
00010000
00001000
00011000
00001000
00100000
01000000
,
10000000
00100000
01000000
00010000
10010000
10000000
01000000
00100000
,
01000000
10000000
01000000
00010000
10010000
00010000
00001000
00000010
,
00000001
00000100
00001000
00010000
00011000
00000000
00000000
00000000
,
00010000
00100000
10000000
00100000
00000000
00011000
00000000
00001100
,
00000000
00000010
00000001
00000010
00000100
00000100
00000100
00000000
,
00000001
00000010
00000100
00001000
00000000
00011000
00000000
00110000
,
00000000
00100000
01000000
10000000
01000000
01000000
01000000
00000000
,
00100000
00010000
01000000
10000000
00000000
11000000
00000000
01010000
,
00000000
00100000
00001000
00010000
00000100
00000100
00000100
00000000
,
00000010
00000001
00001000
00000010
00000000
00001010
00000000
00011000
,
00000000
00100000
00010000
01000000
00100000
00100000
00100000
00000000
,
10000000
00100000
01000000
00010000
00000000
00101000
00000000
00010100
,
00000000
00001000
00000010
00000100
00000001
00000001
00000001
00000000
,
00000001
00000010
00000100
00001000
00000000
00001100
00000000
00110000
,
00000000
00010000
01000000
00100000
10000000
10000000
10000000
00000000
,
10000000
01000000
00010000
00001000
00000100
00000001
00000000
00001001
,
00000000
00000001
00000100
00000010
00001000
00001000
00001000
00000000
,
00000001
00000010
00001000
00010000
00100000
10000000
20000000
00000000
,
00000000
00000000
00000000
30200000
,
00000000
00000000
00002000
00300000
,
00000000
00000200
00003000
00000000
,
00000320
00000000
00000000
00000032
,
00000000
00000000
00000200
00000003
,
00000000
00000300
00000000
00000000
;

//---------------dance-double - ----------------
#NOTES:
     dance-double:
     :
     Hard:
     11:
     0.903,0.979,0.914,0.133,0.466:
00000000
00000000
00000000
00000000
,
00000000
00000000
00000000
00000000
,
00000000
00000000
00000000
00000000
,
00000000
00000000
00000000
00000000
,
00000000
00000000
00000000
00000000
00000000
00000000
10000000
01000000
,
00010000
00001000
00000100
00000001
00000010
00001000
00000000
00001000
,
00000010
00000001
00000100
00001000
00010000
00100000
00000000
10010000
,
01000000
10010000
00000000
10010000
00100000
10010000
00000000
00011000
,
00010000
00011000
00000000
00011000
00001000
00010000
00001000
00000100
,
00000110
00000000
00000010
00000001
00000011
00000000
00000001
00000100
,
00000101
00000000
00000100
00001000
00001100
00000000
00001000
00010000
,
00011000
00110000
10010000
01010000
,
00011000
00000000
00001100
00000000
00001001
00000000
00001010
00001000
,
00001001
00000010
00000100
00001000
00011000
00001000
00010000
00100000
,
10010000
00010000
00100000
01000000
11000000
01000000
00100000
00010000
,
01010000
00000000
00010000
10000000
00000000
00000000
00000000
00000000
,
10000000
01000000
00010000
00001000
00000100
00000001
00000010
00001000
00010000
00100000
10000000
01000000
,
00100000
00000000
00001000
00000000
00010000
00000000
00001000
00000000
00000100
00000001
00000100
00000001
00000100
00000000
00000001
00000000
,
00000010
00000000
00000100
00000000
00001000
00000000
00000100
00000000
00010000
00001000
00010000
00001000
00010000
00000000
00001000
00000000
,
00100000
00000000
00010000
00000000
01000000
00000000
00100000
00000000
10000000
01000000
10000000
01000000
10000000
00000000
01000000
00000000
,
00100000
00000000
00010000
00000000
00001000
00000000
00000100
00000000
00000010
00000100
00000010
00000100
00000010
00000000
00000001
00000000
,
00000100
00000000
00000010
00000000
00001000
00000000
00000100
00000000
00010000
00000100
00010000
00001000
00010000
00000000
00001000
00000000
,
00100000
00000000
00010000
00000000
01000000
00000000
00100000
00000000
10000000
01000000
10000000
00010000
10000000
00000000
01000000
00000000
,
00100000
00000000
00010000
00000000
00001000
00000000
00000100
00000000
00000001
00000100
00001000
00000010
00001000
00000000
00000100
00000000
,
00000001
00000000
00000010
00000000
00000100
00000000
00001000
00000000
00010000
00100000
00010000
00001000
00010000
00000000
01000000
00000000
,
00100000
00000000
10000000
00000000
01000000
00000000
00100000
00000000
00010000
01000000
00100000
01000000
00010000
00000000
00100000
00000000
,
01000000
00000000
10000000
00000000
00100000
00000000
01000000
00000000
00010000
00100000
01000000
10000000
01000000
00000000
00100000
00000000
,
00010000
00000000
00001000
00000000
00000100
00000000
00001000
00000000
00010000
00000100
00010000
00000010
00010000
00000000
00001000
00000000
,
00000100
00000000
00000010
00000000
00000001
00000000
00000100
00000000
00001000
00010000
01000000
10000000
01000000
00000000
00100000
00000000
,
10010000
00000000
10000000
00000000
01000000
00000000
00100000
00000000
00010000
00100000
01000000
10000000
01000000
00000000
00100000
00000000
,
00010000
00000000
00001000
00000000
00001100
00000000
00000100
00000000
00000010
00000001
00000100
00000010
00001000
00000000
00000100
00000000
,
00000010
00001001
00000010
00000100
00001000
00001100
00010000
00022000
,
00000000
00000000
00000000
00000000
,
00000000
00000000
00000000
00000000
00000000
00000000
00033000
00000000
00011000
00010000
00100000
10000000
00100000
00010000
00001000
00000100
,
00000001
00000000
00000100
00000000
00001000
00000000
00010000
00000000
00100000
00000000
00010000
00001000
00000100
00000000
00000000
00000000
00000000
00000000
00000000
00000000
00000000
00000000
00000000
00000000
00000000
00000000
00000000
00000000
00000000
00000000
00000000
00000000
,
00001100
00000000
00000100
00000000
00000010
00000000
00000001
00000000
00000100
00000010
00000100
00000000
00001000
00000000
00010000
00000000
,
00100000
01000000
00100000
00000000
00010000
00000000
00001000
00000000
00000100
00000010
00000100
00000000
00001000
00000000
00010000
00000000
,
00100000
01000000
00100000
00000000
00010000
00000000
00001000
00000000
00000100
00000010
00000100
00000000
00001000
00000000
00010000
00000000
,
00100000
01000000
00100000
00000000
00010000
00000000
00001000
00000000
00000100
00000010
00000100
00000000
00001000
00000000
00010000
00000000
,
00110000
10000000
01000000
00110000
00010000
01000000
00100000
10100000
,
10000000
01000000
00100000
00000000
00010000
00000000
00001000
00000000
00000100
00000010
00000001
00000000
00000010
00000000
00000100
00000000
,
00001000
00010000
00100000
00000000
01000000
00000000
00100000
00000000
00010000
00001000
00000100
00000000
00000010
00000000
00000001
00000000
,
00000100
00000010
00001000
00000000
00000100
00000000
00010000
00000000
00001000
00010000
00100000
00000000
10000000
00000000
00100000
00000000
,
00010000
00001000
00000010
00000000
00000001
00000000
00000100
00000000
00000010
00001000
00000100
00000000
00010000
00000000
00001000
00000000
,
00100000
00010000
01000000
00000000
00100000
00000000
10000000
00000000
01000000
00000000
00100000
00000000
00010000
10000000
01000000
00100000
,
00010000
01000000
00100000
00010000
00001000
00000010
00000001
00000100
00001000
00010000
00100000
00110000
00000000
11000000
00000000
00000000
,
11000000
00000000
00010000
01010000
00000000
00010000
00011000
00000000
,
00001100
00000000
00000010
00000011
00000000
00000001
00000101
00000100
,
00000001
00000100
00000010
00000000
00001000
00000000
00000100
00000000
00010000
00000000
00001000
00000100
00000001
00000000
00000010
00000000
,
00001100
00000000
00001000
00000100
00010000
00000000
00001000
00000000
00110000
00000000
00010000
01000000
00100000
00000000
00100000
00000000
,
10100000
00000000
10000000
01000000
00100000
00000000
00010000
00000000
00011000
00000000
00001000
00000100
00000010
00000000
00000001
00000000
,
00000011
00000000
00000001
00000010
00000100
00000000
00000100
00000000
00001100
00000000
00000100
00010000
00001000
00000000
00010000
00000000
,
00011000
00000000
00001000
00100000
00010000
00000000
01000000
00000000
01010000
00000000
00010000
00100000
01000000
00000000
01000000
00000000
,
11000000
00000000
10000000
00100000
01000000
00000000
00010000
00000000
00101000
00000000
00010000
00000100
00001000
00000000
00000010
00000000
,
00000110
00000000
00000100
00000001
00000010
00000000
00000001
00000000
00001001
00000000
00000001
00000100
00000010
00000000
00001000
00000000
,
00001010
00000000
00001000
00000100
00010000
00000000
00001000
00000000
00011000
00000000
00001000
00100000
00010000
00000000
01000000
00000000
,
01010000
00000000
00010000
00100000
01000000
00000000
10000000
00000000
11000000
00000000
10000000
00100000
01000000
00000000
01000000
00000000
,
01010000
00000000
00100000
00001000
00010000
00000000
00001000
00000000
00011000
00000000
00010000
00000100
00001000
00000000
00000100
00000000
,
00001100
00000000
00001000
00000100
00000010
00000000
00000100
00000000
00000110
00000000
00000100
00000010
00000001
00000000
00000010
00000000
,
00000011
00000000
00000001
00000100
00000010
00000000
00000100
00000000
00000110
00000000
00000010
00001000
00000100
00000000
00001000
00000000
,
00001100
00000000
00000100
00010000
00001000
00000000
00010000
00000000
00011000
00000000
00001000
00010000
00100000
00000000
01000000
00000000
,
10010000
00000000
10000000
01000000
00100000
00000000
00010000
00000000
00011000
00000000
00001000
00000100
00000010
00000000
00000001
00000000
,
00001001
00000000
00000001
00000100
00000010
00000000
00001000
00000000
00011000
00000000
00010000
00001000
00010000
00000000
00011000
00000000
,
00001000
00010000
00001000
00000000
00011000
00000000
00010000
00001000
00010000
00000000
00000000
00000000
00000000
00000000
00000000
00000000
,
10010000
00100000
01000000
10010000
00000000
11000000
00000000
01010000
,
00000000
00000000
00100000
00001000
00010000
00000000
00010000
00000000
00001000
00000000
00001000
00000000
00011000
00000000
00000000
00000000
,
00001001
00000100
00000010
00001001
00000000
00000101
00000000
00001010
,
00000000
00000000
00000100
00010000
00001000
00000000
00001000
00000000
00010000
00000000
00010000
00000000
00010000
00001000
00010000
00000000
,
00110000
00010000
01000000
10100000
00000000
11000000
00000000
00110000
,
00000000
00000000
00100000
00010000
00001000
00000000
00001000
00000000
00000100
00000000
00000100
00000000
00000100
00000000
00000000
00000000
,
00000011
00000001
00000100
00001010
00000000
00001100
00000000
00011000
,
00000000
00000000
00000010
00001000
00010000
00000000
00010000
00000000
00100000
00000000
00100000
00000000
00100000
01000000
00100000
00000000
,
10100000
00010000
01000000
01010000
00000000
00011000
00000000
00001010
,
00000000
00000000
00000001
00000010
00000100
00000000
00000100
00000000
00001000
00000000
00001000
00000000
00001000
00000000
00000000
00000000
,
00000011
00001000
00000100
00001100
00000000
00011000
00000000
00110000
,
00000000
00000000
10000000
00100000
01000000
00000000
01000000
00000000
00010000
00000000
00010000
00000000
10000000
00010000
01000000
00100000
,
10000000
01000000
00010000
00011000
00000000
00001100
00000000
00000011
,
00000000
00000000
00000001
00000100
00001000
00000000
00001000
00000000
00010000
00000000
00010000
00000000
00011000
00000000
00000000
00000000
,
00000001
00000100
00001000
00011000
00000000
00101000
00000000
20200000
,
00000000
00000000
30300000
00220000
,
00000000
00000000
00000000
00330000
00002200
00000000
00000000
00000000
,
00003300
00000022
00000000
00000033
,
00000202
00000000
00000303
00002200
,
00000000
00003300
00022000
00000000
,
00000000
00033000
00000000
00000000
00000000
00000000
00000000
00000000
;

//---------------dance-double - ----------------
#NOTES:
     dance-double:
     :
     Easy:
     6:
     0.464,0.594,0.532,0.108,0.046: // measure 1
00000000
00000000
00000000
00000000
,  // measure 2
00000000
00000000
00000000
00000000
,  // measure 3
00000000
00000000
00000000
00000000
,  // measure 4
00000000
00000000
00000000
00000000
,  // measure 5
00000000
00000000
00000000
00000000
00000000
00000000
10000000
01000000
,  // measure 6
00100000
00000000
00100000
00010000
00000000
01000000
00000000
00100000
,  // measure 7
00000000
10000000
00000000
01000000
00100000
00010000
00000000
00010000
,  // measure 8
00000000
00011000
00000000
00001000
00000000
00001100
00000000
00000010
,  // measure 9
00000000
00000011
00000000
00000011
00000000
00000000
00000001
00000100
,  // measure 10
00000101
00000000
00011000
00000000
,  // measure 11
11000000
00000000
00011000
00000000
,  // measure 12
00001100
00001100
00001001
00001001
,  // measure 13
00000101
00000000
00000101
00000000
00001001
00000000
00000001
00000100
,  // measure 14
00000001
00001001
00001010
00001100
,  // measure 15
00011000
00110000
10010000
01010000
,  // measure 16
20010000
00000000
00010000
00010000
30000000
00000000
00000000
00000000
,  // measure 17
10000000
00000000
10000000
01000000
00000000
01000000
00010000
00000000
00010000
00001000
00000000
00001000
,  // measure 18
00000100
00000000
00000000
00000001
00000000
00000000
00000010
00000000
,  // measure 19
00001000
00010000
00001000
00000010
,  // measure 20
00000001
00000000
00000000
00000100
00000000
00000000
00001000
00000000
,  // measure 21
00010000
00100000
10000000
01000000
,  // measure 22
00010000
00000000
00000000
00011000
00000000
00000000
00000100
00000000
,  // measure 23
00000010
00000001
00000100
00000010
,  // measure 24
00001000
00000000
00000000
00011000
00000000
00000000
00010000
00000000
,  // measure 25
01000000
00100000
10000000
01000000
,  // measure 26
00100000
00010000
00000000
00001100
00000000
00000000
00000010
00000000
,  // measure 27
00000001
00000100
00000000
00000010
00001000
00000000
00010000
00000000
,  // measure 28
00001000
00000000
00000000
01010000
00000000
00000000
00010000
00000000
,  // measure 29
00100000
10000000
00100000
00010000
,  // measure 30
00001000
00000000
00000000
00000011
00000000
00000001
00000000
00000100
,  // measure 31
00000000
00000010
00000000
00001000
00000000
00010000
00000000
00100000
,  // measure 32
00000000
10000000
00000000
01000000
00000000
00010000
00000000
00022000
,  // measure 33
00000000
00000000
00000000
00000000
,  // measure 34
00000000
00000000
00000000
00000000
00000000
00000000
00033000
00000000
00011000
00000000
00000000
00001000
00000000
00010000
00002000
00000000
,  // measure 35
00000000
00000000
00000000
00013000
00000000
00000000
00000000
00000000
,  // measure 36
00011000
00000000
00000000
00100000
00000000
00000000
10100000
00000000
,  // measure 37
10000000
00000000
01000000
00000000
00100000
00010000
00000000
00010000
,  // measure 38
01000000
00010000
01000000
00100000
00000000
00100000
10000000
00000000
,  // measure 39
01000000
00000000
00010000
00001000
00000000
00001000
00000100
00000000
,  // measure 40
00000010
00000000
00000000
00000001
00000000
00000000
00000100
00000000
,  // measure 41
00000010
00000000
00001000
00000000
00000100
00000000
00010000
00001000
,  // measure 42
00010000
00000000
00100000
10000000
00000000
10000000
01000000
00000000
,  // measure 43
00100000
00001000
00010000
00000100
,  // measure 44
00000011
00000000
00000000
00000101
00000000
00000000
00001010
00000000
,  // measure 45
00000010
00000100
00001000
00010000
,  // measure 46
00010000
00001000
00010000
00001000
00000000
00002000
00000000
00000000
00000000
00000000
00000000
00010000
00000000
00010000
00003000
00000000
,  // measure 47
00011000
00000000
00010000
00100000
00000000
01000000
10000000
00000000
,  // measure 48
10010000
00000000
10000000
00100000
00000000
01000000
00010000
00001000
,  // measure 49
00000100
00001000
00000000
00001100
00000000
00000000
00000000
00000010
,  // measure 50
00000001
00000010
00000000
00000011
00000000
00000000
00000000
00000100
,  // measure 51
00001000
00010000
00000000
00011000
00000000
00000000
00000000
01000000
,  // measure 52
00010000
00001000
00000000
00011000
00000000
00000000
00000000
00000010
,  // measure 53
00001000
00010000
00000000
00011000
00000000
00000000
00000000
00100000
,  // measure 54
00010000
00001000
00000000
00011000
00000000
00000000
00000000
00010000
,  // measure 55
01000000
10000000
00000000
10010000
00000000
00000000
00000000
10000000
,  // measure 56
01000000
00010000
00000000
10010000
00000000
00000000
00000000
00001000
,  // measure 57
00000100
00000001
00000000
00001001
00000000
00000000
00000000
00000001
,  // measure 58
00000100
00001000
00000000
00001001
00000000
00000000
00000000
00000001
,  // measure 59
00000010
00000100
00000000
00000101
00000000
00000000
00000000
00001000
,  // measure 60
00000010
00000100
00000000
00001010
00000000
00000000
00000000
00010000
,  // measure 61
00100000
01000000
00000000
01010000
00000000
00000000
00000000
10000000
,  // measure 62
00100000
01000000
00000000
10100000
00000000
00000000
00000000
00100000
,  // measure 63
01000000
00100000
00000000
01100000
00000000
00000000
00010000
00001000
,  // measure 64
00010000
00001000
00010000
00001000
00010000
00000000
00000000
00000000
,  // measure 65
10010000
00000000
00010000
01000000
00000000
00100000
00000000
10000000
,  // measure 66
00000000
00000000
01000000
00000000
01000000
00100000
01000000
00000000
,  // measure 67
11000000
00000000
10000000
01000000
00000000
00010000
00000000
00011000
,  // measure 68
00000000
00000000
00001000
00000000
00000010
00000100
00000010
00000000
,  // measure 69
00000100
00000000
00000100
00000001
00000000
00000100
00000000
00000101
,  // measure 70
00000000
00000000
00000001
00000000
00000010
00000100
00001000
00000000
,  // measure 71
00011000
00000000
00010000
00001000
00000000
00010000
00000000
00100000
,  // measure 72
00000000
00000000
10000000
00000000
01000000
00100000
00010000
00000000
,  // measure 73
00011000
00000000
00001000
00000100
00000000
00000010
00000000
00000011
,  // measure 74
00000000
00000000
00000001
00000000
00000100
00000010
00001000
00000000
,  // measure 75
00011000
00000000
00001000
00010000
00000000
00100000
00000000
01000000
,  // measure 76
00000000
00000000
10000000
00000000
01000000
00100000
00010000
00000000
,  // measure 77
00011000
00000000
00001000
00000010
00000000
00000100
00000000
00000101
,  // measure 78
00000000
00000000
00000001
00000000
00000010
00000100
00001000
00000000
,  // measure 79
00011000
00000000
00001000
00010000
00000000
00100000
00000000
20020000
,  // measure 80
00000000
00000000
30030000
20000000
,  // measure 81
00000000
30000000
00020000
00000000
,  // measure 82
00000000
00030000
00000200
00000000
00000000
00000000
00000300
00000000
,  // measure 83
00000002
00000000
00000000
00000000
00000000
00000003
00000020
00000000
,  // measure 84
00000000
00000030
00200000
00000000
,  // measure 85
00000000
00300000
00000000
00000000
00000000
00000000
00000000
00000000
;

//---------------dance-single - ----------------
#NOTES:
     dance-single:
     :
     Beginner:
     2:
     0.185,0.314,0.042,0.042,0.000:
0000
0000
0000
0000
,
0000
0000
0000
0000
,
0000
0000
0000
0000
,
0000
0000
0000
0000
,
0000
0000
0000
0000
,
1000
0000
0000
0000
,
0100
0000
0000
0000
,
0020
0000
0000
0000
,
0000
0000
0000
0030
,
0001
0000
0001
0000
,
0100
0000
0100
0000
,
1000
1000
1000
1000
,
1000
1000
1000
1000
,
0010
0010
0010
0010
,
0010
0010
0010
0010
,
0010
0000
0000
0000
,
0000
0000
0000
0000
,
0001
0000
0000
0001
,
0000
0000
0000
0000
,
1000
0000
0000
1000
,
0000
0000
0000
0000
,
0010
0000
0000
0010
,
0000
0000
0000
0000
,
0100
0000
0000
0100
,
0000
0000
0000
0000
,
1000
1000
0000
1000
,
0000
0000
0000
0000
,
0001
0001
0000
0001
,
0000
0000
0000
0000
,
0100
0000
0000
0100
,
0100
0100
0100
0100
,
0010
0010
0010
0010
,
0020
0000
0000
0000
,
0000
0000
0000
0030
0001
0000
0000
0000
,
0000
0000
0000
1001
0000
0000
0000
0000
,
1000
0000
0000
0001
,
0000
0000
0000
0000
,
0100
0100
0100
0100
,
0000
0000
0000
0000
,
0001
0000
0000
1000
,
0000
0000
0000
0000
,
1000
0000
0000
0001
,
0000
0000
0000
0000
,
0010
0000
0000
0100
,
0000
0000
0000
0000
,
2002
0000
0000
3003
,
1001
0000
0000
0000
,
0110
0000
0000
0000
,
0100
0100
0100
0000
,
0010
0010
0010
0000
,
1000
1000
1000
0000
,
0001
0001
0001
0000
,
0100
0100
0100
0000
,
0010
0010
0010
0000
,
1000
0001
1000
0000
,
0001
1000
0001
0000
,
0100
0010
0100
0000
,
0010
0100
0010
0000
,
0001
0100
0001
0000
,
0001
0010
0001
0000
,
1000
0010
1000
0000
,
1000
0100
1000
0000
,
1000
1000
1000
0000
,
0001
0001
0001
0000
,
0001
0000
0100
0100
,
0100
0000
0000
0000
,
1000
0000
0010
0010
,
0010
0000
0000
0000
,
0001
0000
0100
0100
,
0100
0000
0000
0000
,
1000
0000
0100
0100
,
0100
0000
0000
0000
,
0001
0000
0010
0010
,
0010
0000
0000
0000
,
0100
0000
0001
0001
,
0001
0000
0000
0000
,
0100
0000
1000
1000
,
1000
0000
0000
0000
,
1001
0000
1000
1000
,
2000
0000
0000
0000
,
0000
0000
0000
0000
,
0000
0000
0000
0000
,
0000
0000
0000
0000
,
0000
0000
0000
0000
,
3000
0000
0000
0000
;

//---------------dance-single - ----------------
#NOTES:
     dance-single:
     :
     Easy:
     5:
     0.420,0.490,0.441,0.133,0.021:
0000
0000
0000
0000
,
0000
0000
0000
0000
,
0000
0000
0000
0000
,
0000
0000
0000
0000
,
0000
0000
0000
1000
,
1000
0000
0100
0000
0010
0000
0000
0001
,
0000
0100
0000
0010
1000
0010
0000
1000
,
0000
0100
0000
0001
0000
0100
0000
1000
,
0000
0010
0000
0001
0000
0010
0000
0000
,
1001
0000
1100
0000
,
1001
0000
0101
0000
,
1001
1001
1100
1100
,
1001
1001
0101
0101
,
0001
0100
0010
1001
,
1000
0100
0010
1001
,
0002
0000
0013
0100
0000
0000
0000
0000
,
2000
3200
0302
0023
,
0130
0000
0000
0011
0000
0000
0001
0000
,
0100
0010
1000
0100
,
0001
0000
0000
0101
0000
0000
0100
0000
,
0010
1000
0100
0010
,
0100
0000
0000
1100
0000
0000
1000
0000
,
0010
0100
0001
0010
,
0100
0000
0000
1001
0000
0000
0010
0000
,
1000
0100
0010
0001
,
0100
0010
0000
0010
0000
0000
0100
0000
,
0001
1000
0000
1000
0000
0000
0000
0000
,
1000
0000
0000
0100
0000
0000
0010
0000
,
0001
0100
0001
1000
,
1010
0000
0000
0101
0000
0001
0000
0010
,
0000
0100
0000
1000
0000
0010
0000
0100
,
0000
0001
0000
0010
0000
0100
0000
2000
,
0000
0000
0000
0000
,
0000
0000
0000
0000
0000
0000
3000
0000
2001
0000
0000
0001
0000
0000
3001
0000
,
0000
0000
0000
0100
0000
0000
0000
0000
,
0010
0000
0000
1000
0000
0000
0100
0000
,
0010
0001
0010
1000
,
0010
0000
0000
0001
0000
0000
0100
0000
,
0010
1000
0010
0100
,
0001
0000
0000
0010
0000
0000
0100
0000
,
1000
0010
0100
0001
,
1001
0000
0000
0110
0000
0000
1001
0000
,
0001
0100
0010
1000
,
1100
0000
0000
1001
0000
0000
0101
0000
,
0001
0100
1000
0010
,
0001
0000
0000
0010
0000
2000
0000
0000
0000
0000
0000
0001
0000
0001
3000
0000
,
0001
0000
0000
0100
0000
0000
0010
0000
,
1000
0000
0000
0100
0000
0000
0010
0000
,
0001
1000
1001
0100
,
0010
0001
1001
0001
,
0100
0010
1001
1000
,
0100
0010
1001
0001
,
0100
0010
1001
1000
,
0100
0010
1001
0001
,
0100
0010
1010
1000
,
0100
0010
0011
0001
,
0100
0010
1010
1000
,
0100
0010
0011
0001
,
0100
0010
1010
1000
,
0100
0010
0011
0001
,
0010
0100
1100
1000
,
0010
0100
0101
0001
,
0010
0100
1001
1000
,
0010
0100
1001
0000
,
0001
0000
0001
0100
0000
0100
0000
0100
,
0000
0010
0000
0010
0000
0010
1000
0000
,
1100
0000
0010
0001
0000
0001
0000
0001
,
0000
1000
0000
1000
0000
1000
0100
0000
,
0011
0000
0001
0100
0000
0010
0000
1000
,
0000
0100
0000
0010
0000
0001
0100
0000
,
1010
0000
0010
1000
0000
0100
0000
0010
,
0000
0001
0000
0100
0000
0010
1000
0000
,
1100
0000
0100
0010
0000
0001
0000
0100
,
0000
0010
0000
1000
0000
0100
0010
0000
,
0110
0000
0010
0100
0000
1000
0000
0010
,
0000
0100
0000
0001
0000
0010
0100
0000
,
1001
0000
0001
0100
0000
0010
0000
1010
,
0000
0100
0000
0101
0000
0001
1000
0000
,
1001
0000
1000
0100
0000
0010
0000
0022
,
0000
0033
0000
0002
,
0000
0000
0203
0000
,
0000
0320
0000
0000
,
2030
0000
0000
3200
,
0000
0000
0320
0000
,
0000
0030
0000
0000
;
