#TITLE:Wanyo Wanyo;
#SUBTITLE:;
#ARTIST:MC Natsack;
#TITLETRANSLIT:;
#SUBTITLETRANSLIT:;
#ARTISTTRANSLIT:;
#GENRE:;
#CREDIT:usaminseijin;
#BANNER:[ROUND B] - Wanyo Wanyo.png;
#BACKGROUND:[ROUND B] - Wanyo Wanyo-bg.png;
#LYRICSPATH:;
#CDTITLE:cdtitle.png;
#MUSIC:[ROUND B] - Wanyo Wanyo.mp3;
#OFFSET:-0.480000;
#SAMPLESTART:-0.412548;
#SAMPLELENGTH:11.919998;
#SELECTABLE:YES;
#BPMS:0.000000=120.000000
;
#STOPS:32.000000=3.500000,
143.750000=0.500000,
158.750000=0.500000
;
#BGCHANGES:;
#KEYSOUNDS:;
#ATTACKS:;

//---------------dance-single - ----------------
#NOTES:
     dance-single:
     :
     Challenge:
     10:
     0.740687,0.751958,1.126735,0.155728,0.838181,566.000000,443.000000,123.000000,17.000000,0.000000,0.000000,0.740687,0.751958,1.126735,0.155728,0.838181,566.000000,443.000000,123.000000,17.000000,0.000000,0.000000:
0000
0000
0000
0000
,
0000
0000
0000
0000
,
0000
0000
0000
0000
,
0000
0000
0000
0000
,
1001
0000
0001
1000
0000
0001
1000
0000
0001
0000
0100
0001
0000
0100
0000
0000
,
0000
0000
0010
0100
0000
0010
0100
0000
0010
0000
1000
0010
0000
1000
0000
0000
,
1001
0000
0001
1000
0000
0001
1000
0000
0010
0000
1000
0010
0000
1000
0000
0000
,
0000
0000
0010
0100
0000
0010
0100
0000
0010
0000
0100
0001
0000
0100
0000
0000
,
2002
3003
0000
0000
0000
0000
1001
0000
1001
0000
1100
0000
0202
0000
0000
0000
,
0303
0000
1000
0010
1000
0010
1000
0100
1000
0100
1000
0000
0010
0100
0010
0100
,
0001
0100
0001
0000
0000
0000
0110
0000
0110
0000
0011
0000
2020
0000
0000
0000
,
3030
0000
1000
0001
1000
0001
1000
0100
1000
0100
0010
0100
0010
0100
0010
0001
,
0010
0001
1000
0000
0000
0000
0100
0010
0100
0010
1000
0001
1000
0001
1000
0010
,
1000
0010
0100
0001
0100
0001
0100
1000
0100
0001
0100
0010
0001
0010
1000
0010
,
0001
1000
0000
0000
1001
0000
0010
0001
0010
0001
0100
0010
0100
0010
1000
0100
,
1000
0100
1000
0001
1000
0001
0100
0001
0100
0000
0001
0100
0010
1000
0010
1000
,
0001
1000
0000
0000
0011
0000
0000
1010
0000
0000
0011
0000
0101
0000
0000
1100
,
0000
0000
0101
0000
1001
0000
0000
0110
0000
0000
1001
0000
0120
0000
1000
0000
,
1000
0000
1030
0000
0110
0000
0000
1100
0000
0000
0101
0000
0110
0000
0000
1010
,
0000
0000
0011
0000
0110
0000
0000
1001
0000
0000
0110
0000
1002
0000
0010
0000
,
0010
0000
0013
0000
0011
0000
0000
1100
0000
0000
0011
0000
0101
0000
0000
1010
,
0000
0000
0101
0000
1001
0000
0000
0110
0000
0000
1001
0000
0120
0000
1000
0000
,
1000
0000
1030
0000
1010
0000
0000
0101
0000
0000
1010
0000
1100
0000
0000
0011
,
0000
0000
1100
0000
0110
0000
0000
1001
0000
0000
0110
0000
1002
0000
0100
0000
,
0100
0000
0103
1000
0001
0100
0001
1000
0001
1000
0010
1000
0001
0100
0010
1000
,
0001
1000
0000
0000
0101
0000
0010
0100
0010
1000
0001
1000
0010
1000
0001
0100
,
0010
1000
0010
0100
0001
0010
0001
1000
0001
0100
0001
1000
0001
1000
0010
1000
,
0001
1000
0100
0001
1000
0000
0001
1000
0000
0001
0010
0100
1000
0001
0010
0100
,
0010
0001
1000
0000
0011
0000
0000
1010
0000
0000
0011
0000
0101
0000
0000
1100
,
0000
0000
0101
0000
1001
0000
0000
0110
0000
0000
1001
0000
0120
0000
0000
0000
,
1000
0000
0030
0000
0110
0000
0000
1100
0000
0000
0101
0000
0110
0000
0000
1010
,
0000
0000
0011
0000
0110
0000
0000
1001
0000
0000
0110
0000
1002
0000
0010
0000
,
0010
0000
0003
0000
1000
0001
1000
0001
0100
0010
0100
0010
1000
0001
0000
0110
,
0000
1001
0000
1100
0000
0000
0101
0000
1001
0000
1000
0100
0000
0000
1001
0000
,
0110
0000
1000
0010
0000
0000
0101
0000
0110
0000
1000
0010
0000
0000
1001
0000
,
1100
0000
0000
0000
0000
0000
0000
0000
0000
0000
0000
0000
0000
0000
0000
0000
0000
0000
0000
0000
0000
0000
0000
0000
0110
0000
0000
0000
0000
0000
0000
0000
0000
0000
0000
0000
0000
0000
0000
0000
0000
0000
0000
0000
0000
0000
0000
0000
0010
0000
0000
0000
0000
0000
0000
0000
0000
0000
0000
0000
0100
0000
0000
0000
0000
0000
0000
0000
0000
0000
0000
0000
0010
0000
0000
0000
0000
0000
0000
0000
0000
0000
0000
0000
0100
0000
0000
0000
0000
0000
0000
0000
0000
0000
0000
0000
0010
0000
0000
0000
0000
0000
0000
0000
0000
0000
0000
0000
0000
0000
0000
0000
0000
0000
0000
0000
0000
0000
0000
0000
0001
0000
0000
0000
0000
0000
0000
0000
0000
0000
0000
0000
0000
0000
0000
0000
0000
0000
0000
0000
0000
0000
0000
0000
1001
0000
0000
0000
0000
0000
0000
0000
0000
0000
0000
0000
0000
0000
0000
0000
0000
0000
0000
0000
0000
0000
0000
0000
0000
0000
0000
0000
0000
0000
0000
0000
0000
0000
0000
0000
2002
0000
3003
0000
0000
0000
0000
0000
0000
0000
0000
0000
,
0100
0010
0100
0010
0100
0001
0100
0001
1000
0010
0000
0110
0000
1001
0000
0101
,
0000
0000
0110
0000
1010
0000
1000
0001
0000
0000
0101
0000
0110
0000
1000
0010
,
0000
1000
0001
0000
0101
0000
0100
0010
0000
0000
0110
0000
1010
0000
1000
0001
,
1000
0000
0000
0000
0000
0000
0000
0000
0000
0000
0000
0000
0001
0000
0000
0000
0000
0000
0000
0000
0000
0000
0000
0000
1000
0000
0000
0000
0000
0000
0000
0000
0000
0000
0000
0000
0001
0000
0000
0000
0000
0000
0000
0000
0000
0000
0000
0000
1000
0000
0000
0000
0000
0000
0000
0000
0000
0000
0000
0000
0000
0000
0000
0000
0000
0000
0000
0000
0000
0000
0000
0000
1010
0000
0000
0000
0000
0000
0000
0000
0000
0000
0000
0000
0000
0000
0000
0000
0000
0000
0000
0000
0000
0000
0000
0000
0110
0000
0000
0000
0000
0000
0000
0000
0000
0000
0000
0000
0000
0000
0000
0000
0000
0000
0000
0000
0000
0000
0000
0000
0000
0000
0000
0000
0000
0000
0000
0000
0000
0000
0000
0000
0220
0000
0330
0000
0000
0000
0000
0000
0000
0000
0000
0000
1000
0000
0000
0000
0000
0000
0000
0000
0000
0000
0000
0000
0001
0000
0000
0000
0000
0000
0000
0000
0000
0000
0000
0000
1000
0000
0000
0000
0000
0000
0000
0000
0000
0000
0000
0000
0001
0000
0000
0000
0000
0000
0000
0000
0000
0000
0000
0000
,
0100
0010
0100
0010
1000
0010
1000
0010
0100
0000
0101
0000
0100
0010
0100
0010
,
1000
0001
1000
0001
1000
0100
1000
0100
1000
0010
0100
0000
0010
0100
0010
0100
,
0010
0100
0010
0100
0001
1000
0001
1000
0001
0000
0000
0000
1000
0100
1000
0100
,
0010
0001
0010
0001
1000
0001
0000
0100
0010
0000
0000
0000
0110
0000
0110
0000
,
0100
0010
0000
1001
0000
1001
0000
1000
0001
1000
0001
0000
1001
0000
1001
0000
,
1000
0001
0000
0110
0000
0110
0000
0100
0010
0100
0010
0000
0101
0000
0101
0000
,
0100
0001
0000
1010
0000
1010
0000
0100
0001
0100
0001
0000
0011
0000
0011
0000
,
0010
0001
0000
1100
0000
1100
0000
1000
0100
1000
0100
0000
2001
0000
0000
0010
,
0000
0000
0010
0000
3001
0000
0000
0000
0000
0000
0000
0000
0000
0000
0000
1001
,
0000
0000
0110
0000
0000
0000
0000
1001
0000
0000
0110
0000
1001
0000
0000
0000
;

//---------------dance-single - ----------------
#NOTES:
     dance-single:
     :
     Hard:
     9:
     0.564022,0.615238,1.346585,0.311455,0.458022,431.000000,284.000000,147.000000,34.000000,0.000000,0.000000,0.564022,0.615238,1.346585,0.311455,0.458022,431.000000,284.000000,147.000000,34.000000,0.000000,0.000000:
// measure 0
0000
0000
0000
0000
,  // measure 1
0000
0000
0000
0000
,  // measure 2
0000
0000
0000
0000
,  // measure 3
0000
0000
0000
0000
,  // measure 4
1001
0000
0000
1001
0000
0000
1001
0000
0110
0000
0000
0000
0000
0000
0000
0000
,  // measure 5
0000
0000
0000
0110
0000
0000
0110
0000
0000
0000
0000
1001
0000
0000
1001
0000
,  // measure 6
1010
0000
0000
1010
0000
0000
1010
0000
1001
0000
0000
0000
0000
0000
0000
0000
,  // measure 7
2000
3200
0320
0031
,  // measure 8
2002
3003
0000
0000
1010
0000
0000
1010
0000
0000
1000
0001
0110
0000
0000
0110
,  // measure 9
0000
0000
0110
0000
1010
0000
0000
1010
0000
0000
1000
0010
0101
0000
0000
0101
,  // measure 10
0000
0000
0101
0000
0110
0000
0000
0110
0000
0000
1000
0010
0101
0000
0000
0101
,  // measure 11
0000
0000
0101
0000
1100
0000
0000
1100
0000
0000
1000
0100
0011
0000
0000
0011
,  // measure 12
0000
0000
0011
0000
0110
0000
0000
1001
0000
0000
0100
0010
1001
0000
0000
0110
,  // measure 13
0000
0000
1001
0000
1100
0000
0000
0101
0000
0000
1000
0010
0101
0000
0000
0011
,  // measure 14
0000
0000
1100
0000
1001
0000
0000
0011
0000
0000
0100
0010
1100
0000
0000
1001
,  // measure 15
0000
0011
2002
0000
0000
0000
0000
0000
,  // measure 16
3003
0000
0000
0000
0011
0000
0000
0011
0000
0000
0011
0000
0101
0000
0000
0101
,  // measure 17
0000
0000
0101
0000
1001
0000
0000
1001
0000
0000
1001
0000
0120
0000
0100
0000
,  // measure 18
0100
0000
0130
0000
0110
0000
0000
0110
0000
0000
0110
0000
1010
0000
0000
1010
,  // measure 19
0000
0000
1010
0000
1001
0000
0000
1001
0000
0000
1001
0000
1002
0000
1000
0000
,  // measure 20
1000
0000
1003
0000
0011
0000
0000
0011
0000
0000
0011
0000
0101
0000
0000
0101
,  // measure 21
0000
0000
0101
0000
1001
0000
0000
1001
0000
0000
1001
0000
0120
0000
0100
0000
,  // measure 22
0100
0000
0130
0000
1010
0000
0000
1010
0000
0000
1010
0000
1100
0000
0000
1100
,  // measure 23
0000
0000
1100
0000
0110
0000
0000
0110
0000
0000
0110
0000
1002
0000
1000
0000
,  // measure 24
1000
0000
1003
0000
0200
0000
0000
0002
0000
0000
0303
0000
2000
0000
0000
0002
,  // measure 25
0000
0000
3003
0000
0020
0000
0000
2000
0000
0000
3030
0000
0200
0000
0000
0000
,  // measure 26
0020
0000
0330
0000
2000
0000
0000
0020
0000
0000
3030
0000
2000
0000
0000
0002
,  // measure 27
0000
0000
3003
0000
0200
0000
0000
0002
0000
0000
0303
0000
0020
0000
0000
0000
,  // measure 28
0200
0000
0330
0000
0011
0000
0000
0011
0000
0000
0011
0000
0101
0000
0000
0101
,  // measure 29
0000
0000
0101
0000
1001
0000
0000
1001
0000
0000
1001
0000
0120
0000
0000
0000
,  // measure 30
0100
0000
0030
0000
1100
0000
0000
1100
0000
0000
1100
0000
1010
0000
0000
1010
,  // measure 31
0000
0000
1010
0000
0110
0000
0000
0110
0000
0000
0110
0000
1002
0000
0010
0000
,  // measure 32
0010
0000
0003
0000
1010
0000
0000
1010
0000
0000
1010
0000
1001
0000
0000
0000
,  // measure 33
0000
0000
0000
0000
0000
0000
0000
0101
0000
0000
0101
0000
0000
0000
0000
1001
,  // measure 34
0000
0000
1001
0000
0110
0000
0000
0110
0000
0000
0110
0000
1001
0000
0000
0000
,  // measure 35
0000
0000
0000
0000
0000
0000
0000
0000
0000
0000
0000
0000
0000
0000
0000
0000
0000
0000
0000
0000
0000
0000
0000
0000
0000
0000
0000
0000
0000
0000
0000
0000
0000
0000
0000
0000
0000
0000
0000
0000
0000
0000
0000
0000
0000
0000
0000
0000
0000
0000
0000
0000
0000
0000
0000
0000
0000
0000
0000
0000
0000
0000
0000
0000
0000
0000
0000
0000
0000
0000
0000
0000
0000
0000
0000
0000
0000
0000
0000
0000
0000
0000
0000
0000
0110
0000
0000
0000
0000
0000
0000
0000
0000
0000
0000
0000
0000
0000
0000
0000
0000
0000
0000
0000
0000
0000
0000
0000
0000
0000
0000
0000
0000
0000
0000
0000
0000
0000
0000
0000
0110
0000
0000
0000
0000
0000
0000
0000
0000
0000
0000
0000
0000
0000
0000
0000
0000
0000
0000
0000
0000
0000
0000
0000
1001
0000
0000
0000
0000
0000
0000
0000
0000
0000
0000
0000
0000
0000
0000
0000
0000
0000
0000
0000
0000
0000
0000
0000
0000
0000
0000
0000
0000
0000
0000
0000
0000
0000
0000
0000
2002
0000
3003
0000
0000
0000
0000
0000
0000
0000
0000
0000
,  // measure 36
0110
0000
0000
0110
0000
0000
0110
0000
1001
0000
0000
0000
0000
0000
0000
0000
,  // measure 37
0000
0000
0000
0101
0000
0000
0101
0000
0000
0000
0000
0110
0000
0000
0110
0000
,  // measure 38
0011
0000
0000
0011
0000
0000
0011
0000
1010
0000
0000
0000
0000
0000
0000
0000
,  // measure 39
0000
0000
0000
0000
0000
0000
0000
0000
0000
0000
0000
0000
0000
0000
0000
0000
0000
0000
0000
0000
0000
0000
0000
0000
0000
0000
0000
0000
0000
0000
0000
0000
0000
0000
0000
0000
0101
0000
0000
0000
0000
0000
0000
0000
0000
0000
0000
0000
0000
0000
0000
0000
0000
0000
0000
0000
0000
0000
0000
0000
0000
0000
0000
0000
0000
0000
0000
0000
0000
0000
0000
0000
0101
0000
0000
0000
0000
0000
0000
0000
0000
0000
0000
0000
0000
0000
0000
0000
0000
0000
0000
0000
0000
0000
0000
0000
1010
0000
0000
0000
0000
0000
0000
0000
0000
0000
0000
0000
0000
0000
0000
0000
0000
0000
0000
0000
0000
0000
0000
0000
0000
0000
0000
0000
0000
0000
0000
0000
0000
0000
0000
0000
2020
0000
3030
0000
0000
0000
0000
0000
0000
0000
0000
0000
1000
0000
0000
0000
0000
0000
0000
0000
0000
0000
0000
0000
0001
0000
0000
0000
0000
0000
0000
0000
0000
0000
0000
0000
1000
0000
0000
0000
0000
0000
0000
0000
0000
0000
0000
0000
0001
0000
0000
0000
0000
0000
0000
0000
0000
0000
0000
0000
,  // measure 40
0100
0000
0010
0000
1000
0010
1000
0010
0100
0000
0001
0000
0100
0010
0100
0010
,  // measure 41
1000
0000
0001
0000
1000
0100
1000
0100
1000
0000
0010
0000
0100
0010
0100
0010
,  // measure 42
0100
0000
0010
0000
1000
0001
1000
0001
1000
0000
0000
0000
1000
0100
1000
0100
,  // measure 43
0010
0000
0001
0000
1000
0001
0000
0100
0010
0000
0000
0000
0100
0000
0010
0000
,  // measure 44
0100
0010
0000
1000
0000
0001
0000
1000
0001
1000
0001
0000
1000
0000
0001
0000
,  // measure 45
1000
0001
0000
0100
0000
0010
0000
0100
0010
0100
0010
0000
0100
0000
0001
0000
,  // measure 46
0100
0001
0000
1000
0000
0010
0000
0100
0001
0100
0001
0000
0010
0000
0001
0000
,  // measure 47
0010
0001
0000
1000
0000
0100
0000
1000
0100
1000
0100
0000
2001
0000
0000
0010
,  // measure 48
0000
0000
0010
0000
3001
0000
0000
0000
0000
0000
0000
0000
0000
0000
0000
1001
,  // measure 49
0000
0000
1001
0000
0000
0000
0000
0110
0000
0000
0110
0000
1001
0000
0000
0000
;

//---------------dance-single - ----------------
#NOTES:
     dance-single:
     :
     Medium:
     7:
     0.355949,0.410159,0.219851,0.174048,0.366418,272.000000,248.000000,24.000000,19.000000,0.000000,0.000000,0.355949,0.410159,0.219851,0.174048,0.366418,272.000000,248.000000,24.000000,19.000000,0.000000,0.000000:
0000
0000
0000
0000
,
0000
0000
0000
0000
,
0000
0000
0000
0000
,
0000
0000
0000
0000
,
1000
0000
0000
0001
0000
0000
1000
0000
0110
0000
0000
0000
0000
0000
0000
0000
,
0000
0000
0000
0100
0000
0000
0010
0000
0000
0000
0000
1000
0000
0000
0001
0000
,
1000
0000
0000
0010
0000
0000
1000
0000
1001
0000
0000
0000
0000
0000
0000
0000
,
1000
0100
0010
0001
,
2002
3003
0000
0000
1000
0000
0000
0010
0000
0000
1000
0001
0100
0000
0000
0010
,
0000
0000
0110
0000
1000
0000
0000
0010
0000
0000
1000
0010
0100
0000
0000
0001
,
0000
0000
0101
0000
0100
0000
0000
0010
0000
0000
1000
0010
0100
0000
0000
0001
,
0000
0000
0101
0000
1000
0000
0000
0100
0000
0000
1000
0100
0010
0000
0000
0001
,
0000
0000
0011
0000
0100
0000
0000
0001
0000
0000
0100
0010
1000
0000
0000
0010
,
0000
0000
1001
0000
1000
0000
0000
0001
0000
0000
1000
0010
0100
0000
0000
0001
,
0000
0000
1100
0000
1000
0000
0000
0001
0000
0000
0100
0010
1000
0000
0000
0001
,
0000
0001
2002
0000
0000
0000
0000
0000
,
3003
0000
0000
0000
0010
0000
0000
0001
0000
0000
0010
0000
0001
0000
0000
0100
,
0000
0000
0001
0000
1000
0000
0000
0001
0000
0000
1000
0000
0120
0000
0000
0000
,
0100
0000
0030
0000
0100
0000
0000
0010
0000
0000
0100
0000
0010
0000
0000
1000
,
0000
0000
0010
0000
1000
0000
0000
0001
0000
0000
1000
0000
1002
0000
0000
0000
,
1000
0000
0003
0000
0010
0000
0000
0001
0000
0000
0010
0000
0001
0000
0000
0100
,
0000
0000
0001
0000
1000
0000
0000
0001
0000
0000
1000
0000
0120
0000
0000
0000
,
0100
0000
0030
0000
1000
0000
0000
0010
0000
0000
1000
0000
0100
0000
0000
1000
,
0000
0000
0100
0000
0010
0000
0000
0100
0000
0000
0010
0000
1002
0000
0000
0000
,
1000
0000
0003
0000
0100
0000
0000
0002
0000
0000
0003
0000
1000
0000
0000
0002
,
0000
0000
0003
0000
0010
0000
0000
2000
0000
0000
3000
0000
0100
0000
0000
0000
,
0010
0000
0000
0000
1000
0000
0000
0020
0000
0000
0030
0000
1000
0000
0000
0002
,
0000
0000
0003
0000
0200
0000
0000
0002
0300
0000
0003
0000
0010
0000
0000
0000
,
0100
0000
0000
0000
0010
0000
0000
0001
0000
0000
0010
0000
0001
0000
0000
0100
,
0000
0000
0001
0000
1000
0000
0000
0001
0000
0000
1000
0000
0120
0000
0000
0000
,
0100
0000
0030
0000
1000
0000
0000
0100
0000
0000
1000
0000
0010
0000
0000
1000
,
0000
0000
0010
0000
0100
0000
0000
0010
0000
0000
0100
0000
1002
0000
0000
0000
,
0010
0000
0003
0000
1000
0000
0000
0010
0000
0000
1000
0000
1001
0000
0000
0000
,
0000
0000
0000
0000
0000
0000
0000
0100
0000
0000
0001
0000
0000
0000
0000
1000
,
0000
0000
0001
0000
0100
0000
0000
0010
0000
0000
0100
0000
1001
0000
0000
0000
,
0000
0000
0000
0000
0000
0000
0000
0000
0000
0000
0000
0000
0000
0000
0000
0000
0000
0000
0000
0000
0000
0000
0000
0000
0000
0000
0000
0000
0000
0000
0000
0000
0000
0000
0000
0000
0000
0000
0000
0000
0000
0000
0000
0000
0000
0000
0000
0000
0000
0000
0000
0000
0000
0000
0000
0000
0000
0000
0000
0000
0000
0000
0000
0000
0000
0000
0000
0000
0000
0000
0000
0000
0000
0000
0000
0000
0000
0000
0000
0000
0000
0000
0000
0000
0100
0000
0000
0000
0000
0000
0000
0000
0000
0000
0000
0000
0000
0000
0000
0000
0000
0000
0000
0000
0000
0000
0000
0000
0000
0000
0000
0000
0000
0000
0000
0000
0000
0000
0000
0000
0010
0000
0000
0000
0000
0000
0000
0000
0000
0000
0000
0000
0000
0000
0000
0000
0000
0000
0000
0000
0000
0000
0000
0000
1000
0000
0000
0000
0000
0000
0000
0000
0000
0000
0000
0000
0000
0000
0000
0000
0000
0000
0000
0000
0000
0000
0000
0000
0000
0000
0000
0000
0000
0000
0000
0000
0000
0000
0000
0000
0002
0000
0003
0000
0000
0000
0000
0000
0000
0000
0000
0000
,
0100
0000
0000
0010
0000
0000
0100
0000
1001
0000
0000
0000
0000
0000
0000
0000
,
0000
0000
0000
0100
0000
0000
0001
0000
0000
0000
0000
0100
0000
0000
0010
0000
,
0001
0000
0000
0010
0000
0000
0001
0000
1010
0000
0000
0000
0000
0000
0000
0000
,
0000
0000
0000
0000
0000
0000
0000
0000
0000
0000
0000
0000
0000
0000
0000
0000
0000
0000
0000
0000
0000
0000
0000
0000
0000
0000
0000
0000
0000
0000
0000
0000
0000
0000
0000
0000
0100
0000
0000
0000
0000
0000
0000
0000
0000
0000
0000
0000
0000
0000
0000
0000
0000
0000
0000
0000
0000
0000
0000
0000
0000
0000
0000
0000
0000
0000
0000
0000
0000
0000
0000
0000
0001
0000
0000
0000
0000
0000
0000
0000
0000
0000
0000
0000
0000
0000
0000
0000
0000
0000
0000
0000
0000
0000
0000
0000
1000
0000
0000
0000
0000
0000
0000
0000
0000
0000
0000
0000
0000
0000
0000
0000
0000
0000
0000
0000
0000
0000
0000
0000
0000
0000
0000
0000
0000
0000
0000
0000
0000
0000
0000
0000
0020
0000
0030
0000
0000
0000
0000
0000
0000
0000
0000
0000
1000
0000
0000
0000
0000
0000
0000
0000
0000
0000
0000
0000
0000
0000
0000
0000
0000
0000
0000
0000
0000
0000
0000
0000
0001
0000
0000
0000
0000
0000
0000
0000
0000
0000
0000
0000
0000
0000
0000
0000
0000
0000
0000
0000
0000
0000
0000
0000
,
0100
0010
1000
0010
0100
0001
0100
0010
,
1000
0001
1000
0100
1000
0010
0100
0010
,
0100
0010
1000
0001
1000
0000
1000
0100
,
0010
0001
1001
0000
0110
0000
0100
0010
,
0100
0000
0000
1000
0000
0001
0000
1000
0000
0001
0000
0000
1000
0000
0001
0000
,
1000
0000
0000
0100
0000
0010
0000
0100
0000
0010
0000
0000
0100
0000
0001
0000
,
0100
0000
0000
1000
0000
0010
0000
0100
0000
0001
0000
0000
0010
0000
0001
0000
,
0010
0000
0000
1000
0000
0100
0000
1000
0000
0100
1000
0000
0101
0000
0000
0010
,
0000
0000
0010
0000
0001
0000
0000
0000
0000
0000
0000
0000
0000
0000
0000
1000
,
0000
0000
0001
0000
0000
0000
0000
0100
0000
0000
0010
0000
1001
0000
0000
0000
;

//---------------dance-single - ----------------
#NOTES:
     dance-single:
     :
     Easy:
     4:
     0.264344,0.296226,0.009160,0.100765,0.238172,202.000000,201.000000,1.000000,11.000000,0.000000,0.000000,0.264344,0.296226,0.009160,0.100765,0.238172,202.000000,201.000000,1.000000,11.000000,0.000000,0.000000:
0000
0000
0000
0000
,
0000
0000
0000
0000
,
0000
0000
0000
0000
,
0000
0000
0000
0000
,
1000
0000
0000
0000
0000
0000
0000
0000
0100
0000
0000
0100
0000
0000
0000
0000
,
0000
0000
0000
0000
0000
0000
0000
0000
0001
0000
0000
0001
0000
0000
0000
0000
,
1000
0000
0000
0000
0000
0000
0000
0000
0010
0000
0000
0010
0000
0000
0000
0000
,
1000
0100
0010
0001
,
2002
3003
0000
0000
1000
0000
0000
1000
0000
0000
1000
0000
0100
0000
0000
0000
,
0000
0000
0010
0000
0001
0000
0000
0001
0000
0000
0001
0000
0100
0000
0000
0100
,
0000
0000
0100
0000
0010
0000
0000
0010
0000
0000
0010
0000
0100
0000
0000
0000
,
0000
0000
0010
0000
1000
0000
0000
1000
0000
0000
1000
0000
0001
0000
0000
0001
,
0000
0000
0001
0000
0100
0000
0000
0100
0000
0000
0100
0000
0010
0000
0000
0000
,
0000
0000
0001
0000
1000
0000
0000
1000
0000
0000
1000
0000
0100
0000
0000
0100
,
0000
0000
0100
0000
0001
0000
0000
0001
0000
0000
0001
0000
1000
0000
0000
1000
,
0000
1000
0002
0000
0000
0000
0000
0000
,
0003
0000
0000
0000
0010
0000
0000
0010
0000
0000
0010
0000
0001
0000
0000
0001
,
0000
0000
0001
0000
1000
0000
0000
1000
0000
0000
1000
0000
0020
0000
0000
0000
,
0000
0000
0030
0000
0100
0000
0000
0100
0000
0000
0100
0000
0010
0000
0000
0010
,
0000
0000
0010
0000
1000
0000
0000
1000
0000
0000
1000
0000
0002
0000
0000
0000
,
0000
0000
0003
0000
0010
0000
0000
0010
0000
0000
0010
0000
0001
0000
0000
0001
,
0000
0000
0001
0000
1000
0000
0000
1000
0000
0000
1000
0000
0020
0000
0000
0000
,
0000
0000
0030
0000
1000
0000
0000
1000
0000
0000
1000
0000
0100
0000
0000
0100
,
0000
0000
0100
0000
0010
0000
0000
0010
0000
0000
0010
0000
0002
0000
0000
0000
,
0000
0000
0003
0000
0100
0000
0000
0001
0000
0000
0000
0000
1000
0000
0000
0001
,
0000
0000
0000
0000
0010
0000
0000
1000
0000
0000
0000
0000
0100
0000
0000
0000
,
0010
0000
0000
0000
1000
0000
0000
0010
0000
0000
0000
0000
1000
0000
0000
0001
,
0000
0000
0000
0000
0100
0000
0000
0001
0000
0000
0000
0000
0010
0000
0000
0000
,
0100
0000
0000
0000
0010
0000
0000
0010
0000
0000
0010
0000
0001
0000
0000
0001
,
0000
0000
0001
0000
1000
0000
0000
1000
0000
0000
1000
0000
0020
0000
0000
0000
,
0000
0000
0030
0000
1000
0000
0000
1000
0000
0000
1000
0000
0010
0000
0000
0010
,
0000
0000
0010
0000
0100
0000
0000
0100
0000
0000
0100
0000
0002
0000
0000
0000
,
0000
0000
0003
0000
1000
0000
0000
1000
0000
0000
1000
0000
0001
0000
0000
0000
,
0000
0000
0000
0000
0000
0000
0000
0100
0000
0000
0100
0000
0000
0000
0000
0001
,
0000
0000
0001
0000
0100
0000
0000
0100
0000
0000
0100
0000
0001
0000
0000
0000
,
0000
0000
0000
0000
0000
0000
0000
0000
0000
0000
0000
0000
0000
0000
0000
0000
0000
0000
0000
0000
0000
0000
0000
0000
0000
0000
0000
0000
0000
0000
0000
0000
0000
0000
0000
0000
0000
0000
0000
0000
0000
0000
0000
0000
0000
0000
0000
0000
0000
0000
0000
0000
0000
0000
0000
0000
0000
0000
0000
0000
0000
0000
0000
0000
0000
0000
0000
0000
0000
0000
0000
0000
0000
0000
0000
0000
0000
0000
0000
0000
0000
0000
0000
0000
0100
0000
0000
0000
0000
0000
0000
0000
0000
0000
0000
0000
0000
0000
0000
0000
0000
0000
0000
0000
0000
0000
0000
0000
0000
0000
0000
0000
0000
0000
0000
0000
0000
0000
0000
0000
0100
0000
0000
0000
0000
0000
0000
0000
0000
0000
0000
0000
0000
0000
0000
0000
0000
0000
0000
0000
0000
0000
0000
0000
0001
0000
0000
0000
0000
0000
0000
0000
0000
0000
0000
0000
0000
0000
0000
0000
0000
0000
0000
0000
0000
0000
0000
0000
0000
0000
0000
0000
0000
0000
0000
0000
0000
0000
0000
0000
0002
0000
0003
0000
0000
0000
0000
0000
0000
0000
0000
0000
,
0100
0000
0000
0100
0000
0000
0100
0000
1000
0000
0000
0000
0000
0000
0000
0000
,
0000
0000
0000
0001
0000
0000
0001
0000
0000
0000
0000
0100
0000
0000
0100
0000
,
0001
0000
0000
0001
0000
0000
0001
0000
1000
0000
0000
0000
0000
0000
0000
0000
,
0000
0000
0000
0000
0000
0000
0000
0000
0000
0000
0000
0000
0000
0000
0000
0000
0000
0000
0000
0000
0000
0000
0000
0000
0000
0000
0000
0000
0000
0000
0000
0000
0000
0000
0000
0000
0100
0000
0000
0000
0000
0000
0000
0000
0000
0000
0000
0000
0000
0000
0000
0000
0000
0000
0000
0000
0000
0000
0000
0000
0000
0000
0000
0000
0000
0000
0000
0000
0000
0000
0000
0000
0100
0000
0000
0000
0000
0000
0000
0000
0000
0000
0000
0000
0000
0000
0000
0000
0000
0000
0000
0000
0000
0000
0000
0000
0010
0000
0000
0000
0000
0000
0000
0000
0000
0000
0000
0000
0000
0000
0000
0000
0000
0000
0000
0000
0000
0000
0000
0000
0000
0000
0000
0000
0000
0000
0000
0000
0000
0000
0000
0000
0020
0000
0030
0000
0000
0000
0000
0000
0000
0000
0000
0000
1000
0000
0000
0000
0000
0000
0000
0000
0000
0000
0000
0000
0000
0000
0000
0000
0000
0000
0000
0000
0000
0000
0000
0000
0000
0000
0000
0000
0000
0000
0000
0000
0000
0000
0000
0000
0000
0000
0000
0000
0000
0000
0000
0000
0000
0000
0000
0000
,
0100
0010
0100
0100
,
0001
1000
0010
0100
,
0001
1000
0001
1000
,
0010
0001
0100
0100
,
0100
1000
0001
1000
,
1000
0010
1000
0100
,
0100
1000
0010
0001
,
0001
1000
0100
0001
,
0010
0000
0000
0000
0001
0000
0000
0000
0000
0000
0000
0000
0000
0000
0000
1000
,
0000
0000
1000
0000
0000
0000
0000
0010
0000
0000
0010
0000
0001
0000
0000
0000
;

//---------------dance-single - ----------------
#NOTES:
     dance-single:
     :
     Beginner:
     2:
     0.168814,0.205079,0.009160,0.009160,0.000000,129.000000,128.000000,1.000000,1.000000,0.000000,0.000000,0.168814,0.205079,0.009160,0.009160,0.000000,129.000000,128.000000,1.000000,1.000000,0.000000,0.000000:
0000
0000
0000
0000
,
0000
0000
0000
0000
,
0000
0000
0000
0000
,
0000
0000
0000
0000
,
1000
0000
0100
0000
,
0000
0000
0001
0000
,
1000
0000
0010
0000
,
1000
1000
0010
0010
,
1001
1000
1000
0100
,
0000
0001
0001
0100
,
0100
0010
0010
0100
,
0000
1000
1000
0001
,
0001
0100
0100
0010
,
0000
1000
1000
0100
,
0000
0001
0001
1000
,
0000
0002
0000
0000
,
0003
0010
0010
0001
,
0000
1000
1000
0010
,
0000
0100
0100
0010
,
0000
1000
1000
0001
,
0000
0010
0010
0001
,
0000
1000
1000
0010
,
0000
1000
1000
0100
,
0000
0010
0010
0001
,
0000
0100
0000
1000
,
0000
0010
0000
0100
,
0000
1000
0000
1000
,
0000
0100
0000
0010
,
0000
0010
0010
0001
,
0000
1000
1000
0010
,
0000
1000
1000
0010
,
0000
0100
0100
0001
,
0000
1000
1000
0001
,
0000
0000
0100
0000
,
0001
0100
0100
0001
,
0000
0000
0100
0001
,
0100
0100
1000
0000
,
0000
0001
0000
0100
,
0001
0001
1000
0000
,
0000
0100
0010
1000
,
1000
0010
0000
0100
,
0100
0010
0000
0100
,
0100
0001
0000
1000
,
1000
0010
0000
0100
,
0100
0100
0000
0001
,
0001
0001
0000
0100
,
0100
0100
0000
0001
,
0001
0001
0000
0010
,
0010
0010
0000
0000
,
1000
0000
0010
0001
;
