#TITLE:Rave*It!! Rave*It!!;
#SUBTITLE:;
#ARTIST:機龍;
#TITLETRANSLIT:;
#SUBTITLETRANSLIT:;
#ARTISTTRANSLIT:Kiryu;
#GENRE:EDM SPEED;
#CREDIT:;
#BANNER:[ROUND B] - Rave-It!! Rave-It!!.png;
#BACKGROUND:[ROUND B] - Rave-It!! Rave-It!!-bg.png;
#LYRICSPATH:;
#CDTITLE:cdtitle.png;
#MUSIC:[ROUND B] - Rave-It!! Rave-It!!.ogg;
#OFFSET:-1.812000;
#SAMPLESTART:15.375493;
#SAMPLELENGTH:13.703404;
#SELECTABLE:YES;
#BPMS:0.000000=141.000000
,32.000000=282.000000
,96.000000=141.000000
,128.000000=282.000000
,200.000000=141.000000
,272.000000=282.000000
;
#STOPS:
;
#BGCHANGES:;
#KEYSOUNDS:;
#ATTACKS:;

//---------------dance-single - ----------------
#NOTES:
     dance-single:
     :
     Hard:
     9:
     0.612368,1.032388,0.225609,0.153414,0.112805,475.000000,450.000000,25.000000,17.000000,0.000000,0.000000,0.612368,1.032388,0.225609,0.153414,0.112805,475.000000,450.000000,25.000000,17.000000,0.000000,0.000000:
// measure 0
0000
0000
0000
0000
,  // measure 1
0000
0000
0000
0000
,  // measure 2
0000
0000
0000
0000
,  // measure 3
0000
0000
0000
0000
,  // measure 4
1000
0010
1000
0010
0100
0001
0100
0001
,  // measure 5
1000
0100
1000
0100
0010
0001
0010
0001
,  // measure 6
1000
0010
1000
0010
0100
0001
0100
0001
0010
0100
0010
0100
1000
0001
1000
0001
,  // measure 7
1000
0100
0010
0100
1000
0001
0101
0000
,  // measure 8
1000
1000
0010
0010
,  // measure 9
1000
0100
0010
0001
,  // measure 10
0100
0100
0010
0010
,  // measure 11
1000
0001
0010
0100
,  // measure 12
1000
1000
0001
0001
,  // measure 13
0100
0010
0100
0001
,  // measure 14
1000
0000
0001
0000
1000
0001
1000
0001
,  // measure 15
1000
0000
0000
1100
0000
0000
0101
0000
,  // measure 16
0001
0000
0010
0000
0001
1000
0001
1000
,  // measure 17
0010
0000
0000
0110
0000
0000
1001
0000
,  // measure 18
1000
0100
1000
0100
0010
0000
0001
0000
,  // measure 19
1001
0000
0000
1010
0000
0000
0011
0000
,  // measure 20
0001
0000
0100
0000
0001
1000
0001
1000
,  // measure 21
0100
0000
0010
0000
0001
1000
0001
1000
,  // measure 22
0010
0010
0100
0100
,  // measure 23
0001
0000
0000
0010
0000
0000
0100
0000
,  // measure 24
1000
1000
0010
0001
0010
1000
0100
0010
,  // measure 25
0001
0001
0100
0010
1000
0100
0020
0000
,  // measure 26
0031
0001
0010
1000
0010
0001
0100
0010
,  // measure 27
1000
1000
0100
0010
0001
0100
0020
0000
,  // measure 28
1030
0100
1000
0010
0100
0001
0010
0100
,  // measure 29
1000
0010
1000
0100
0010
0001
0100
0010
,  // measure 30
1000
0001
1000
0001
0010
0100
0010
0100
1000
0010
1000
0010
0100
0001
0100
0001
,  // measure 31
0010
0010
0100
1000
0010
0010
0100
0000
,  // measure 32
0001
0001
0010
1000
,  // measure 33
0010
0001
0100
0010
,  // measure 34
1000
1000
0100
0001
,  // measure 35
0100
1000
0010
0100
,  // measure 36
0001
0001
0010
0100
,  // measure 37
0010
0001
0100
1000
,  // measure 38
0100
0100
0010
1000
,  // measure 39
0001
0000
0000
0101
0000
0000
1100
0000
,  // measure 40
1000
1000
0010
0100
,  // measure 41
0010
0000
0001
0000
0010
0100
0010
0000
,  // measure 42
1000
1000
0100
0010
,  // measure 43
0100
0000
0001
0000
0100
0010
0100
0000
,  // measure 44
1000
1000
0010
0010
,  // measure 45
0100
0100
0001
0001
,  // measure 46
1000
1000
0100
0010
,  // measure 47
0001
0001
0100
0000
,  // measure 48
0001
1000
0100
0000
,  // measure 49
1000
0001
1001
0000
,  // measure 50
2000
0000
0000
3020
0000
0000
0000
0230
,  // measure 51
0000
0302
0000
0023
0000
0000
0032
0000
,  // measure 52
0203
0000
0000
0302
0000
0000
0000
2003
,  // measure 53
0000
3200
0000
0320
0000
0031
0001
0000
,  // measure 54
1000
1000
0010
0100
0010
0001
0010
0100
,  // measure 55
0001
0001
0010
0100
0010
1000
0010
0100
,  // measure 56
1000
1000
0100
0010
0100
0001
0100
0010
,  // measure 57
0001
0001
0100
0010
0100
1000
0100
0010
,  // measure 58
1000
0100
1000
0000
0001
0100
0101
0001
,  // measure 59
1000
0010
1000
0000
0001
0011
0010
0000
,  // measure 60
0001
0000
0100
0000
0001
0000
0000
0000
1000
0000
0000
1100
0000
0000
1001
0000
,  // measure 61
0001
0010
0001
0000
1000
0010
1010
0000
,  // measure 62
1000
0100
0010
0100
1000
0010
0001
0010
,  // measure 63
1000
0100
0001
0100
1000
0010
0100
0010
,  // measure 64
1000
0100
1000
0100
0010
0001
0010
0001
0100
0010
0100
0010
1000
0001
1000
0001
,  // measure 65
1000
1000
0010
0010
1000
0100
0010
0001
,  // measure 66
1000
1000
0100
0100
1000
0010
0100
0001
,  // measure 67
0010
0100
0010
0100
1000
0001
1001
0000
,  // measure 68
1000
0000
0010
0000
1000
0000
0001
1000
,  // measure 69
0001
0010
0100
1000
,  // measure 70
0001
0000
0100
0000
0001
0000
1000
0001
,  // measure 71
1000
0100
0010
0001
,  // measure 72
1000
0000
0100
0000
1000
0000
0001
1000
,  // measure 73
0001
0100
0010
1000
,  // measure 74
0001
0000
0010
0000
0001
1000
0001
1000
,  // measure 75
0100
0000
0000
1010
0000
0000
1001
0000
,  // measure 76
0001
0000
0100
0000
0001
1000
0001
1000
,  // measure 77
0010
0000
0000
1100
0000
0000
1001
0000
,  // measure 78
1000
0010
1000
0010
0100
0000
0001
0000
,  // measure 79
1001
0000
0000
0110
0000
0000
1001
0000
,  // measure 80
0001
0000
0100
0000
0001
1000
0001
1000
,  // measure 81
0100
0000
0010
0000
0001
0100
0001
0100
,  // measure 82
0010
1000
0000
0100
,  // measure 83
0010
0000
0000
0100
0000
0000
1000
0000
,  // measure 84
0002
0100
0000
0003
,  // measure 85
2000
0100
0000
3000
,  // measure 86
2002
0000
0000
0000
,  // measure 87
0000
0000
0000
0000
,  // measure 88
3003
0000
0000
0000
;

//---------------dance-single - ----------------
#NOTES:
     dance-single:
     :
     Medium:
     7:
     0.381602,0.595609,0.018049,0.315853,0.009024,296.000000,294.000000,2.000000,35.000000,0.000000,0.000000,0.381602,0.595609,0.018049,0.315853,0.009024,296.000000,294.000000,2.000000,35.000000,0.000000,0.000000:
0000
0000
0000
0000
,
0000
0000
0000
0000
,
0000
0000
0000
0000
,
0000
0000
0000
0000
,
1000
0000
0000
0001
0000
0000
2000
0000
0000
0000
0000
0000
3001
0000
0010
0000
,
0100
0000
0010
0000
0001
1000
0001
1000
,
0001
0000
0000
1000
0000
0000
0002
0000
0000
0000
0000
0000
1003
0000
0010
0000
,
0100
0000
0010
0000
1000
0001
1000
0000
,
0001
0000
0000
0010
0000
0000
0002
0000
,
0000
0000
1003
0100
,
0010
0000
0100
0000
,
1000
0010
1000
0001
,
0010
0000
0000
0100
0000
0000
0020
0000
,
0000
0000
0130
1000
,
0001
0000
1000
0010
,
0100
0000
0000
0100
0000
0000
0100
0000
,
0001
1000
0001
1000
,
0001
0000
0000
0001
0000
0000
0001
0000
,
1000
0001
1000
0001
,
1000
0000
0000
1000
0000
0000
1000
0000
,
0010
0000
0100
0010
,
0100
0000
0001
1000
,
0001
0000
1000
0010
,
1000
0000
0000
1000
0000
0000
1000
0000
,
0001
0010
0100
1000
,
0010
0100
0010
1000
,
0001
0010
0100
0010
,
0001
0100
0010
1000
,
0001
0010
0001
0000
1000
0010
1000
0000
,
0001
0100
0001
0000
1000
0100
1000
0000
,
0001
0001
1000
0000
1000
1000
0001
0000
,
0001
0010
0100
0000
1000
0000
0010
0000
,
1000
0100
1000
0100
,
0010
0001
0010
0001
,
1000
0010
1000
0000
,
0001
0010
0001
0000
,
1000
0010
1000
0010
,
0100
0001
0100
0001
,
1000
0100
1000
0000
,
0001
0000
0000
0100
0000
0000
0001
0000
,
1000
0001
1000
0000
,
0001
1000
0001
0000
,
0100
0010
0100
0000
,
0010
0100
0010
0000
,
1000
0100
1000
0000
,
0001
0100
0001
0000
,
1000
0100
0010
0001
,
0010
0100
1000
0000
,
0001
1000
0000
0000
,
1000
0001
0000
0000
,
2000
0000
0000
3020
0000
0000
0000
0230
,
0000
0302
0000
0023
0000
0000
0230
0000
,
2300
0000
0000
3020
0000
0000
0000
0230
,
0000
0320
0000
2030
0000
0000
3200
0000
,
0320
0000
0000
0032
0000
0000
0000
0203
,
0000
0320
0000
0230
0000
0000
0302
0000
,
2003
0000
0000
3200
0000
0000
0000
2300
,
0000
3020
0000
0230
0000
0000
0302
0000
,
1003
0000
0010
0100
0010
0000
1000
0100
,
1000
0000
0001
0100
0001
0000
0010
0100
,
0010
0000
0001
1000
0001
0000
1000
0100
,
1000
0000
0010
0100
0010
0000
1000
0001
,
1000
0100
1000
0000
0001
0100
0001
0000
,
1000
0010
1000
0000
0001
0010
0001
0000
,
1000
0100
1000
0100
0010
0001
0010
0001
,
2000
0000
3002
0000
,
0203
0000
0320
0000
,
2030
0000
3100
1001
,
1000
0010
1000
0000
,
0001
0010
0001
0000
,
1000
0100
1000
0000
,
0001
0100
0001
0000
,
1000
0100
0010
0000
,
0001
0100
0010
0000
,
1000
0100
1000
0001
,
1000
0000
0000
1000
0000
0000
1000
0000
,
0001
0010
0001
0100
,
0001
0000
0000
0001
0000
0000
0001
0000
,
1000
0010
1000
0100
,
1000
0000
0000
1000
0000
0000
1000
0000
,
0001
0000
1000
0010
,
1000
0000
0001
0010
,
0001
0000
0000
0000
,
0100
0000
0000
0100
0000
0000
0100
0000
,
0001
1000
0000
0000
,
1000
0001
0000
0000
,
2002
0000
0000
0000
,
0000
0000
0000
0000
,
3003
0000
0000
0000
;

//---------------dance-single - ----------------
#NOTES:
     dance-single:
     :
     Easy:
     4:
     0.252683,0.357365,0.018049,0.072195,0.000000,196.000000,194.000000,2.000000,8.000000,0.000000,0.000000,0.252683,0.357365,0.018049,0.072195,0.000000,196.000000,194.000000,2.000000,8.000000,0.000000,0.000000:
0000
0000
0000
0000
,
0000
0000
0000
0000
,
0000
0000
0000
0000
,
0000
0000
0000
0000
,
1000
1000
0001
0001
,
0010
0010
0100
0100
,
1000
1000
0010
0010
,
0100
0100
0001
1000
,
0001
0000
0010
0000
,
0001
0000
0100
0000
,
0001
0000
1000
0000
,
0100
0000
1000
0000
,
0010
0000
1000
0000
,
0001
0000
0010
0000
,
0001
0000
1000
0000
,
0100
0000
0000
0000
,
1000
0000
0010
0000
,
1000
0000
0000
0000
,
0001
0000
0010
0000
,
0001
0000
0000
0000
,
1000
0000
0001
0000
,
1000
0000
0001
0000
,
1000
0000
0000
0000
,
0100
0000
0010
0000
,
0001
0001
0010
0100
,
1000
1000
0010
0100
,
0001
0001
1000
0010
,
1000
1000
0001
0010
,
0001
0001
1000
0100
,
1000
1000
0001
0100
,
0001
0010
0100
1000
,
0001
1000
0010
0100
,
0001
0000
1000
0000
,
0100
0000
0010
0000
,
0100
0000
1000
0000
,
0010
0000
0100
0000
,
0001
0000
0010
0000
,
0100
0000
1000
0000
,
0010
0000
0100
0000
,
0010
0000
0000
0000
,
1000
0000
0001
0000
,
0010
0000
0001
0000
,
1000
0000
0010
0000
,
1000
0000
0001
0000
,
0100
0000
0001
0000
,
1000
0000
0100
0000
,
0010
0000
0000
0000
,
0001
0000
1000
0000
,
0001
0000
0000
0000
,
1000
0000
0000
0000
,
0002
0000
0000
2003
0000
0000
0000
3100
,
0000
0010
0000
0002
0000
0000
0103
0000
,
0020
0000
0000
2030
0000
0000
0000
3100
,
0000
0010
0000
0200
0000
0000
1300
0000
,
0001
0000
1000
0000
,
0001
0000
1000
0000
,
0010
0000
0100
0000
,
0010
0000
0100
0010
,
1000
0001
1000
0100
,
1000
0001
1000
0010
,
0100
0001
0100
0010
,
1000
0100
0010
0001
,
0100
0010
0100
0010
,
1000
0001
1000
0001
,
1000
1000
0001
0001
,
0010
0000
0100
0000
,
1000
0000
0001
0000
,
1000
0000
0010
0110
,
1000
0000
0100
0000
,
0010
0000
0001
0000
,
1000
0000
0100
0000
,
0010
0000
0001
0000
,
1000
0000
0010
0000
,
0100
0000
0001
0000
,
1000
0000
0010
0000
,
0100
0000
0000
0000
,
0001
0000
0010
0000
,
0100
0000
0000
0000
,
1000
0000
0010
0000
,
0100
0000
0000
0000
,
0001
0000
0100
0000
,
0001
0000
1000
0000
,
0100
0000
0000
0000
,
0010
0000
0000
0000
,
0001
0000
0000
0000
,
1000
0000
0000
0000
,
2002
0000
0000
0000
,
0000
0000
0000
0000
,
3003
0000
0000
0000
;

//---------------dance-single - ----------------
#NOTES:
     dance-single:
     :
     Beginner:
     2:
     0.128920,0.238243,0.000000,0.045122,0.000000,100.000000,100.000000,0.000000,5.000000,0.000000,0.000000,0.128920,0.238243,0.000000,0.045122,0.000000,100.000000,100.000000,0.000000,5.000000,0.000000,0.000000:
0000
0000
0000
0000
,
0000
0000
0000
0000
,
0000
0000
0000
0000
,
0000
0000
0000
0000
,
1000
0000
1000
0000
,
0001
0000
0001
0000
,
0100
0000
0100
0000
,
0010
0000
0000
1000
,
0001
0000
0000
0000
,
0001
0000
0000
0000
,
0001
0000
0000
0000
,
0001
0000
0000
0000
,
1000
0000
0000
0000
,
1000
0000
0000
0000
,
1000
0000
0000
0000
,
1000
0000
0000
0000
,
0100
0000
0000
0000
,
0100
0000
0000
0000
,
0100
0000
0000
0000
,
0100
0000
0000
0000
,
0010
0000
0000
0000
,
0010
0000
0000
0000
,
0010
0000
0000
0000
,
0010
0000
0000
0000
,
0001
0000
0001
0000
,
0010
0000
0010
0000
,
0100
0000
0100
0000
,
1000
0000
1000
0000
,
0010
0000
0010
0000
,
0100
0000
0100
0000
,
0001
0000
0001
0000
,
1000
0000
0001
1000
,
0001
0000
0000
0000
,
0001
0000
0000
0000
,
1000
0000
0000
0000
,
1000
0000
0000
0000
,
0001
0000
0000
0000
,
0001
0000
0000
0000
,
1000
0000
0000
0000
,
1000
0000
0000
0000
,
0010
0000
0000
0000
,
0010
0000
0000
0000
,
0100
0000
0000
0000
,
0100
0000
0000
0000
,
0010
0000
0000
0000
,
0010
0000
0000
0000
,
0100
0000
0000
0000
,
0100
0000
0000
0000
,
0001
0000
0000
0000
,
1000
0000
0000
0000
,
0002
0000
0000
0000
,
0000
0000
0003
0000
,
0020
0000
0000
0000
,
0000
0000
0030
0000
,
0200
0000
0000
0000
,
0000
0000
0300
0000
,
2000
0000
0000
0000
,
0000
0000
3000
0000
,
0001
0000
1000
0000
,
0001
0000
1000
0000
,
0010
0000
0100
0000
,
0010
0000
0100
0000
,
0001
0000
0001
0000
,
1000
0000
1000
0000
,
0100
0000
0100
0000
,
0010
0000
0000
0000
,
0001
0000
0000
0000
,
1000
0000
0000
0001
,
1000
0000
0000
0000
,
1000
0000
0000
0000
,
0001
0000
0000
0000
,
0001
0000
0000
0000
,
1000
0000
0000
0000
,
1000
0000
0000
0000
,
0001
0000
0000
0000
,
0001
0000
0000
0000
,
0100
0000
0000
0000
,
0100
0000
0000
0000
,
0010
0000
0000
0000
,
0010
0000
0000
0000
,
0100
0000
0000
0000
,
0100
0000
0000
0000
,
0010
0000
0000
0000
,
0010
0000
0000
0000
,
1000
0000
0000
0000
,
0001
0000
0000
0000
,
2000
0000
0000
0000
,
0000
0000
0000
0000
,
3000
0000
0000
0000
;
