#TITLE:Seedy Try;
#SUBTITLE:;
#ARTIST:t+pazolite;
#TITLETRANSLIT:;
#SUBTITLETRANSLIT:;
#ARTISTTRANSLIT:;
#CREDIT:;
#BANNER:Seedy Try.png;
#BACKGROUND:Seedy Try-bg.png;
#LYRICSPATH:;
#CDTITLE:;
#MUSIC:Seedy Try.ogg;
#OFFSET:-0.081;
#SAMPLESTART:27.511;
#SAMPLELENGTH:18.286;
#SELECTABLE:YES;
#BPMS:0.000=105.000;
#STOPS:;
#BGCHANGES:;

//---------------dance-single - ChiselEssiestudy ZSS----------------
#NOTES:
     dance-single:
     ChiselEssiestudy ZSS:
     Hard:
     9:
     0.834,0.779,0.212,1.000,0.823:
0000
0000
0000
0000
,
0000
0000
0000
0000
,
1000
0001
0000
0001
0000
1000
0100
1000
0010
1000
0100
0010
0002
0000
0103
0000
,
0001
1000
0000
1000
0000
0001
0100
0001
0010
0001
0100
0010
2000
0000
3010
0000
,
1010
0000
0110
0000
0101
0000
0001
0010
0001
0100
0010
1000
0200
0000
0310
0000
,
0101
0000
0110
0000
1010
0000
1000
0100
1000
0010
0100
0001
0020
0000
0130
0000
,
1100
0000
1001
0000
0011
0000
0001
0100
0001
0010
0100
1000
0200
0000
0310
0000
,
0011
0000
1001
0000
1100
0000
0001
0010
0001
0100
0010
1000
0200
0000
0310
0000
,
1000
0100
0000
0100
0000
1000
0100
0000
0001
0000
0200
0000
1300
0000
0010
0000
,
0100
0001
0000
0001
0000
0100
0001
0100
0001
0000
0200
0000
1300
0000
0100
0000
,
0010
1000
0000
1000
0000
0010
0100
0001
0010
0100
0000
0100
0000
1000
0010
0100
,
0001
0000
1000
0000
0001
1000
0001
0000
0100
0010
1000
0100
0020
0000
0030
0000
,
0001
0000
0000
0200
0310
0000
0100
0000
0001
0100
0001
0010
0100
1000
0100
0010
,
0100
0000
0000
0200
0310
0000
0001
0000
1000
0010
0100
0001
0200
0000
0301
0000
,
0010
0000
0000
0002
1003
0000
0100
0000
1000
0010
1000
0100
0001
0100
1000
0010
,
0002
0003
0010
2000
3000
0100
0002
0003
0200
0300
0020
0030
1001
0000
1001
0000
,
0100
0000
0000
0002
0103
0000
0001
0000
0010
0001
0010
0100
1000
0100
1000
0010
,
1000
0000
0000
0000
0000
0000
0000
0000
0000
0200
0000
0000
1300
0000
0000
0000
0000
0000
0100
0000
0000
0000
0000
0000
2000
0000
3000
0000
0020
0000
0030
0000
2000
0000
3000
0000
0200
0000
0000
0000
0000
0000
0301
0000
0000
0000
0000
0000
,
0020
0000
0000
0230
0020
0330
1000
0000
0100
1000
0010
1000
0100
0010
0001
0010
,
0001
0100
0000
0100
0000
0001
0010
1000
0200
0000
0302
0000
0203
0000
0300
0000
,
0002
0203
0302
0023
0230
2300
3200
2300
3010
0000
0010
0100
0000
0100
0001
0000
,
2000
3000
0000
0100
0002
0000
0103
0000
1000
0010
0100
0010
2000
0000
0200
3300
,
0010
0100
0000
0100
0010
0001
1000
0000
0001
0100
0001
1000
0010
2000
3100
0001
,
0200
0300
1000
0200
0300
0010
0002
0003
2000
3000
0002
0003
1010
0000
0101
0000
,
2100
3000
0000
0200
0310
0000
0001
0000
0100
0001
0010
0001
0100
0010
1000
0010
,
0100
0000
0000
0000
0000
0000
0000
0000
0000
0002
0000
0000
0103
0000
0000
0000
0000
0000
0001
0000
0000
0000
0000
0000
0200
0000
0300
0000
2000
0000
3000
0000
0200
0000
0300
0000
0002
0000
0000
0000
0000
0000
1003
0000
0000
0000
0000
0000
,
0102
0000
0000
0203
0002
0303
0010
0000
0100
1000
0010
1000
0100
0001
0100
1000
,
0020
0030
0100
0002
0003
0100
0020
0030
2000
0000
3002
0000
0023
0000
0002
0033
,
0200
0300
0020
0030
0200
0300
0001
0010
0200
0300
2000
3000
0100
1000
0100
2000
,
0000
3000
0200
0300
1000
0100
1000
0010
0200
0300
0002
0003
0100
0010
0100
0000
,
0020
0030
2000
3000
0020
0030
1000
0100
0020
0030
0002
0003
0010
0001
0100
0020
,
0000
0030
0100
0001
0020
0030
0200
0300
0020
0030
2000
3000
1001
0000
1100
0000
,
0002
0003
0200
0300
0020
0030
0100
0001
0020
0030
0200
0300
0010
0001
0100
0020
,
0000
0030
0200
0300
0002
0003
0010
0100
2000
3000
0100
1000
0020
0030
0200
0300
,
0020
0000
0030
0010
0200
0300
0001
0100
0002
0003
0020
0030
0100
1000
0100
0002
,
0000
0003
0200
0300
1000
0001
1000
0001
0100
0010
2000
0000
3200
0000
0310
0000
,
0001
0010
0000
0010
0000
0001
0100
0001
0010
0100
1000
0010
2000
0000
3010
0000
,
1000
0100
0000
0100
0000
1000
0010
1000
0100
0010
0001
0100
0002
0000
0103
0000
,
0010
1000
0000
1000
0000
0010
1000
0100
1000
0001
0100
0001
0020
0000
0031
0000
,
0100
0001
0000
0001
0000
0100
0001
0010
0001
1000
0010
1000
0200
0000
1300
0000
,
0200
0300
0000
2000
3000
0100
0020
0030
0002
0003
0200
0300
0001
0000
0000
0000
;

//---------------dance-single - ChiselEssiestudy ZSS----------------
#NOTES:
     dance-single:
     ChiselEssiestudy ZSS:
     Medium:
     6:
     0.397,0.411,0.149,0.106,0.106:
0000
0000
0000
0000
,
0000
0000
0000
0000
,
1000
0000
0000
0100
0000
0000
1000
0000
0001
0000
0000
0000
0100
0000
0100
0000
,
0010
0000
0000
0100
0000
0000
0010
0000
1000
0000
0000
0000
0001
0000
0001
0000
,
0100
0000
0000
1001
0000
0000
0001
0000
0100
0000
0001
0000
0010
0000
0100
0000
,
1000
0000
0000
0101
0000
0000
0010
0000
0100
0000
1000
0000
0100
0000
0010
0000
,
0001
0000
0000
0101
0000
0000
1000
0000
0010
0000
1000
0000
0100
0000
0010
0000
,
0001
0000
0000
1001
0000
0000
0100
0000
0001
0000
0010
0000
0100
0000
0010
0000
,
0001
0000
0000
0000
1000
0000
0000
0100
0000
0000
1000
0000
0001
0000
0000
0000
,
0100
0000
0000
0000
0001
0000
0000
0010
0000
0000
0100
0000
0010
0000
0000
0000
,
0001
0100
0001
0010
0100
1000
0100
0010
,
0100
1000
0001
1001
0100
0010
0200
0300
,
0101
0000
0100
0001
0010
0001
0100
0010
,
1000
0000
0100
1000
0010
1000
0001
0010
,
0100
0000
0001
0100
0001
0010
0100
1000
,
0010
0000
0100
0001
0100
0010
1001
1001
,
0001
0000
0100
0001
0010
0100
1000
0010
,
0100
0000
0000
0000
0001
0000
0100
0000
0010
0000
0000
0100
0000
0000
0001
0000
,
0020
0000
0000
0130
0000
0000
1000
0000
0010
0000
0100
0000
0010
0000
1000
0000
,
0100
0000
0000
0010
0000
0000
0001
0000
0100
0000
0001
0000
0200
0000
0300
0000
,
2020
0000
0000
0000
0000
3030
0100
0000
0010
0000
0000
0001
0000
0000
0100
0000
,
0001
0000
0001
0010
0100
1000
0100
0010
,
0001
0000
0100
0010
0100
0001
1000
0010
,
0100
0000
0001
0000
0100
0001
0110
0110
,
1000
0000
0100
1000
0010
0100
0010
1000
,
0100
0000
0000
0000
0010
0000
0100
0000
1000
0000
0000
0100
0000
0000
0010
0000
,
0002
0000
0000
0103
0000
0000
0001
0000
0100
0000
0010
0000
1000
0000
0100
0000
,
0010
0000
0100
1000
0100
0000
1001
0000
,
0010
0000
0100
0100
0001
0000
0100
0200
,
0300
0000
0010
0010
1000
0000
0010
0000
,
1000
0000
0001
0001
0100
0000
0010
0020
,
0000
0030
0100
0100
0001
0001
1001
1100
,
1000
0000
0010
0010
1000
0000
0010
0020
,
0000
0030
0100
0100
0010
0000
1000
0000
,
0002
0000
0000
1003
0010
0000
0010
0000
0000
0000
0100
0000
0000
0000
0000
0000
,
0001
0000
0100
0100
0010
1000
0010
0000
,
0100
0000
0000
0001
0000
0000
0010
0000
0001
0000
0000
0000
0100
0000
0000
0000
,
0010
0000
0000
1000
0000
0000
0100
0000
0010
0000
0000
0000
0100
0000
0000
0000
,
1000
0000
0000
0010
0000
0000
1000
0000
0100
0000
0000
0000
0010
0000
0000
0000
,
0100
0000
0000
1000
0000
0000
0010
0000
0100
0000
0000
0000
0001
0000
0000
0000
,
0010
0000
0000
0100
0000
0000
0010
0000
0001
0000
0010
0000
0100
0000
0000
0000
;

//---------------dance-single - ChiselEssiestudy ZSS----------------
#NOTES:
     dance-single:
     ChiselEssiestudy ZSS:
     Easy:
     4:
     0.306,0.324,0.223,0.106,0.000:
0000
0000
0000
0000
,
0000
0000
0000
0000
,
0000
0100
0000
0010
0000
0100
0000
0001
,
0000
0010
0000
0100
0000
0010
0000
0001
,
1000
1001
0001
0100
,
0010
1001
0010
0001
,
0100
0001
0010
0100
,
1000
0000
0100
0000
0010
0001
1000
0010
,
0100
0000
0000
0001
0000
0000
0000
0000
,
1000
0000
0000
0010
0000
0000
0000
0000
,
0100
0010
1000
0010
,
0100
0000
0001
0000
0100
0001
1000
0000
,
0100
0000
1001
0000
0001
0100
0001
0000
,
1000
0000
0110
0000
1000
0100
1000
0000
,
0001
0000
1010
0000
0100
0001
0100
0000
,
0001
0000
0001
0010
0000
0100
1001
1001
,
0100
0000
1010
0000
0100
0000
0001
0010
,
0100
0000
1001
0000
1000
0010
1000
0000
,
0200
0000
0301
0000
0100
0000
1000
0100
,
0010
0000
0001
0000
0020
0000
0002
0033
,
2002
0000
3003
0100
0010
0000
0100
0000
,
0001
0000
0110
0000
0001
0100
0001
0000
,
0100
0000
1001
0000
1000
0100
1000
0000
,
0001
0000
1000
0100
0000
1000
0110
0110
,
0001
0000
1010
0000
1000
0010
0001
0000
,
0010
0000
1001
0000
0010
0001
0100
0000
,
0002
0000
0103
0000
0001
0010
0100
0000
,
0001
0000
0110
0000
2000
0000
0002
3003
,
0010
0000
0001
0000
0010
0000
0001
1000
,
0000
0010
0100
1001
,
1000
0000
0100
0000
1000
0000
0100
0010
,
0000
0000
0100
0000
0010
0000
1001
1100
,
0010
0000
1000
0000
0010
0000
1000
0100
,
0000
1000
0001
0110
,
0002
0000
1003
0000
0100
0000
1000
0001
,
1000
0100
2000
3001
,
0000
0010
0000
0100
0000
0010
0000
1000
,
0000
0100
0000
0010
0000
0100
0000
0010
,
0000
0001
0000
0010
0000
0001
0000
0100
,
0000
0010
0000
1000
0000
0100
0000
1000
,
0000
0001
0000
0010
0000
0001
0000
0000
;

//---------------dance-single - ChiselEssiestudy ZSS----------------
#NOTES:
     dance-single:
     ChiselEssiestudy ZSS:
     Beginner:
     2:
     0.188,0.260,0.138,0.000,0.000:
0000
0000
0000
0000
,
0000
0000
0000
0000
,
1000
0000
0000
0000
,
0001
0000
1000
0000
,
0001
0000
0000
0000
,
1000
0000
0001
0000
,
1000
0000
0000
0000
,
1001
0000
0000
0000
,
0010
0000
0100
0100
,
0100
0000
0010
0010
,
0010
1001
0100
1001
,
0100
0100
0010
1001
,
1000
0000
0001
0001
,
1000
0000
0001
1001
,
0010
0000
0010
0100
,
0010
0000
0100
0110
,
0001
0000
0001
1000
,
1000
0000
0001
1001
,
0100
0000
0100
0000
,
0010
0100
0010
0010
,
1000
0000
0001
0001
,
1000
0000
0100
0010
,
0100
0000
0010
0010
,
0100
0010
0100
1001
,
0001
0000
0001
1000
,
1000
0000
0100
0010
,
0110
0000
0100
0100
,
0010
0010
1001
0000
,
1000
1000
1000
0000
,
0001
0001
0001
0001
,
1000
0000
1000
1000
,
0001
0001
1001
0000
,
0010
0000
0010
0010
,
0100
0000
0100
0100
,
0010
0000
0010
0010
,
0100
0100
1001
0110
,
0100
0000
0010
0000
,
0100
0100
0010
0000
,
1000
0000
0001
0000
,
1000
1000
0001
0001
,
0100
0000
0010
0100
;
