#TITLE:Gangnam Style;
#SUBTITLE:;
#ARTIST:PSY;
#TITLETRANSLIT:;
#SUBTITLETRANSLIT:;
#ARTISTTRANSLIT:;
#CREDIT:Telperion's skeleton;
#BANNER:Gangnam Style.png;
#BACKGROUND:Gangnam Style-bg.png;
#LYRICSPATH:;
#CDTITLE:;
#MUSIC:Gangnam Style.ogg;
#OFFSET:-9.368;
#SAMPLESTART:83.911;
#SAMPLELENGTH:14.545;
#SELECTABLE:YES;
#DISPLAYBPM:132.000;
#BPMS:0.000=132.000,124.000=66.000,124.500=33.000,125.000=132.000,222.500=66.000,223.000=132.000,260.250=66.000,260.500=131.999;
#STOPS:125.000=1.818
,223.000=0.682
,260.500=1.250
;
#BGCHANGES:;

//---------------dance-double - ----------------
#NOTES:
     dance-double:
     :
     Hard:
     7:
     0.407,0.395,0.207,0.057,0.132:
00000000
00000000
00000000
00000000
,
00000000
00000000
00000000
00000000
,
00000000
00000000
00000000
00000000
,
00000000
00000000
00000000
00000000
,
10000000
01000000
00010000
00000100
,
00000001
00000100
00010000
00000010
,
00000100
00000001
00000100
00001000
,
01000000
10000000
01000000
00010000
,
00100000
01000000
00010000
00000100
,
00001000
00000010
00000100
00010000
,
01000000
00100000
10000000
00010000
,
00001000
00000000
00000000
00000001
00000000
00000000
00000010
00000000
00000110
00000000
00000000
00000100
00000010
00000000
00000100
00000000
,
00000010
00000001
00000100
00000001
00000010
00000100
00001000
00000100
,
00010000
00100000
01000000
00100000
10000000
01000000
00010000
01000000
,
01000000
10000000
00100000
10000000
01000000
00100000
00010000
00100000
,
00001000
00000100
00000010
00000100
00000001
00000010
00001000
00000010
,
00000010
00000001
00001000
00000010
00000100
00001000
00010000
01000000
,
00100000
10000000
00100000
00010000
01000000
00100000
00010000
00001000
,
00000100
00000010
00010000
00000010
00000100
00001000
00010000
00000100
,
00000010
00000000
00000000
00000001
00000000
00000000
00001000
00000000
00001001
00000000
00000000
00000100
00000010
00000000
00001000
00000000
,
00000001
00000100
00001000
00010000
,
00100000
00010000
01000000
10000000
,
00100000
00000000
01000000
10010000
00100000
00000000
01000000
00000000
,
00010000
00000000
00001000
00000110
00000001
00000000
00000100
00001000
,
00010000
00000000
00000000
00100000
00000000
00000000
01000000
00000000
00000000
10000000
00000000
00000000
01000000
00000000
00100000
00000000
,
10000000
00000000
00000000
01000000
00000000
00000000
00010000
00000000
00000000
00000010
00000000
00000000
00001000
00000000
00000001
00000000
,
00000100
00000000
00001000
00110000
01000000
00000000
00100000
00010000
,
00001000
00000000
00000100
00010010
00001000
00000000
00000001
00000100
,
00001000
00010000
00100000
10000000
01000000
00010000
00001000
00000010
,
00000011
00001010
00011000
01010000
,
01000000
00000000
01000000
00000000
10000000
00000000
10000000
00000000
00100000
00000000
00100000
00000000
00010000
00001000
00010000
00002000
,
00020000
00000000
00000000
00000000
00033000
00000000
00000000
00000000
00000011
00000000
00000000
00000010
00000000
00000000
00000100
00000000
,
00000000
00000000
00010000
00000000
00000100
00000000
00001000
00000000
00000001
00000000
00000000
00000100
00000000
00000000
00001000
00000000
,
00000000
00000000
00010000
00000000
00001000
00000000
01000000
00000000
00100000
00000000
00000000
01000000
00000000
00000000
00001000
00000000
,
00000000
00000000
01000000
00000000
00010000
00000000
10000000
00000000
01000000
00000000
00000000
00010000
00000000
00000000
00001000
00000000
,
00000010
00000000
00001000
00000000
00010000
00000000
01000000
00000000
01100000
00000000
00000000
00100000
00000000
00000000
00001000
00000000
,
00000000
00000000
01000000
00000000
00100000
00000000
10000000
00000000
01000000
00000000
00000000
00010000
00000000
00000000
00001000
00000000
,
00000010
00000000
00000001
00000000
00000100
00000000
00000001
00000000
00000010
00000000
00000000
00001000
00000000
00000000
00010000
00000000
,
00000000
00000000
01000000
00000000
00100000
00000000
01000000
00000000
00010000
00000000
00000000
00001000
00000000
00000000
00000010
00000000
,
00000001
00000000
00000000
00000100
00000000
00000000
00001000
00000000
00012000
00000000
00000000
00000000
00000010
00000000
00000000
00000000
,
00000001
00000000
00000100
00000000
00013000
00000000
00000100
00010000
,
00001000
00000000
00000000
00000000
00011000
00000000
00000000
00000000
00000110
00000000
00000000
00000000
00000000
00000000
00000010
00000001
,
00000000
00000000
00000001
00000100
00000000
00000000
00000100
00001000
00000000
00000000
00000000
00000000
00010000
00000000
00100000
00000000
,
01000000
00001000
00010000
00000000
00021000
00000000
00100000
00000000
,
10000000
00000000
01000000
00000000
00031000
00000000
01000000
00001000
,
00010000
00000000
00000000
00000000
00011000
00000000
00000000
00000000
01100000
00000000
00000000
00000000
00000000
00000000
00100000
10000000
,
00000000
00000000
10000000
01000000
00000000
00000000
01000000
00010000
00001000
00000000
00000000
00000010
00000000
00000000
00001000
00000000
,
00010000
00000000
00000000
01000000
00100000
00000000
00001000
00000000
01000000
00000000
00100000
00000000
01000000
00000000
00000000
00000000
,
00100000
10000000
01000000
00100000
01000000
00010000
00010000
00000000
,
00001000
00000000
00000010
00000001
00000100
00000010
00000100
00001000
,
00010000
00000000
00010000
00100000
01000000
00010000
00100000
00000000
,
01000000
00000000
00010000
00000000
00001000
00000010
00000100
00000000
,
00000001
00000100
00010000
00001000
00000100
00000010
00000010
00000000
,
00001000
00000000
00000001
00000100
00001000
00010000
00100000
00010000
,
00100000
10000000
01000000
00010000
00001000
00010000
00011000
00000000
,
00000110
00000000
00000000
00000000
00000000
00000000
00000000
00000000
00000000
00000000
00000000
00000000
00000000
00000000
00000000
00000000
00011000
00000000
00000000
00000000
00000000
00000000
00000000
00000000
00000000
00000000
00000000
00000000
00000000
00000000
00000000
00000000
00002002
00000000
00000000
00000000
00000000
00000000
00000000
00000000
00000000
00000000
00000000
00000000
00000000
00000000
00000000
00003003
00000000
00000000
00000000
00000000
00000000
00000000
00000000
00000000
00000000
00000000
00000000
00000000
00000000
00000000
00000000
00000000
,
00001000
00000000
00000000
00010000
00000000
00000000
01000000
00000000
10000000
00000000
00000000
00100000
00010000
00000000
00001000
00000000
,
00021000
01000000
10000000
00100000
,
00031000
00000000
00100000
00001000
00010000
00000000
00011000
00000000
,
01100000
00000000
00000000
00000000
00000000
00000000
01000000
10000000
00000000
00000000
10000000
00100000
00000000
00000000
00100000
00010000
,
00000000
00000000
00001000
00000100
00000010
00010000
00001000
00000000
,
00012000
00000100
00000001
00000010
,
00013000
00000000
00000010
00010000
00001000
00000000
00011000
00000000
,
00000110
00000000
00000000
00000000
00000000
00000000
00000100
00000001
00000000
00000000
00000001
00000010
00000000
00000000
00000010
00001000
,
00010000
00000000
00000000
01000000
00000000
00000000
00010000
00000000
00001000
00000000
00000000
00000010
00000100
00000000
00010000
00000000
,
00011000
00000001
00000000
00000000
;

//---------------dance-double - ----------------
#NOTES:
     dance-double:
     :
     Medium:
     6:
     0.377,0.372,0.292,0.249,0.011:
00000000
00000000
00000000
00000000
,
00000000
00000000
00000000
00000000
,
00000000
00000000
00000000
00000000
,
00000000
00000000
00000000
00000000
,
10100000
00100000
01000000
10000000
,
01000000
00000000
00010000
00000000
01000000
00000000
00100000
00010000
,
00001000
00010000
00001000
00000100
,
00000010
00000000
00001000
00000000
00000001
00000000
00000100
00000010
,
00010000
00001000
01000000
00100000
,
10000000
00000000
00010000
00000000
01000000
00000000
00001000
00010000
,
00001000
00000100
00000010
00000001
,
00001000
00000000
00000000
00000100
00000000
00000000
00000001
00000000
00001001
00000000
00000000
00000000
00000000
00000000
00000000
00000000
,
00000001
00000010
00000011
00000000
00000010
00000000
00001000
00000000
,
00010000
00011000
01000000
01010000
,
00100000
10000000
10100000
00000000
00100000
00000000
00010000
00000000
,
00001000
00101000
00010000
00010100
,
00000011
00000001
00000100
00000000
00000001
00000000
00001000
00000000
,
00010000
01010000
00100000
01001000
,
00100000
10000000
01010000
00000000
10000000
00000000
00010000
00000000
,
00001000
00000000
00000000
00000001
00000000
00000000
00001000
00000000
00001001
00000000
00000000
00000000
00000000
00000000
00000000
00000000
,
00000001
00000001
00000100
00000100
,
00010000
00010000
01000000
01000000
,
00100000
00000000
10000000
01100000
00010000
00000000
00001000
00000000
,
00000001
00000000
00000100
00001001
00000010
00000000
00000100
00000000
,
00000001
00000001
00000010
00000010
,
00010000
00010000
00100000
00100000
,
00010000
00000000
01000000
10010000
00100000
00000000
00010000
00000000
,
00001000
00000000
00000100
00010010
00001000
00000000
00000100
00000010
,
00000001
00000100
00000010
00010000
00000100
00001000
00000010
00000100
,
00001000
00001000
00001000
00001000
,
00001000
00010000
00100000
01000000
00100000
10000000
00010000
00100000
,
02000000
03000000
10010000
10000000
,
01000000
00010000
00001000
00001000
,
00000010
00000001
00000100
00000000
00000012
00000000
00000000
00001000
,
00000000
00001003
00000000
00001000
00000001
00000000
00000001
00000100
,
00001000
00010000
00001000
00000000
00011000
00000000
00100000
00000000
,
10000000
00100000
10000000
10000000
,
01000000
00100000
00010000
00000000
21000000
00000000
00000000
00010000
,
00000000
30010000
00000000
00010000
10000000
00000000
10000000
01000000
,
00010000
00001000
00010000
00000000
00012000
00000000
00003200
00000000
,
00000320
00000000
00002030
00000000
00003002
00000000
00001003
00000100
,
00000020
00000000
00000031
00000000
00000012
00000000
00000000
00000100
,
00000000
00000103
00000000
00001000
00010000
00000000
00001000
00010000
,
00100000
01000000
00010000
00000000
20010000
00000000
30020000
00000000
,
02030000
00000000
03200000
00000000
00320000
00000000
00031000
00000100
,
00002000
00000000
00103000
00000000
00210000
00000000
00000000
00010000
,
00000000
00310000
00000000
10000000
00100000
00000000
01100000
00000000
,
10100000
00000000
11000000
00000000
01000000
00100000
01000000
00000000
,
01000000
00010000
00001000
00010000
00001000
00000100
00000100
00000000
,
00000000
00000000
00000100
00000010
00001000
00000001
00000100
00001000
,
00010000
00000000
00001000
00010000
00001000
00100000
01000000
00000000
,
10000000
00000000
00010000
00000000
10000000
00100000
10000000
00000000
,
01000000
00010000
00001000
00010000
00001000
00000100
00000100
00000000
,
00000000
00000000
00000100
00000010
00001000
00000001
00000100
00001000
,
01000000
00010000
00100000
00000000
01000000
00100000
01000000
00000000
,
10010000
00000000
00000000
00000000
00000000
00000000
00000000
00000000
00000000
00000000
00000000
00000000
00000000
00000000
00000000
00000000
00011000
00000000
00000000
00000000
00000000
00000000
00000000
00000000
00000000
00000000
00000000
00000000
00000000
00000000
00000000
00000000
00002002
00000000
00000000
00000000
00000000
00000000
00000000
00000000
00000000
00000000
00000000
00000000
00000000
00000000
00000000
00003003
00000000
00000000
00000000
00000000
00000000
00000000
00000000
00000000
00000000
00000000
00000000
00000000
00000000
00000000
00000000
00000000
,
00001000
00000000
00000000
00010000
00000000
00000000
00001000
00000000
00011000
00000000
00000000
00000000
00000000
00000000
00000000
00000000
,
00021000
00230000
02300000
03020000
,
20030000
00000000
30010000
00100000
02000000
00000000
13000000
00000000
,
21000000
00000000
00000000
00100000
00000000
30100000
00000000
00010000
,
00001000
00000000
00010000
00001000
00000100
00000010
00001000
00000000
,
00001002
00002003
00003020
00000230
,
00002300
00000000
00013000
00100000
00020000
00000000
00030100
00000000
,
00001200
00000000
00000000
00001000
00000000
00001300
00000000
00000001
,
00000100
00000110
00001100
00011000
,
02020000
03030000
10010000
00000000
00000000
00000000
00000000
00000000
;

//---------------dance-double - ----------------
#NOTES:
     dance-double:
     :
     Easy:
     2:
     0.159,0.186,0.043,0.000,0.000:
00000000
00000000
00000000
00000000
,
00000000
00000000
00000000
00000000
,
00000000
00000000
00000000
00000000
,
00000000
00000000
00000000
00000000
,
10000000
10000000
01000000
01000000
,
00010000
00000000
00010000
00000000
,
00001000
00001000
00000100
00000100
,
00000001
00000000
00000001
00000000
,
00000010
00000010
00000001
00000001
,
00000100
00000000
00000100
00000000
,
00001000
00001000
00010000
00010000
,
01000000
00000000
01000000
00000000
,
10000000
00000000
01000000
00000000
,
00010000
00000000
00001000
00000000
,
00010000
00000000
00001000
00000000
,
00000100
00000000
00000001
00000000
,
00001000
00000000
00000001
00000000
,
00000010
00000000
00001000
00000000
,
00010000
00000000
00001000
00000000
,
00010000
00000000
00000000
00000000
,
01000000
01000000
10000000
00000000
,
10000000
10000000
00100000
00000000
,
00100000
00100000
00010000
00000000
,
00010000
00010000
00001000
00000000
,
00001000
00001000
00000010
00000000
,
00000010
00000010
00000001
00000000
,
00000001
00000001
00000100
00000000
,
00000100
00000100
00001000
00000000
,
00001000
00001000
00010000
00000000
,
00010000
00010000
01000000
00000000
,
01000000
01000000
10000000
00000000
,
10010000
00000000
10000000
00000000
,
00010000
00000000
00001000
00000000
,
00000001
00000000
00001000
00000000
,
00010000
00000000
10000000
00000000
,
00010000
00000000
00001000
00000000
,
00000001
00000000
00001000
00000000
,
00010000
00000000
10000000
00000000
,
00010000
00000000
00001000
00000000
,
00000001
00000000
00000100
00000000
,
00000100
00000000
00001000
00000000
,
00001000
00000000
00010000
00000000
,
00010000
00000000
00001000
00000000
,
00001000
00000000
00010000
00000000
,
00010000
00000000
00100000
00000000
,
00100000
00000000
10000000
00000000
,
10000000
00000000
00010000
00000000
,
00010000
00000000
10000000
10000000
,
00100000
00000000
00100000
00100000
,
00010000
00000000
00010000
00010000
,
00001000
00000000
00001000
00001000
,
00000010
00000000
00000010
00000010
,
00000001
00000000
00000001
00000001
,
00000100
00000000
00000100
00000100
,
00001000
00000000
00001000
00001000
,
00010000
00000000
00011000
00000000
,
00001001
00000000
00000110
00000000
,
00000001
00000000
00001000
00000000
,
00010000
00000000
10000000
00000000
,
00010000
00000000
00001000
00000000
,
00000001
00000000
00001000
00000000
,
00010000
00000000
10000000
00000000
,
00010000
00000000
00001000
00000000
,
00000001
00000000
00001000
00000000
,
00010000
00000000
10000000
00000000
,
10010000
10010000
00000000
00000000
;

//---------------dance-single - ----------------
#NOTES:
     dance-single:
     :
     Hard:
     8:
     0.468,0.442,0.342,0.185,0.139: // measure 1
0000
0000
0000
0000
,  // measure 2
0000
0000
0000
0000
,  // measure 3
0000
0000
0000
0000
,  // measure 4
0000
0000
0000
0000
,  // measure 5
1000
0100
0010
0200
0000
1000
1000
1300
,  // measure 6
0001
0100
1000
0001
0010
1000
0000
0001
,  // measure 7
0100
0001
0010
0100
1000
0010
0100
1000
,  // measure 8
0100
0001
0010
1000
0100
0001
0000
1000
,  // measure 9
0001
0000
0000
0200
0000
0000
0000
0000
0000
0310
0000
0000
0100
0000
0000
0000
0001
0000
0010
0000
0000
0100
0000
0000
,  // measure 10
1000
0100
0001
0100
1000
0010
0001
0010
,  // measure 11
1010
0000
0101
0000
0001
0010
0100
1000
,  // measure 12
0001
0000
0000
0100
0000
0000
1010
0000
1000
0000
0000
1000
0100
0000
0010
0000
,  // measure 13
0001
0100
2000
0000
3100
0010
0100
1000
,  // measure 14
0100
0001
0010
0100
1000
0010
0001
0010
,  // measure 15
0100
0001
0020
0000
0130
1000
0010
1000
,  // measure 16
0100
0001
0010
0001
0100
1000
0010
1000
,  // measure 17
0100
0010
0002
0000
1003
0010
1000
0100
,  // measure 18
0001
0100
0010
0001
0100
0010
0100
1000
,  // measure 19
0100
0001
0010
0000
0100
1000
0010
0001
,  // measure 20
1000
0000
0000
0100
0000
0000
0101
0000
0001
0000
0000
0001
0010
0000
0100
0000
,  // measure 21
1000
0000
0000
0010
0000
0000
0100
0000
0000
0010
0000
0000
2010
0000
3000
0000
,  // measure 22
0100
0000
0000
0010
0000
0000
0001
0000
0000
0010
0000
0000
0100
0000
1000
0000
,  // measure 23
0001
0000
0000
0100
0000
0000
1020
0000
0030
1000
0000
0000
0200
0000
0300
0000
,  // measure 24
0010
0000
0000
0001
0000
0000
0100
0000
0010
0000
0010
0000
1000
0000
1000
0000
,  // measure 25
0100
0000
0000
0001
0000
0000
0100
0000
0000
1000
0000
0000
2010
0000
3000
0000
,  // measure 26
0010
0000
0000
0100
0000
0000
0001
0000
0000
0010
0000
0000
0100
0000
1000
0000
,  // measure 27
0001
0000
0000
0100
0000
0000
2010
0000
3000
0010
0000
0000
0100
0000
0000
0000
,  // measure 28
0001
0000
0000
0010
0000
0000
0120
0000
0030
0100
0000
0000
1000
0000
0010
0000
,  // measure 29
1000
0100
0010
0001
1000
0010
0100
0001
,  // measure 30
1000
0100
0001
0100
1000
0010
0001
0010
,  // measure 31
1000
1000
0100
0100
0010
0010
0001
0001
,  // measure 32
2002
0000
0000
3003
0000
0000
0000
0000
1001
0000
0000
1000
0000
0000
0010
0000
,  // measure 33
0000
0000
1000
0000
0100
0000
0010
0000
0001
0000
0000
0100
0000
0000
0010
0000
,  // measure 34
0100
0000
0100
0000
0001
0000
0001
0000
1000
0000
0000
0010
0000
0000
0001
0000
,  // measure 35
0000
0000
1000
0000
0100
0000
0001
0000
1000
0000
0000
0001
0000
0000
0010
0000
,  // measure 36
0100
0000
1000
0000
0010
0000
0001
0000
0100
0000
0000
1000
0000
0000
0001
0000
,  // measure 37
0000
0000
0100
0000
0010
0000
1000
0000
0001
0000
0000
0010
0000
0000
0100
0000
,  // measure 38
1000
0000
0010
0000
0001
0000
0010
0000
1000
0000
0000
0100
0000
0000
0010
0000
,  // measure 39
0000
0000
0001
0000
0100
0000
0010
0000
1000
0000
0000
0001
0000
0000
0101
0000
,  // measure 40
0001
0000
0000
0001
1000
0000
0100
0000
1002
0000
0000
0000
0100
0000
0000
0000
,  // measure 41
1000
0000
0010
0000
0103
0000
0001
0100
,  // measure 42
1010
0000
0101
0000
1100
0000
0100
0110
,  // measure 43
0000
0011
0000
1001
0001
0000
1000
0100
,  // measure 44
0001
0010
1000
0000
0102
0000
0010
0000
,  // measure 45
0100
0000
1000
0000
0013
0000
0001
0010
,  // measure 46
1100
0000
0011
0000
0101
0000
0100
0110
,  // measure 47
0000
0000
1010
0000
0000
0000
1001
0000
1000
0000
0100
0010
0000
0100
0010
0000
,  // measure 48
0001
0000
0100
0010
0000
0100
0010
0000
1000
0000
0001
0000
0200
0000
0000
0000
,  // measure 49
0310
0100
0001
0010
0100
1000
0002
0000
,  // measure 50
1003
0000
0001
0001
0100
0100
0010
1000
,  // measure 51
0100
0000
0011
0000
0001
0100
0020
0000
,  // measure 52
1000
0000
0031
0000
0010
1000
0200
0000
,  // measure 53
1300
0100
0010
0001
0100
0010
0200
0000
,  // measure 54
0301
0000
0100
0100
0010
0010
1000
0100
,  // measure 55
0010
0000
0011
0000
0001
0100
1000
0010
,  // measure 56
0001
1000
0001
0000
0220
0330
0000
0000
,  // measure 57
1100
0000
0000
0110
0000
0000
0010
0000
0011
0000
0000
0001
0100
0000
0010
0000
,  // measure 58
2100
0010
0001
0100
,  // measure 59
3010
0000
1000
0010
0101
0000
1010
0000
,  // measure 60
0011
0000
0010
0110
0000
1100
0000
1001
,  // measure 61
1000
0000
0001
0010
1000
0100
0001
0000
,  // measure 62
2010
0100
0010
0001
,  // measure 63
3100
0000
1000
0100
0011
0000
1100
0000
,  // measure 64
1010
0000
0010
0110
0000
0101
0000
1001
,  // measure 65
0001
0000
0010
0100
0000
0010
0100
0000
1000
0000
0010
0100
0000
0010
0100
0000
,  // measure 66
2002
3003
0110
0000
0000
0000
0000
0000
;

//---------------dance-single - ----------------
#NOTES:
     dance-single:
     :
     Medium:
     6:
     0.376,0.418,0.392,0.093,0.000:
0000
0000
0000
0000
,
0000
0000
0000
0000
,
0000
0000
0000
0000
,
0000
0000
0000
0000
,
1000
0100
0010
0001
,
1000
0001
1000
0001
0100
0010
0000
0000
,
1000
0100
0010
0001
,
0100
0010
0100
0010
1000
0001
0000
0000
,
1000
0100
0010
0001
,
1000
0100
0001
0000
0001
0100
1000
0000
,
1001
1001
0110
0110
,
1100
0011
0101
1010
,
1001
0001
0010
0001
,
1000
0100
0001
0100
1000
0100
0001
0100
,
0010
0001
0100
0010
,
1000
0010
0001
0010
1000
0010
0001
0010
,
0100
0001
0010
0100
,
1000
0010
0100
0010
1000
0010
0100
0010
,
1000
0001
0010
0100
,
1100
0011
0101
1010
,
1001
0001
0010
0110
,
0010
0000
0100
0000
1000
0000
0010
0001
,
0010
1000
0001
0101
,
0001
0000
0010
0000
0100
0001
0100
1000
,
0010
0100
0001
0011
,
0001
0000
0100
0000
0010
0000
0001
1000
,
0100
0000
0001
0000
1001
0000
1000
0100
,
0001
1000
1001
0001
,
0100
1000
0100
0010
0001
0100
0010
1000
,
0002
0203
2300
3020
,
0031
0001
0100
0100
0010
0010
1000
1000
,
1001
0000
1001
1000
,
0100
0010
0100
0000
1000
0000
0010
0000
,
0100
0001
0100
0001
0010
0000
0100
0000
,
1000
0001
1000
0000
0001
0000
0100
0000
,
0010
1000
0010
1000
0001
0000
0010
0000
,
0100
1000
0001
0000
0100
0000
0010
0000
,
1000
0001
0100
0001
0010
0000
0100
0000
,
1000
0010
0100
0000
0101
0000
1100
0000
,
0011
1100
1002
0100
,
0010
1003
0001
0100
,
1010
0101
0011
0010
,
0110
0000
1100
0000
1000
0000
0001
0100
,
1000
0100
0001
0000
0012
0000
0010
0000
,
0100
1003
0001
0100
,
1010
0101
1100
0100
,
0110
0000
0011
0000
0001
0100
0010
1000
,
0001
0010
0100
1000
0001
0000
2000
0000
,
3000
0010
0100
0020
,
0030
0000
0100
0000
0001
0100
1000
0000
,
1000
0100
0001
0000
1000
0001
2000
0000
,
3000
0000
0000
0000
0001
0010
0002
0000
,
0003
0000
0010
0000
0100
0001
0200
0000
,
0300
0000
0010
0000
0001
0100
1000
0000
,
1000
0100
0001
0000
1000
0100
0010
0001
,
1000
0001
1000
0000
1001
0000
0000
0000
,
1001
0101
1100
0011
,
2001
0001
0100
3010
,
1000
0010
0101
1010
,
1100
0100
0110
0011
,
0001
0000
1000
0010
0001
0010
1000
0000
,
2100
0100
0010
3001
,
1000
0010
0101
1010
,
0011
0010
0110
1100
,
1000
0010
0100
0001
1000
0100
0010
0001
,
1000
1001
0000
0000
;

//---------------dance-single - ----------------
#NOTES:
     dance-single:
     :
     Beginner:
     1:
     0.076,0.139,0.071,0.029,0.000:
0000
0000
0000
0000
,
0000
0000
0000
0000
,
0000
0000
0000
0000
,
0000
0000
0000
0000
,
1000
0000
0000
0000
,
1000
0000
0000
0000
,
1000
0000
0000
0000
,
1000
0000
0000
0000
,
0100
0000
0000
0000
,
0100
0000
0000
0000
,
0100
0000
0000
0000
,
0100
0000
0000
0000
,
0010
0000
0000
0000
,
0010
0000
0000
0000
,
0010
0000
0000
0000
,
0010
0000
0000
0000
,
0001
0000
0000
0000
,
0001
0000
0000
0000
,
0001
0000
0000
0000
,
0001
0000
0000
0000
,
1000
0000
1000
0000
,
0001
0000
0001
0000
,
0001
0000
0001
0000
,
1000
0000
1000
0000
,
0110
0000
0000
0000
,
0110
0000
0000
0000
,
0110
0000
0000
0000
,
0110
0000
0000
0000
,
1001
0000
0000
0000
,
1001
0000
0000
0000
,
1001
0000
0000
0000
,
1001
0000
0000
0000
,
0000
0000
1000
0000
,
0000
0000
0010
0000
,
0000
0000
1000
0000
,
0000
0000
0001
0000
,
0000
0000
0010
0000
,
0000
0000
0001
0000
,
0000
0000
0010
0000
,
0000
0000
0100
0000
,
0000
0000
1000
0000
,
0000
0000
0100
0000
,
0000
0000
1000
0000
,
0000
0000
0001
0000
,
0000
0000
0100
0000
,
0000
0000
0001
0000
,
0000
0000
0100
0000
,
0000
0000
2000
0000
,
0000
0000
3000
0000
,
0000
0000
0002
0000
,
0000
0000
0003
0000
,
0000
0000
0020
0000
,
0000
0000
0030
0000
,
0000
0000
0200
0000
,
0000
0000
0300
0000
,
0000
0000
1001
0000
,
0000
0000
0000
0000
,
1000
0000
0000
0000
,
1000
0000
0000
0000
,
0010
0000
0000
0000
,
0010
0000
0000
0000
,
0100
0000
0000
0000
,
0100
0000
0000
0000
,
0001
0000
0000
0000
,
0001
0000
0000
0000
,
1001
0000
0000
0000
;

//---------------dance-single - ----------------
#NOTES:
     dance-single:
     :
     Easy:
     4:
     0.229,0.256,0.064,0.043,0.000:
0000
0000
0000
0000
,
0000
0000
0000
0000
,
0000
0000
0000
0000
,
0000
0000
0000
0000
,
1000
0100
0010
0100
,
1000
0010
0100
0000
,
0001
0010
0100
0010
,
0001
0100
0010
0000
,
0100
0001
0010
0001
,
0100
0010
1000
0000
,
0100
0100
0001
0001
,
1000
1000
0010
0010
,
1000
0100
0001
0000
,
0100
1000
0010
0001
,
0010
0100
0000
0100
,
0010
0001
0010
1000
,
0100
1000
0000
1000
,
0010
0100
1000
0100
,
0001
0100
0010
0100
,
0100
0010
0010
0000
,
1000
0100
0100
1000
,
0010
0100
0001
0010
,
0100
1000
1000
0001
,
0010
0001
0100
0010
,
1000
0001
0001
1000
,
0100
0010
0001
0100
,
0010
1000
0001
0001
,
1000
0100
0010
0010
,
0001
0001
0100
0100
,
0010
0010
1000
1000
,
0001
0010
0100
1000
,
1001
0000
1001
0001
,
0100
0001
1000
0010
,
1000
0001
0010
0001
,
0100
0001
0010
0100
,
1000
0100
0010
0001
,
0100
0010
1000
0100
,
0010
0001
1000
0100
,
0001
0100
1000
0010
,
0001
0010
2000
0000
,
0000
3000
0001
0100
,
0010
1000
0001
0000
,
1000
1000
0100
0010
,
0001
0100
0020
0000
,
0000
0030
0100
0001
,
0010
0100
1000
0000
,
0001
0001
1000
1000
,
0010
0010
0100
0100
,
0000
0000
0001
0001
,
0000
0000
0010
0100
,
1000
0001
0100
0010
,
0000
0000
1000
1000
,
0000
0000
0001
0001
,
0000
0000
0010
0100
,
1000
0001
0100
0010
,
1000
0001
1001
0000
,
1001
0000
0110
0110
,
2002
0000
0000
3003
,
0001
0100
0010
1000
,
0001
0000
0010
0010
,
0100
1000
0001
0100
,
0220
0000
0000
0330
,
0100
0001
0010
0100
,
1000
0000
0001
0001
,
1000
0010
0001
0100
,
1000
1001
0000
0000
;
