#TITLE:オニユリ;
#SUBTITLE:;
#ARTIST:ぺのれり;
#TITLETRANSLIT:Oniyuri;
#SUBTITLETRANSLIT:;
#ARTISTTRANSLIT:Penoreri;
#GENRE:;
#CREDIT:;
#BANNER:bn.png;
#BACKGROUND:bg.png;
#LYRICSPATH:;
#CDTITLE:;
#MUSIC:audio.ogg;
#OFFSET:-0.419;
#SAMPLESTART:64.769;
#SAMPLELENGTH:12.000;
#SELECTABLE:YES;
#BPMS:0.000=153.000;
#STOPS:;
#TIMESIGNATURES:0.000=4=4;
#BGCHANGES:;
#KEYSOUNDS:;

//---------------dance-single - Ama-tan----------------
#NOTES:
     dance-single:
     Ama-tan:
     Challenge:
     18:
     1.000,1.000,0.934,0.592,1.000:
0000
0000
0000
0000
,
1001
0000
0000
1001
0000
0000
1000
0000
0010
0100
0000
0001
0000
0010
0000
0100
,
1000
0000
0001
0000
0100
0010
0000
0100
0010
0000
1010
0000
0000
1010
0000
0000
,
1001
0000
0000
0000
0000
0000
0000
0000
0000
1001
0000
0000
0000
0000
0000
0000
0000
0000
0001
0000
0000
0000
0000
0000
1000
0000
0100
0000
0010
0000
0001
0000
0010
0000
0100
0000
1000
0000
0000
0000
0000
0000
0010
0000
0000
0000
0000
0000
,
0000
0100
0000
0000
0001
0000
0000
0010
0000
0000
0110
0000
0000
1100
0000
0000
,
1001
0000
0000
1001
0000
0000
1000
0000
0010
0000
0100
0000
0001
0000
1000
0000
,
0001
0000
0010
0000
0000
0100
0000
0000
1000
0000
0000
1000
0000
0000
0001
0000
,
0101
0000
1000
0100
0010
0001
1000
0010
1000
0001
0010
0100
1000
0010
0100
0000
,
1001
0000
0000
1001
0000
0000
0001
0000
0100
0010
1000
0000
1001
0000
0000
1001
,
0000
0000
1000
0000
0100
0010
0001
0000
0101
0000
0000
0000
0101
0000
0000
0000
,
1001
0000
0000
0000
0000
0000
0000
0000
0000
1001
0000
0000
0000
0000
0000
0000
0001
0000
0000
0000
0010
0000
0000
0000
0100
0000
0000
0000
0010
0000
0000
0000
0001
0000
0000
0000
1001
0000
0000
0000
0000
0000
0000
0000
0000
1001
0000
0000
,
0000
1000
0010
0100
0010
1000
1100
0000
0000
1100
0000
0000
,
1001
0000
0000
0000
0000
0000
0000
0000
0000
1001
0000
0000
0000
0000
0000
0000
1000
0000
0000
0000
0001
0000
0000
0000
0100
0000
0000
0000
0010
0000
0000
0000
1000
0000
0000
0000
1001
0000
0000
0000
0000
0000
0000
0000
0000
1001
0000
0000
,
0000
0001
1000
0100
0010
0001
0101
0000
0000
0101
0000
0000
,
2001
0000
0000
0000
3000
0000
0010
1000
0001
0010
0100
1000
0001
0100
0010
1000
,
0100
0000
0000
0220
0330
0000
0022
0033
0000
0000
2002
0000
0000
0000
3000
0000
,
0000
0000
0000
0000
0000
0000
0000
1003
,
0010
0000
0000
0000
0000
0000
0100
0000
0000
0020
0000
0000
0000
0000
0000
0000
0000
0000
0000
0000
0000
0000
0000
0000
0000
0000
0000
0000
0000
0000
0000
0000
0000
0030
0000
0000
0000
0000
0000
0000
0000
0000
1000
0000
0100
0000
0010
0000
,
0001
0000
0010
0200
0000
0000
0000
0000
0000
0000
0000
0000
0300
0000
0000
1100
,
0000
2002
0000
0003
0000
0000
3010
0200
,
0000
0310
0000
1000
0001
0010
0100
2000
0000
0000
3100
0010
0001
1000
0010
0100
,
0002
0000
0000
0203
0000
0000
0310
0000
2010
0000
0000
3200
0000
0000
0310
0000
,
0011
0000
0001
0000
1000
0010
0000
0100
0000
0001
0000
0100
0001
1000
0100
0010
,
0001
0000
0000
0000
1010
0000
0000
0000
1100
0000
0000
0100
0010
0000
0101
0000
,
0001
0000
0100
0010
1000
0010
0100
0000
0101
0000
0000
0100
0010
0000
1100
0000
,
0000
0001
0100
0010
1000
0010
0100
0000
0101
0000
0000
0100
0010
0000
1010
0000
,
1000
0000
0001
0010
0100
1000
0001
0000
1001
0000
0000
0000
1001
0000
0000
0000
,
1200
0000
0010
0000
0000
0310
0000
0000
0201
0000
0000
0320
0000
0000
1030
0000
,
1200
0000
0000
0320
0000
0000
0031
0000
2001
0000
0000
3010
0000
0100
0001
0000
,
1001
0000
1000
0100
0010
0001
1000
0010
1000
0001
0000
0010
0000
0000
0100
0000
,
1100
0000
0000
0001
0100
0000
0110
0000
0000
0000
0010
0000
1010
0000
0000
0000
,
1001
0000
0000
0000
0000
0000
0000
0000
0000
0000
0000
0000
0000
0000
1000
0001
1000
0000
0000
0000
0001
0000
0000
0000
1000
0000
0001
0000
0000
0000
0000
0000
,
1000
0000
0010
0000
0100
0000
0001
0010
0100
1000
0100
0010
0001
0100
0010
1000
,
0001
0000
0000
0000
0000
0000
1000
0000
0100
0000
1000
0000
0100
0000
0000
0010
0000
0000
0001
0000
0000
1000
0000
0000
0010
0000
0000
0100
0000
0000
0001
0000
0000
0100
0000
0000
0010
0000
0000
1000
0000
0000
0001
0000
0000
1000
0000
0000
,
0100
0010
0001
0100
0010
1000
0100
0010
0001
0100
0010
1000
0100
0010
0001
0100
,
0010
0000
1000
0100
0010
0001
0000
1000
0000
0010
0000
0100
0000
0001
1000
0000
,
0001
0000
0201
0000
0000
0310
0000
0000
2010
0000
0000
3200
0000
0000
0310
0000
,
0012
0000
0000
2003
0000
0000
3010
0000
0120
0000
0000
2030
0000
0000
3002
0000
,
0013
0000
0000
0000
0100
1000
0001
0100
0000
0010
0000
1000
0000
0001
0000
0001
,
0010
0000
0000
1100
0000
0000
1010
0000
0000
0110
0000
0000
0101
0000
0001
0000
,
1001
0000
0000
1000
0100
0000
0110
0000
0000
0001
0100
0010
1000
0100
0010
0001
,
0100
0000
0000
0000
0000
0000
0000
0000
0020
0000
0000
0000
0000
0000
0030
0000
1000
0000
0000
0000
0001
0000
0000
0000
1000
0000
0000
0100
0000
0000
0000
0000
0000
0010
0000
0000
0000
0000
0000
0001
0000
0000
0100
0000
0000
0010
0000
0000
,
2000
0000
3001
0100
0100
0100
0001
0100
0100
0100
0001
0100
0100
0100
0001
0100
,
0100
0100
0001
0100
0100
0100
0001
0010
0200
0300
0000
2200
3300
0000
1002
0000
,
0000
0000
1003
0100
0100
0100
1000
0100
0100
0100
1000
0100
0100
0100
1000
0100
,
0100
0100
1000
0100
0100
0100
0020
0000
0032
0003
0000
0202
0303
0000
1002
0000
,
0000
0000
0103
0100
1000
0001
0010
0010
1000
0001
0100
0100
1000
0010
0100
0001
,
0010
0000
0010
0100
0000
0100
1000
0000
1000
0010
0000
0010
0100
0001
0010
0100
,
2000
0000
0000
0100
0000
0000
3001
0000
0102
0000
0000
0013
0000
0000
1002
0000
,
0000
0000
1003
0010
0100
0001
0010
0100
0001
0100
0000
0010
0000
0001
2000
0000
,
3002
0000
0103
0100
1000
0100
0100
0100
0100
0100
0100
0100
1000
0100
0100
0100
,
0100
0100
0100
0100
1000
0100
0100
0100
0020
0030
0000
0202
0303
0000
2001
0000
,
0000
0000
3100
0100
0001
0100
0100
0100
0100
0100
0100
0100
0001
0100
0100
0100
,
0100
0100
0100
0100
0001
0100
0020
0000
2030
3000
0000
2200
3300
0000
1002
0000
,
0000
0000
0000
0000
0000
0000
0103
0000
0000
0000
0000
0000
2000
0000
0000
0000
0000
0000
3000
0000
0000
0000
0000
0000
0200
0000
0000
0000
0000
0000
0000
0000
0300
0010
0000
0000
1000
0000
0000
0000
0000
0000
0100
0000
0000
0000
0000
0000
,
1001
0000
0000
0001
0010
0000
0100
0000
1001
0000
0000
1000
0010
0100
0001
0010
,
0200
0000
0000
0320
0000
0000
0032
0000
1003
0000
0000
0000
1010
0000
0000
0000
,
0011
0000
0000
0110
0000
0000
1100
0000
0000
0000
1010
0000
0010
0100
0001
0000
,
1100
0000
0001
0010
0100
1000
0010
0100
0001
0000
0000
0000
1010
0000
0000
0000
,
1001
0000
0000
1001
0000
0000
1000
0000
0100
0010
0001
0000
1001
0000
0000
1001
,
0000
0000
0001
0000
0100
0010
1000
0000
1100
0000
0000
0000
1100
0000
0000
0000
,
1001
0000
0000
1001
0000
0000
0200
0000
0010
0000
0300
0000
1001
0000
0000
1001
,
0000
0000
0020
0000
0100
0000
0030
0000
0101
0000
0100
0001
0100
0010
1000
0000
,
1001
0000
0000
0000
0000
0000
0000
0000
0000
1001
0000
0000
0000
0000
0000
0000
0001
0000
0000
0000
1000
0000
0000
0000
0100
0000
0000
0000
0100
0000
0000
0000
0001
0000
0000
0000
1001
0000
0000
0000
0000
0000
0000
0000
0000
1001
0000
0000
,
0000
0000
0000
0000
1000
0000
0000
0000
0001
0000
0000
0000
0100
0000
0000
0000
0100
0000
0000
0000
1000
0000
0000
0000
1100
0000
0000
0000
0000
0000
1000
0000
0001
0000
1000
0000
0001
0000
0000
0100
0000
0000
0010
0000
0000
1000
0000
0000
,
0200
0000
0000
0000
0000
0000
0310
0001
1000
0010
0100
0001
1000
0100
0010
0001
,
0100
0000
0000
0220
0330
0000
2020
3030
0000
0000
1001
0000
1000
0100
0010
0001
,
2000
0000
3010
0100
0100
0100
0001
0100
0100
0100
0010
0100
0100
0100
0001
0100
,
0100
0100
0010
1000
0002
0000
0013
0100
1000
0001
0100
0010
1000
0010
0100
0001
,
1000
0000
0000
1100
0000
0000
1002
0000
0000
0000
0103
0010
1000
0010
0100
0001
,
0010
0000
0010
0100
0000
0100
1000
0000
1000
0010
0000
0010
0100
0000
0001
0010
,
0100
0000
0000
0000
0000
0000
0000
0000
0000
0000
0000
0000
1000
0000
0010
0000
1000
0000
0010
0000
0000
1000
0000
0000
0001
0000
0000
0000
0000
0000
0010
0000
0001
0000
0010
0000
0001
0000
0000
0010
0000
0000
0100
0000
0000
0000
0000
0000
,
1000
0000
0100
0000
1000
0000
0100
0000
0000
1000
0000
0000
0001
0000
0000
0000
0000
0000
0100
0000
0001
0000
0100
0000
0001
0000
0000
0100
0000
0000
0010
0000
0000
0000
0000
0000
1001
0000
0000
0000
0000
0000
0000
0000
0000
0000
0000
0000
,
1100
0000
0000
0100
0010
0000
0101
0000
0000
0000
0110
0000
0000
0000
1010
0000
,
0000
1000
0010
0100
0010
1000
0001
1000
0100
0010
0001
1000
0010
1000
0001
1000
,
0100
0100
0100
0100
0100
0100
0100
0100
0100
0100
0100
0100
0100
0000
0000
0000
,
1001
0000
0000
1001
0000
0000
0000
0000
0000
0000
0000
0000
0000
0000
0000
0000
;

//---------------dance-single - TaroNuke----------------
#NOTES:
     dance-single:
     TaroNuke:
     Hard:
     16:
     0.793,0.953,0.559,0.717,0.725:
0000
0000
0000
0000
,
1002
0000
0000
0203
0000
0000
0310
0000
1000
0001
0000
0010
0000
0100
0000
1000
,
0001
0000
1000
0000
0010
0100
0000
0010
0100
0000
0101
0000
0000
0110
0000
0000
,
2001
0000
0000
3200
0000
0000
0310
0000
0001
1000
0001
0000
0100
0000
0010
0000
,
0000
1000
0000
0000
0001
0000
0010
0100
0010
0000
0002
0000
0000
0103
0000
0000
,
1002
0000
0000
0103
0000
0000
1000
0000
0100
0000
0010
0000
0001
0000
1000
0000
,
0010
0000
0100
0000
0000
0010
0000
0000
1000
0000
0000
1000
0000
0000
0001
0000
,
0020
0000
0130
1100
,
2001
0000
0000
3001
0000
0000
0001
0000
0100
0010
0100
0000
1002
0000
0000
1003
,
0000
0000
1000
0000
0100
0010
0100
0000
1100
0000
0000
0000
1100
0000
0000
0000
,
1002
0000
0000
1003
0000
0000
0200
0000
0010
0000
0300
0000
2001
0000
0000
3001
,
0000
0020
0100
0030
0110
0000
0110
0000
,
2001
0000
0000
0000
0000
0000
0000
0000
0000
3001
0000
0000
0000
0000
0000
0000
0010
0000
0000
0000
0100
0000
0000
0000
0010
0000
0000
0000
0000
0000
0000
0000
0000
0000
0000
0000
1002
0000
0000
0000
0000
0000
0000
0000
0000
1003
0000
0000
,
0000
0010
0100
0010
0000
0000
0101
0000
0000
1001
0000
0000
,
1200
0000
0310
0011
,
2000
0000
0000
3020
0000
0000
0230
0000
0000
0000
0302
0000
0000
0000
0000
0000
,
0000
0000
0000
0000
0000
0000
0000
0013
,
0200
0000
0000
0000
,
2300
0000
0000
0020
3000
0000
0000
0000
0000
0000
0000
0000
0000
0000
0000
0230
,
0000
0302
0000
0000
0000
0000
0000
0000
,
0000
0000
0000
0000
,
2003
0000
0000
0000
,
3100
0000
0010
0000
0001
1000
0000
0010
0000
1000
0000
0001
0010
0000
0100
0000
,
1000
0000
0000
0000
1100
0000
0000
0000
0001
0000
0000
0100
0010
0000
0110
0000
,
0000
0000
0000
0000
0101
0000
0000
0000
1000
0000
0000
0100
0010
0000
0110
0000
,
0000
0000
0000
0000
0001
0000
1000
0000
0001
0000
0000
1000
0010
0000
0110
0000
,
0000
0001
0010
1000
0010
0001
0101
0000
,
1000
0000
0010
0000
0000
0010
0000
0000
0100
0000
0000
0001
0000
0000
0010
0000
,
0100
0000
0000
1000
0000
0000
0001
0000
0100
0000
0000
0010
0000
1000
0100
0000
,
0010
0001
1000
0010
1000
0001
0010
0100
,
1100
0000
0000
0001
0000
0000
0201
0000
0000
0000
0000
0000
0310
0000
0000
0000
,
1001
0000
0000
0000
,
1000
0100
0010
0001
0100
1000
0100
0010
,
1000
0001
0010
0100
0001
0100
0010
0001
,
1000
0010
0000
0010
0100
0000
0100
0001
0000
0001
1000
0000
0100
0000
0010
0000
,
0001
0000
0100
0000
0010
1000
0000
0001
0000
0010
0000
0100
0000
0000
1000
0000
,
0002
0000
0100
0000
0000
0100
0000
0000
2003
0000
0000
0010
0000
0000
0001
0000
,
3200
0000
0000
0010
0000
0000
0001
0000
0320
0000
0000
1000
0000
0000
0100
0000
,
0031
0000
0000
0000
1000
0010
0100
0001
0000
0100
0000
0010
0000
1000
0000
0001
,
0020
0000
0000
0230
0000
0000
2300
0000
0000
3020
0000
0000
0130
0000
0001
0000
,
2001
0000
0000
3100
0000
0000
0120
0000
0000
0000
0000
0000
0031
0000
0000
0000
,
1001
0000
0000
0000
0000
0000
0000
0000
0001
0010
0000
0100
0000
0010
0001
0000
,
2000
0000
3001
0100
0001
0100
0001
0100
0001
0100
0001
0100
0001
0100
0001
0100
,
0001
0100
0001
0100
0001
0100
0001
0100
0020
0000
0000
2030
0000
0000
3002
0000
,
0000
0000
1003
0100
1000
0100
1000
0100
1000
0100
1000
0100
1000
0100
1000
0100
,
1000
0100
1000
0100
1000
0100
0020
0000
0032
0000
0000
0203
0000
0000
0320
0000
,
0000
0000
1030
0100
1000
0001
1000
0001
0100
0001
0100
0001
0100
0010
0100
0010
,
1000
0000
1000
0100
0000
0100
0010
0000
0010
0001
0000
0001
1000
0010
0100
0010
,
2000
0000
0000
3200
0000
0000
0320
0000
0032
0000
0000
2003
0000
0000
0020
0000
,
0000
3030
0110
1001
,
2000
0000
3001
0100
0010
0100
0001
0100
0001
0100
0001
0100
0010
0100
0001
0100
,
0001
0100
0001
0100
0010
0100
0001
0100
0002
0000
0000
0023
0000
0000
0230
0000
,
0300
0000
1000
0100
0010
0100
1000
0100
1000
0100
1000
0100
0010
0100
1000
0100
,
1000
0100
1000
0100
0010
0100
2000
0000
3002
0000
0000
0203
0000
0000
0320
0000
,
0030
0000
0002
0003
0020
0030
2000
3000
,
0002
0000
0000
0023
0000
0000
0230
0000
0300
0000
1000
0000
0010
0000
0100
0000
,
0101
0000
0000
0001
0000
0000
0010
0000
0110
0000
0000
0000
1001
0000
0000
0000
,
1010
0000
0000
0110
0000
0000
0101
0000
0000
0000
1001
0000
1000
0100
1000
0000
,
1001
0000
0100
0010
1010
0000
0101
0000
,
2001
0000
0000
3001
0000
0000
0001
0000
0100
0010
0100
0000
1002
0000
0000
1003
,
0000
0000
1000
0000
0100
0010
0100
0000
1100
0000
0000
0000
1100
0000
0000
0000
,
1002
0000
0000
1003
0000
0000
0200
0000
0010
0000
0300
0000
2001
0000
0000
3001
,
0000
0020
0100
0030
0110
0000
0110
0000
,
2001
0000
0000
0000
0000
0000
0000
0000
0000
3001
0000
0000
0000
0000
0000
0000
0010
0000
0000
0000
0100
0000
0000
0000
0010
0000
0000
0000
0000
0000
0000
0000
0000
0000
0000
0000
1002
0000
0000
0000
0000
0000
0000
0000
0000
1003
0000
0000
,
0000
0010
0100
0010
0000
0000
0101
0000
0000
1001
0000
0000
,
1200
0000
0320
0032
,
1003
0000
0000
0220
0330
0000
0202
0303
0000
0000
1001
0000
1000
0100
1000
0000
,
0002
0000
0103
0010
0100
0010
0100
0010
0100
0010
0100
0010
0100
0010
0100
0010
,
0100
0010
0100
0010
0200
0000
0000
0000
0301
1000
0001
0000
0010
0000
0100
0000
,
2000
0000
0000
3020
0000
0000
0130
0000
0001
0000
1000
0000
0010
0100
0010
0000
,
1000
0000
1000
0001
0000
0001
0010
0000
0010
0100
0000
0100
1000
0000
0001
0000
,
1000
0000
0000
0000
0001
0100
0001
0000
1000
0000
0100
0010
0100
0000
1000
0000
,
0001
0100
0001
0000
1000
0000
0100
0010
0100
0000
1000
0000
1001
0000
0000
0000
,
0101
0000
0100
0110
0000
1010
0000
2002
,
0000
0000
0003
0000
,
3100
0010
0100
0010
0100
0010
0100
0010
0100
0010
0100
0010
0100
0000
0000
0000
,
1001
0000
0000
1001
0000
0000
0000
0000
0000
0000
0000
0000
0000
0000
0000
0000
;

//---------------dance-single - TaroNuke----------------
#NOTES:
     dance-single:
     TaroNuke:
     Medium:
     13:
     0.661,0.604,0.759,0.534,0.325:
0000
0000
0000
0000
,
1001
0000
0000
1001
0000
0000
0000
0000
1000
0010
0000
0100
0000
0010
0000
0100
,
0001
0000
0000
0000
1000
0100
0000
1000
0100
0000
0010
0000
0000
0001
0000
0000
,
1001
0000
0000
1001
0000
0000
1000
0000
0020
0000
0000
0000
0130
0000
0001
0000
,
0000
0010
0000
0000
0100
0000
0000
1000
0000
0000
1020
0000
0000
0130
0000
0000
,
1001
0000
0000
1001
0000
0000
0001
0000
0100
0000
0010
0000
1000
0000
0001
0000
,
0010
0000
0100
0000
0000
1000
0000
0000
0001
0000
0000
0001
0000
0000
0100
0000
,
0110
0000
0101
1100
,
1001
0000
0000
1001
0000
0000
1000
0000
0010
0000
0100
0000
1001
0000
0000
1001
,
0000
0001
0010
0100
1100
0000
1100
0000
,
1001
0000
0000
1001
0000
0000
0002
0000
0013
0000
0000
0000
1001
0000
0000
1001
,
0000
2000
3010
0000
0101
0000
0101
0000
,
1001
0000
0000
0000
0000
0000
0000
0000
0000
1001
0000
0000
0000
0000
0000
0000
0010
0000
0000
0000
0000
0000
0000
0000
0100
0000
0000
0000
0000
0000
0000
0000
0000
0000
0000
0000
1001
0000
0000
0000
0000
0000
0000
0000
0000
1001
0000
0000
,
0000
0100
0000
0010
0000
0000
1100
0000
0000
1001
0000
0000
,
0201
0000
0320
2030
,
3001
0000
0000
0110
0000
0000
1100
0000
0000
0000
2002
0000
0000
0000
0003
0000
,
0000
0000
0000
0000
,
3020
0000
0000
0000
,
0230
0000
0000
0000
0000
0000
0000
0000
0000
0000
0000
0000
0000
0000
0000
0302
,
0000
0023
0000
0000
0000
0000
0000
0000
,
0000
0000
0000
0000
,
0230
0000
0000
0000
,
1300
0010
0100
0001
1000
0100
0010
0001
,
1000
0000
0000
0000
1001
0000
0000
0000
0001
0000
0000
0010
0000
0000
0110
0000
,
0000
0000
0000
0000
1001
0000
0000
0000
1000
0000
0000
0010
0000
0000
0110
0000
,
0000
0000
0000
0000
1001
0000
0000
0000
0001
0000
0000
1000
0000
0000
1100
0000
,
0000
1001
0110
0110
,
1000
1100
0001
0101
,
0100
0000
0000
0010
0000
0000
1000
0000
0001
0000
0000
0010
0000
0000
0100
0000
,
1000
1010
0001
0011
,
1002
0000
0000
0103
0000
0000
2001
0000
0000
0000
0000
0000
3010
0000
0000
0000
,
1001
0000
0000
0000
0001
1000
0001
0000
,
1000
0100
0010
0001
0100
0010
0100
0001
,
1000
0001
0010
0100
1000
0010
0100
0001
,
0000
0010
0000
0000
0100
0000
0000
1000
0000
0000
0001
0000
0100
0000
0010
0000
,
1000
0000
0100
0000
0010
0000
0000
0001
0000
0100
0000
0010
0000
0000
1000
0000
,
0002
0000
0100
0000
0000
0100
0000
0000
2003
0000
0000
0100
0000
0000
0100
0000
,
3002
0000
0000
0010
0000
0000
0100
0000
2003
0000
0000
0010
0000
0000
0001
0000
,
3100
0000
0000
0000
0000
0000
0000
0001
0000
0100
0000
0010
0000
1000
0000
1000
,
0002
0000
0000
0023
0000
0000
0230
0000
0000
2300
0000
0000
3001
0000
0100
0000
,
0001
0000
0000
2001
0000
0000
0010
0000
,
3001
0000
0000
0000
0000
0000
0000
0000
1000
0100
0000
0010
0000
0100
1000
0000
,
0001
0100
0100
0100
0100
0100
0100
0100
,
0100
0000
0100
0000
0100
0000
0100
0000
0020
0000
0000
2030
0000
0000
3002
0000
,
0000
0013
0010
0010
0010
0010
0010
0010
,
0010
0000
0010
0000
0010
0000
0200
0000
2300
0000
0000
3002
0000
0000
0203
0000
,
0000
0310
0010
1000
1000
0001
0001
0010
,
0010
0000
0010
0100
0000
0100
1000
0000
1000
0001
0000
0001
0100
0000
0010
0000
,
0200
0000
0000
0302
0000
0000
2003
0000
3200
0000
0000
0310
0000
0000
1001
0000
,
0000
1000
0010
0100
0101
0000
1100
0000
,
0001
0100
0001
0100
0100
0100
0001
0100
,
0100
0000
0100
0000
0001
0000
0100
0000
0020
0000
0000
1030
0000
0000
2001
0000
,
0000
3100
1000
0100
0100
0100
1000
0100
,
0100
0000
0100
0000
1000
0000
0020
0000
0230
0000
0000
0302
0000
0000
0023
0000
,
0000
0030
0000
0000
2000
0000
3000
0000
0020
0000
0030
0000
0002
0000
0003
0000
,
2000
0000
0000
3020
0000
0000
0230
0000
0300
0000
0001
0000
0010
0000
0100
0000
,
1100
0000
0000
0001
0000
0000
0100
0000
0110
0000
0000
0000
1001
0000
0000
0000
,
0011
0000
0000
0110
0000
0000
1100
0000
0000
0000
1001
0000
0000
0000
0000
0000
,
0001
0100
0010
1000
1100
0000
0101
0000
,
1001
0000
0000
1001
0000
0000
0001
0000
0010
0000
0100
0000
1001
0000
0000
1001
,
0000
1000
0010
0100
0101
0000
0101
0000
,
1001
0000
0000
1001
0000
0000
0200
0000
0310
0000
0000
0000
1001
0000
0000
1001
,
0000
0020
0130
0000
1100
0000
1100
0000
,
1001
0000
0000
0000
0000
0000
0000
0000
0000
1001
0000
0000
0000
0000
0000
0000
0010
0000
0000
0000
0000
0000
0000
0000
0100
0000
0000
0000
0000
0000
0000
0000
0000
0000
0000
0000
1001
0000
0000
0000
0000
0000
0000
0000
0000
1001
0000
0000
,
0000
0100
0000
0010
0000
0000
0101
0000
0000
1001
0000
0000
,
1200
0000
0320
0032
,
1003
0000
0000
0110
0000
0000
0101
0000
0000
0000
1001
0000
1000
0000
0001
0000
,
2000
3100
0100
0100
0100
0100
0020
0130
,
0100
0100
0100
1000
0001
0100
0010
0100
,
0002
0000
0000
0023
0000
0000
0130
0000
1000
0000
0010
0000
0100
0000
0001
0000
,
0010
0000
0010
0100
0000
0100
1000
0000
1000
0010
0000
0010
0200
0000
0000
0000
,
0301
0000
2000
3100
0000
0002
0103
0000
,
2000
3100
0000
0002
0103
0000
1001
0000
,
1100
0000
0100
0110
0000
0011
0000
2002
,
0000
0000
3000
0000
,
0103
0100
0100
0100
0100
0100
0100
0000
,
1001
0000
0000
1001
0000
0000
0000
0000
0000
0000
0000
0000
0000
0000
0000
0000
;
