#TITLE:LINN 1999;
#SUBTITLE:;
#ARTIST:dj nagureo;
#TITLETRANSLIT:;
#SUBTITLETRANSLIT:;
#ARTISTTRANSLIT:;
#GENRE:HARENTI TECHNO;
#CREDIT:;
#BANNER:LINN 1999.png;
#BACKGROUND:LINN 1999-bg.png;
#LYRICSPATH:;
#CDTITLE:cdtitle.png;
#MUSIC:LINN 1999.ogg;
#OFFSET:-0.439000;
#SAMPLESTART:32.183998;
#SAMPLELENGTH:15.000000;
#SELECTABLE:YES;
#BPMS:0.000000=136.000000
;
#STOPS:
;
#BGCHANGES:0.000=LINN 1999.avi=1.000=0=0=0=StretchNoLoop==CrossFade_Fastest==,
99999=-nosongbg-=1.000=0=0=0 // don't automatically add -songbackground-
;
#KEYSOUNDS:;
#ATTACKS:;

//---------------dance-single - Daff_4K----------------
#NOTES:
     dance-single:
     Daff_4K:
     Beginner:
     1:
     0.087522,0.138369,0.041772,0.000000,0.000000,44.000000,41.000000,3.000000,0.000000,0.000000,0.000000,0.087522,0.138369,0.041772,0.000000,0.000000,44.000000,41.000000,3.000000,0.000000,0.000000,0.000000:
0000
0000
0000
0000
,
0000
0000
0000
0000
,
1000
0000
0000
0000
,
1000
0000
0000
0000
,
0001
0000
0000
0000
,
0001
0000
0000
0000
,
0010
0000
0000
0000
,
0100
0000
0000
0000
,
1000
0000
0000
0000
,
0001
0000
0000
0000
,
1001
0000
0000
0000
,
0000
0000
0000
0000
,
1000
0000
0001
0000
,
1000
0000
0000
0000
,
1001
0000
0000
0000
,
0000
0000
0000
0000
,
0001
0000
1000
0000
,
0001
0000
0000
0000
,
0010
0000
0000
0000
,
0100
0000
0000
0000
,
0010
0000
0000
0000
,
0001
0000
1000
0000
,
0010
0000
0000
0000
,
0100
0000
0000
0000
,
0010
0000
0000
0000
,
1000
0000
0001
0000
,
1001
0000
0000
0000
,
0000
0000
0000
0000
,
0000
0000
0000
0000
,
0000
0000
0000
0000
,
1000
0000
0000
0000
,
1000
0000
0000
0000
,
0001
0000
0000
0000
,
0001
0000
0000
0000
,
0100
0000
0010
0000
,
0100
0000
0000
0000
,
0010
0000
0100
0000
,
0010
0000
0000
0000
,
1000
0000
0000
0000
,
0001
0000
0010
0010
;

//---------------dance-single - Daff_4K----------------
#NOTES:
     dance-single:
     Daff_4K:
     Easy:
     3:
     0.188967,0.247497,0.027848,0.236706,0.000000,95.000000,93.000000,2.000000,17.000000,0.000000,0.000000,0.188967,0.247497,0.027848,0.236706,0.000000,95.000000,93.000000,2.000000,17.000000,0.000000,0.000000:
0000
0000
0000
0000
,
0000
0000
0000
0000
,
2000
3000
0001
1000
,
0002
0003
0100
0010
,
0200
0300
0010
0100
,
0002
0003
2000
3000
,
0001
0010
0001
0000
,
1000
0010
1000
0000
,
0001
1000
0001
0000
,
0010
0100
0010
0100
,
2002
0000
0000
0000
,
0000
0000
3003
0000
,
1000
0010
0100
0000
,
0001
0010
0100
0000
,
0220
0000
0000
0000
,
0000
0000
0000
0330
,
0100
0010
0100
0000
,
1000
0001
1000
0001
,
1000
0010
0100
0000
,
0010
1000
0001
0000
,
0020
0000
0000
0030
,
0100
1000
0001
1000
,
0001
0010
0100
0000
,
0010
0001
1000
0000
,
0020
0000
0000
0030
,
0100
0001
1000
0001
,
2000
0000
3000
0000
,
0002
0000
0003
0000
,
2000
0000
3000
0000
,
0002
0000
0003
0000
,
1000
0010
0100
0010
,
1000
0001
1000
0000
,
0001
0010
0100
0010
,
0001
1000
0001
0000
,
1000
0010
0001
0000
,
0001
0010
1000
0000
,
0001
0010
1000
0000
,
1000
0010
0001
0000
,
0200
0000
0300
0000
,
0020
0000
0030
0000
;

//---------------dance-single - Daff_4K----------------
#NOTES:
     dance-single:
     Daff_4K:
     Medium:
     7:
     0.314282,0.388651,0.125315,0.375945,0.000000,158.000000,149.000000,9.000000,27.000000,0.000000,0.000000,0.314282,0.388651,0.125315,0.375945,0.000000,158.000000,149.000000,9.000000,27.000000,0.000000,0.000000:
0000
0000
0000
0000
,
0000
0000
0000
0000
,
2000
0010
3001
1000
,
0002
0010
1003
0001
,
0200
0010
0301
1000
,
0002
0003
2000
3000
,
2002
3003
0001
1000
,
2200
3300
0010
0001
,
0202
0303
0010
1000
,
1001
1001
0110
0110
,
2001
0000
0000
0100
,
0000
0000
0000
3100
,
2000
0010
3001
1000
,
0002
0010
1003
0001
,
1002
0000
0000
0100
,
0000
0100
0000
0100
0000
0103
0000
0001
,
0020
0000
0130
0000
1000
0001
1000
0000
,
0020
0100
0100
0130
,
0001
0010
0001
0000
1000
0000
0001
0000
,
1000
0010
1000
0000
0001
0000
1000
0000
,
0200
0000
0010
0310
,
0002
0000
1003
0000
0010
0100
0010
0000
,
1000
0100
1000
0000
0001
0000
1000
0000
,
0001
0100
0001
0000
1000
0000
0001
0000
,
0020
0000
0100
0130
,
2000
0000
3001
0000
0100
0010
0100
0010
,
2000
0000
0100
3100
,
0002
0000
0100
0103
,
2000
0000
0010
3010
,
0002
0000
0010
0013
,
1000
0100
0001
0100
,
1000
0000
0001
0000
0100
0010
0100
0000
,
0001
0100
1000
0100
,
0001
0000
1000
0000
0100
0010
0100
0000
,
1000
0001
1000
0001
0000
0100
0000
0000
,
0010
0100
0010
0100
0000
0001
1000
0000
,
0001
1000
0001
1000
0000
0100
0000
0000
,
0010
0100
0010
0100
0000
1000
0001
0000
,
0200
0000
0010
0310
,
2000
0000
0000
0000
0001
0000
0001
3001
;

//---------------dance-single - Daff_4K----------------
#NOTES:
     dance-single:
     Daff_4K:
     Hard:
     11:
     0.531097,0.611694,0.348097,0.431641,0.125315,267.000000,242.000000,25.000000,31.000000,0.000000,0.000000,0.531097,0.611694,0.348097,0.431641,0.125315,267.000000,242.000000,25.000000,31.000000,0.000000,0.000000:
0000
0000
0000
0000
,
0000
0000
0000
0000
,
1000
0010
0200
0000
0310
1000
0002
0000
,
1003
0100
0010
0100
1000
0010
0200
0000
,
0301
0010
0200
0000
0310
0001
2000
0000
,
3001
0100
0010
0100
0001
0010
0100
0000
,
1100
0000
0011
0000
0001
1000
0010
0000
,
0101
0000
1010
0000
1000
0001
0010
0000
,
0110
0000
1001
0000
0001
1000
0010
0100
,
0001
0000
1000
0001
1000
0000
0100
0010
0100
0010
0100
0010
0100
0000
1000
0001
,
2000
0010
3100
1010
,
1002
0010
0103
0011
,
0001
0100
2000
0000
3100
0001
2000
0000
,
3001
0010
0100
0010
0001
1000
0010
0000
,
0210
1000
0301
1001
,
0000
0110
0000
0110
0000
0110
0000
1001
,
1000
0100
0002
0000
0103
1000
0002
0000
,
1003
0000
0001
1000
0001
0000
0100
0010
0100
0010
0100
0010
0100
0000
0001
1000
,
0001
0010
0100
1000
0010
0100
0000
2001
,
0000
3100
0010
0001
0100
0020
0000
1030
,
0002
0010
1000
0103
,
0110
0000
0000
0000
1001
0000
0000
0000
1000
0000
0001
1000
0002
0000
0000
0000
,
1003
0010
0100
0001
0010
0100
0000
1002
,
0000
0103
0010
1000
0100
0020
0000
0031
,
2000
0010
0001
3100
,
1000
0000
0001
1000
0001
0000
0010
0100
0010
0100
0010
0100
0010
0000
0001
1000
,
0002
0000
0103
0000
2000
0010
3010
0000
,
2000
0000
3100
0000
0002
0010
0013
0000
,
0002
0000
0103
0000
2000
0010
3010
0000
,
2000
0000
3100
0000
0002
0010
0013
0000
,
0001
0100
1000
0100
0001
0010
0100
1000
,
0010
0001
0010
1000
0100
0010
0001
0000
,
1000
0100
0001
0100
1000
0010
0100
0001
,
0010
0000
1000
0000
0010
0000
0001
0000
0100
0000
0010
0000
1000
0001
1000
0000
,
0001
0010
0100
1000
0000
0101
0000
1001
,
0001
0100
0010
1000
0000
1001
0000
0001
,
1000
0010
0100
0001
0000
1100
0000
1001
,
1000
0100
0010
0001
0000
1001
0000
1000
,
0002
0103
2000
3100
,
0002
0000
0000
0000
0013
0000
0000
0000
2000
0000
0000
0000
3010
0000
0100
0010
;

//---------------dance-single - Daff_4K (DRS Style)----------------
#NOTES:
     dance-single:
     Daff_4K (DRS Style):
     Challenge:
     9:
     0.334173,0.359759,0.320250,0.375945,0.000000,168.000000,145.000000,23.000000,27.000000,128.000000,0.000000,0.334173,0.359759,0.320250,0.375945,0.000000,168.000000,145.000000,23.000000,27.000000,128.000000,0.000000:
// measure 0
0000
0000
0000
0000
,  // measure 1
0000
0000
0000
0000
,  // measure 2
0001
0010
0001
1000
,  // measure 3
1000
0010
1000
0001
,  // measure 4
0001
0100
0001
1000
,  // measure 5
2100
3001
0102
1003
,  // measure 6
2000
0000
3100
1001
,  // measure 7
0002
0000
0103
1001
,  // measure 8
2000
0000
3100
1001
,  // measure 9
0001
MMMM
1000
MMMM
0001
MMMM
1000
MMMM
,  // measure 10
0002
0010
1000
0100
,  // measure 11
1000
0010
1000
0100
,  // measure 12
1003
0010
1000
1001
,  // measure 13
0001
0010
0001
1001
,  // measure 14
2000
0010
0001
3100
,  // measure 15
0000
1001
0000
0110
0000
1001
0000
1000
,  // measure 16
0001
0010
0001
1001
,  // measure 17
1000
MMMM
0001
MMMM
1000
MMMM
0001
MMMM
,  // measure 18
1000
MMMM
1000
MMMM
2000
0000
3001
0000
,  // measure 19
1000
MMMM
1000
MMMM
2000
0000
3001
0000
,  // measure 20
0002
0010
1000
0103
,  // measure 21
2001
3100
1002
0103
,  // measure 22
0001
MMMM
0001
MMMM
0002
0000
1003
0000
,  // measure 23
0001
MMMM
0001
MMMM
0002
0000
1003
0000
,  // measure 24
2000
0010
0001
3100
,  // measure 25
1002
0103
2001
3100
,  // measure 26
2000
0000
3010
1001
,  // measure 27
0002
0000
0013
1001
,  // measure 28
2000
0000
3100
1001
,  // measure 29
0002
0000
0103
1001
,  // measure 30
1000
MMMM
1000
MMMM
1000
0010
0001
0010
,  // measure 31
1000
MMMM
1000
MMMM
1000
0000
1001
0000
,  // measure 32
0001
MMMM
0001
MMMM
0001
0010
1000
0010
,  // measure 33
0001
MMMM
0001
MMMM
0001
0000
1001
0000
,  // measure 34
1000
MMMM
0001
MMMM
1000
0000
1001
0000
,  // measure 35
0001
MMMM
1000
MMMM
0001
0000
1001
0000
,  // measure 36
2000
0010
3002
0010
,  // measure 37
1003
MMMM
0001
MMMM
1000
MMMM
0001
MMMM
,  // measure 38
2000
0000
0002
3003
,  // measure 39
0002
0000
2000
3003
;
