#TITLE:Endless Night;
#SUBTITLE:;
#ARTIST:Dreamcatcher;
#TITLETRANSLIT:;
#SUBTITLETRANSLIT:;
#ARTISTTRANSLIT:;
#GENRE:;
#CREDIT:;
#BANNER:;
#BACKGROUND:;
#LYRICSPATH:;
#CDTITLE:;
#MUSIC:Endless Night.ogg;
#OFFSET:-0.179311;
#SAMPLESTART:49.619999;
#SAMPLELENGTH:12.799999;
#SELECTABLE:YES;
#DISPLAYBPM:165.000000;
#BPMS:0.000000=165.000000
;
#STOPS:
;
#BGCHANGES:;
#KEYSOUNDS:;
#ATTACKS:;

//---------------dance-single - ----------------
#NOTES:
     dance-single:
     :
     Hard:
     17:
     0.803997,1.083826,0.285796,0.674185,0.648537,768.000000,729.000000,39.000000,92.000000,10.000000,0.000000,0.803997,1.083826,0.285796,0.674185,0.648537,768.000000,729.000000,39.000000,92.000000,10.000000,0.000000:
// measure 0
0000
0000
0000
0000
,  // measure 1
0000
0000
0000
0000
,  // measure 2
0000
0000
0000
0000
,  // measure 3
0000
0000
0000
0000
,  // measure 4
0000
0000
0000
0000
,  // measure 5
0000
0000
0000
0000
,  // measure 6
0001
0000
1000
0000
0010
0000
0000
0100
0001
0000
1000
0000
0001
0000
0020
0000
,  // measure 7
0000
0130
0010
0100
0001
0100
1000
0100
,  // measure 8
0010
0100
M000
0100
0001
0010
0M00
0010
,  // measure 9
1000
0000
0100
0000
1000
0000
0001
0100
0001
0100
0001
0100
0001
0100
0001
0100
,  // measure 10
0010
1000
0000
1000
0001
0010
0000
0010
,  // measure 11
0100
0010
0000
0010
0001
1000
0000
1000
,  // measure 12
0010
0100
0000
0100
0001
1000
0000
1000
,  // measure 13
0100
1000
0000
1000
0001
0010
0000
0001
,  // measure 14
0100
0010
0000
0010
1000
0001
0000
0001
,  // measure 15
0010
0100
0000
0100
1000
0001
0000
0001
,  // measure 16
0100
0001
0000
0001
1000
0010
0000
0010
,  // measure 17
0100
0000
0010
0000
0000
0000
0010
0000
1000
0000
0001
0000
0010
0000
0100
1000
,  // measure 18
0001
0000
0100
0000
00M0
0000
0200
0000
0010
0000
1300
0000
0001
0000
0100
0001
,  // measure 19
1000
0000
0100
0000
00M0
0000
0200
0000
0010
0000
0301
0000
1000
0000
0001
1000
,  // measure 20
0010
0100
00M0
0200
0010
1300
0000
0001
,  // measure 21
0100
0000
1000
0000
0000
0000
0001
0000
0010
0000
1000
0000
0001
0000
0010
0100
,  // measure 22
1000
0000
0010
0000
0M00
0000
0020
0000
0001
0000
0130
0000
1000
0000
0010
0100
,  // measure 23
0001
0000
0010
0000
0M00
0000
0020
0000
1000
0000
0130
0000
0001
0000
1000
0100
,  // measure 24
0010
0100
M000
0200
0001
0310
M000
0020
,  // measure 25
0001
0000
0130
0000
M000
0000
0100
0000
0001
0010
0100
1000
0001
0000
0000
0000
,  // measure 26
0001
0010
0001
0010
0000
0100
0010
0000
0001
0010
0001
0000
1000
0001
1000
0000
,  // measure 27
0010
1000
0010
1000
0000
0010
0100
0000
0010
1000
0010
0000
1000
0001
1000
0000
,  // measure 28
0001
0100
0010
1000
0000
0010
0100
0000
0001
0010
0100
0000
1000
0100
1000
0000
,  // measure 29
0100
0010
0001
0010
0000
0001
1000
0000
0001
0100
0010
0000
1000
0001
0010
0000
,  // measure 30
0001
0100
0010
1000
0000
0100
1000
0000
0010
0100
0001
0000
0010
0100
1000
0000
,  // measure 31
0010
1000
0001
0010
0000
0100
0010
0000
0001
0100
0010
0000
1000
0100
0010
0000
,  // measure 32
1001
0000
0000
0000
,  // measure 33
0001
0100
0010
1000
0000
1000
0001
0000
0010
0001
0100
0000
0100
0001
0010
0000
,  // measure 34
0100
0000
1000
0000
0001
0000
0000
0001
0010
0000
0100
0000
1000
0000
0020
0000
,  // measure 35
0000
0000
2030
0000
3200
0000
0310
0001
1000
0100
1000
0100
0010
0001
0010
0001
,  // measure 36
1000
0000
0010
0000
0100
0000
0000
0100
0010
0000
1000
0000
0001
0000
0020
0000
,  // measure 37
0000
0000
0230
0000
0320
0000
0031
0100
0010
1000
0010
1000
0001
0100
0001
0100
,  // measure 38
0010
0000
1000
0000
0100
0000
0000
0100
0010
0000
0001
0000
0100
0000
2000
0000
,  // measure 39
0000
0000
3200
0000
0302
0000
0013
0100
1000
0010
1000
0010
0100
0001
0100
0000
,  // measure 40
0101
0100
0010
1010
1000
0100
0110
0010
,  // measure 41
0001
0000
1001
0000
0001
0000
0100
0000
0110
0000
1000
0001
0010
0001
0010
0001
,  // measure 42
0010
0000
0100
0000
1000
0000
0000
1000
0001
0000
0100
0000
0010
0000
0002
0000
,  // measure 43
0000
0000
0023
0000
0230
0000
0310
1000
0001
0010
0001
0010
0100
1000
0100
1000
,  // measure 44
0010
0000
0100
0000
0001
0000
0000
0001
0010
0000
0100
0000
0010
0000
2000
0000
,  // measure 45
0000
0000
3020
0000
0032
0000
1003
0010
0100
0001
0100
0001
1000
0100
1000
0100
,  // measure 46
0010
0000
0001
0000
1000
0000
0000
1000
0001
0000
0100
0000
0010
0000
0002
0000
,  // measure 47
0000
0000
0023
0000
0230
0000
0301
0010
0100
1000
0100
1000
0001
0100
0010
0000
,  // measure 48
0101
0100
0010
1010
1000
0100
0110
0010
,  // measure 49
0001
2200
3300
0022
0033
2020
3030
0000
,  // measure 50
0102
0000
0013
0200
0001
0010
0000
0000
,  // measure 51
1300
0001
0100
0020
0001
0130
0000
0000
,  // measure 52
0210
0000
0301
0020
1000
0130
0000
0000
,  // measure 53
0100
1000
0010
0200
1000
0310
0000
1000
,  // measure 54
1100
0000
0000
0000
0100
0000
0020
0000
1000
0000
0130
0000
1000
0010
0100
0020
,  // measure 55
0001
0000
0130
0000
0000
0000
0100
0000
0001
0000
0000
0000
0010
0100
0010
0200
,  // measure 56
0001
0000
0000
0010
0000
0000
1300
0000
0010
0000
0000
0000
0010
0100
0010
0100
,  // measure 57
0001
1000
0001
1000
0001
0010
0001
0010
0100
1000
0001
0010
0100
0000
0010
0000
,  // measure 58
0210
0000
0000
0000
0000
2300
3200
0320
,  // measure 59
0000
0230
2300
3020
0000
0000
0032
0023
,  // measure 60
0000
0200
0000
0000
0000
0030
2300
3200
,  // measure 61
0000
0020
0000
0000
0000
0300
2030
3200
,  // measure 62
0000
0000
0320
0032
0000
2003
3020
0032
,  // measure 63
0000
0023
0000
2030
0000
3002
0000
0023
,  // measure 64
0000
0000
0000
0000
0000
0000
0000
0200
,  // measure 65
0000
0030
0000
2000
0000
0000
0000
3300
,  // measure 66
0001
0100
0001
0100
0010
1000
0001
0010
0001
0010
0100
1000
0001
0100
0001
0100
,  // measure 67
0010
1000
0001
0010
0001
0010
0100
1000
0001
0100
0010
1000
0001
0010
0100
1000
,  // measure 68
0000
0000
2200
0000
,  // measure 69
0000
0300
3001
0202
0000
0000
0000
0300
,  // measure 70
1003
0010
1000
0010
1000
0010
1000
0010
0100
0000
0001
0000
1000
0000
0000
1000
,  // measure 71
0100
0000
0001
0000
0100
0000
0020
0000
0000
0000
0032
0000
0203
0000
0310
1000
,  // measure 72
0001
0100
0001
0010
0100
1000
0001
1000
0100
0000
0010
0000
0001
0000
0000
0001
,  // measure 73
1000
0000
0010
0000
0001
0000
0020
0000
0000
0000
0230
0000
0320
0000
1030
0100
,  // measure 74
0010
0001
1000
0001
0100
0010
0001
0000
0011
0000
0010
0000
1000
0000
1100
0000
,  // measure 75
0100
0010
1010
0010
0001
0101
0100
0010
,  // measure 76
1010
0000
1000
0001
0100
0001
1000
0001
0010
0000
0100
0000
1000
0000
0000
1000
,  // measure 77
0010
0000
0100
0000
0010
0000
0002
0000
0000
0000
2003
0000
3200
0000
0310
1000
,  // measure 78
0001
0010
0100
0010
1000
0010
0100
1000
0001
0000
1000
0000
0010
0000
0000
0010
,  // measure 79
0100
0000
0001
0000
0100
0000
2000
0000
0000
0000
3002
0000
0023
0000
0130
0001
,  // measure 80
1000
0100
0010
0100
0001
0100
0010
0001
1000
0000
0001
0000
0010
0000
0000
0010
,  // measure 81
0100
0000
1000
0000
0100
0000
0002
0000
0000
0000
2003
0000
3020
0000
0130
1000
,  // measure 82
0001
1000
0010
0100
0001
0100
1000
0000
1100
0000
0100
0000
0001
0000
0011
0000
,  // measure 83
0010
1000
1010
0010
0001
2200
3300
0202
,  // measure 84
0303
2020
0000
3030
0101
0010
1100
0010
,  // measure 85
0110
0000
1000
0000
0101
0000
0010
1000
0001
0000
0010
0000
1100
0000
0010
0000
,  // measure 86
0101
0000
0010
0000
0110
0000
1000
0001
0010
0000
0100
0000
1100
0000
0010
0000
,  // measure 87
0101
0000
0010
0000
0110
0000
1000
0000
0001
0000
0010
0001
1000
0001
1000
0000
,  // measure 88
0001
0100
1000
0100
0010
0100
0010
0100
0001
0010
0100
0000
1000
0001
0100
0000
,  // measure 89
0010
1000
0001
0000
0010
0001
1000
0010
1000
0010
0100
0000
0010
1000
0001
0000
,  // measure 90
0010
0100
1000
0000
0010
0000
0100
0001
1000
0001
0100
0000
0010
0000
1000
0100
,  // measure 91
0010
0100
1000
0000
0001
0000
0010
0100
1000
0100
0010
0000
0001
0000
1000
0010
,  // measure 92
0001
0010
0001
0010
0100
0010
1000
0010
0000
0000
0000
0000
0000
0000
0000
0000
;

//---------------dance-single - ----------------
#NOTES:
     dance-single:
     :
     Medium:
     13:
     0.484702,0.779000,0.124578,0.505639,0.076945,463.000000,446.000000,17.000000,69.000000,0.000000,0.000000,0.484702,0.779000,0.124578,0.505639,0.076945,463.000000,446.000000,17.000000,69.000000,0.000000,0.000000:
0000
0000
0000
0000
,
0000
0000
0000
0000
,
0000
0000
0000
0000
,
0000
0000
0000
0000
,
0000
0000
0000
0000
,
0000
0000
0000
0000
,
1000
0001
0100
0010
0000
1000
0001
0020
,
0000
0130
0010
0000
0001
0100
0010
2000
,
0000
3100
0000
1000
0001
0100
0000
0001
,
1000
0100
1000
0020
0000
0000
0000
0130
,
0000
0100
0000
0001
0000
0001
0000
1000
,
0000
1000
0000
0001
0000
0001
0000
0020
,
0000
0000
0000
0030
,
0000
0000
0000
0000
0000
0100
1000
0100
,
0000
0110
0000
1000
0000
1100
0000
0001
,
0000
0101
0000
1000
0000
1010
0000
2002
,
0000
0000
0000
3003
0000
0000
0020
0200
,
0000
0000
0330
0000
0000
0000
0001
0100
,
0000
0020
0000
0001
0000
0000
1030
0100
,
0000
0020
0000
1000
0000
0000
0031
0100
,
0000
0020
0000
0001
0000
0000
0030
1000
,
0100
1000
0000
0001
0010
0100
1000
0010
,
0000
0200
0000
1000
0000
0000
0301
0010
,
0000
0200
0000
0001
0000
0000
1300
0010
,
0000
0200
0000
1000
0000
0320
0000
0001
,
0000
1030
0000
0002
0000
0000
0003
0000
,
1000
0100
1000
0200
0000
1300
0010
2000
,
0000
3001
0100
0002
0000
0010
0013
0000
,
0001
0010
0100
0020
0000
0031
1000
0200
,
0000
1300
0001
0200
0000
0010
0310
0000
,
1000
0010
0100
0002
0000
0013
0100
1000
,
0000
1010
0000
0101
0000
0011
0000
0220
,
0000
0000
0000
0000
0330
0000
0000
1100
,
0000
0110
0000
0022
0000
0000
0033
0000
,
0001
0100
0000
0010
0000
1000
0000
0002
,
0000
0000
1003
0000
0100
0000
0010
0000
0001
0010
0001
0000
1000
0000
0000
0000
,
1000
0010
0000
0100
0000
0001
0000
0020
,
0000
0000
0130
0000
1000
0000
0010
0000
0100
0001
0100
0000
0001
1000
0001
0000
,
0010
0100
0000
1000
0000
0001
0000
0200
,
0000
1300
0100
0001
0000
1000
1000
0000
,
0001
0001
0010
0100
0100
1000
0001
0001
,
0100
0010
0010
1000
0100
0010
0001
0000
,
1000
0100
0000
0010
0000
1000
0000
0020
,
0000
0000
0031
0000
1000
0000
0010
0000
0100
0001
0100
0000
0001
0000
0000
0000
,
0001
0100
0000
0010
0000
0001
0000
0020
,
0000
0000
0130
0000
0001
0000
0010
0000
0100
1000
0100
0000
1000
0001
1000
0000
,
0010
0100
0000
1000
0000
0100
0000
0020
,
0000
1030
0100
0001
0000
0100
0100
0000
,
1000
1000
0010
0100
0100
0001
1000
1000
,
0100
0020
0000
0032
0000
2003
0000
0000
,
3020
0000
0100
0000
,
1030
0001
0020
0000
0100
0000
0000
0000
,
0032
0000
1000
0000
,
0103
0010
2000
0000
3001
1000
0001
0010
,
0000
0100
1000
0010
0000
0100
0001
0010
,
0000
0110
0000
1100
0000
1010
0000
0002
,
0000
0200
0000
0000
0303
0000
0010
1000
,
0000
0100
0000
0010
0000
0001
0000
0022
,
0000
0000
0000
0030
0000
1003
0010
0200
,
0000
0310
1000
0002
0000
0000
0013
0200
,
0000
2000
0000
0000
0300
0000
3010
0200
,
0000
0002
0000
0000
0300
0000
0013
0200
,
0000
0000
0310
0001
0000
1000
0010
0200
,
0000
1300
0000
0100
0000
0001
0000
2000
,
0000
0000
0000
0000
0000
0000
0000
0002
,
0000
0000
0000
3003
,
0001
0100
0001
0000
0100
0000
0010
1000
0010
0000
1000
0000
0100
1000
0100
0000
,
0010
0000
0001
0010
0001
0000
1000
0000
0010
1000
0010
0000
1000
0001
1000
0001
,
0000
0000
0022
0000
,
0033
0000
0200
2000
0000
0000
0300
0000
,
0002
0000
3000
0000
1003
0100
0000
0010
,
0000
1000
0000
0020
0000
0130
1000
0010
,
0100
0001
0100
0000
0001
1000
0001
0000
0010
0000
0100
0000
0000
0000
0001
0000
,
0000
0100
0000
0020
0000
0031
0100
1000
,
0000
0100
0100
0000
0001
0001
0010
0100
,
0100
1000
0001
0001
0100
1000
1000
0100
,
0001
1000
0001
0000
1000
0100
0000
0001
,
0000
1000
0000
0020
0000
0130
0010
0001
,
1000
0001
1000
0001
1000
0000
0000
0000
0001
0000
0100
0000
0000
0000
1000
0000
,
0000
0001
0000
0020
0000
0130
0010
1000
,
0001
1000
0001
1000
0001
0000
0000
0000
0010
0000
0100
0000
0000
0000
0001
0000
,
0000
1000
0000
0020
0000
0130
1000
0010
,
0000
0100
0100
0000
0001
0001
0100
1000
,
1000
0100
0001
2000
0000
3200
0000
0320
,
0000
0032
0000
1003
0001
0100
0001
0100
,
0010
1000
0010
0000
1000
0100
1000
0100
,
0010
0001
0010
0000
0100
1000
0010
0000
,
0100
0001
0010
0000
0001
0100
1000
0100
,
0001
0100
0001
0000
1000
0100
0010
0001
,
1000
0100
0010
0001
1000
0001
0100
0001
,
1000
0010
0100
0010
1000
0100
0010
0100
,
1000
0010
0100
0010
1000
0100
0010
0002
,
1000
0000
1003
0000
0001
0100
0001
0100
0000
0000
0000
0000
0000
0000
0000
0000
;

//---------------dance-double - ----------------
#NOTES:
     dance-double:
     :
     Hard:
     16:
     0.763169,0.948348,0.241827,0.483655,0.538615,729.000000,696.000000,33.000000,66.000000,0.000000,0.000000,0.763169,0.948348,0.241827,0.483655,0.538615,729.000000,696.000000,33.000000,66.000000,0.000000,0.000000:
00000000
00000000
00000000
00000000
,
00000000
00000000
00000000
00000000
,
00000000
00000000
00000000
00000000
,
00000000
00000000
00000000
00000000
,
00000000
00000000
00000000
00000000
,
00000000
00000000
00000000
00000000
,
00000001
00000000
00001000
00000000
00000010
00000000
00000000
00000100
00000010
00000000
00000100
00000000
00001000
00000000
00020000
00000000
,
00000000
01030000
00010000
00001000
00010000
00100000
01000000
00010000
,
00100000
10000000
00000000
10000000
00100000
00010000
00000000
10000000
,
00100000
00000000
00010000
00000000
00001000
00000000
00010000
00000100
00010000
00000100
00010000
00000100
00010000
00000100
00010000
00000100
,
00001000
00000100
00000000
00000100
00000001
00000100
00000000
00000100
,
00001000
00000010
00000000
00000010
00000001
00000010
00000000
00000010
,
00001000
00000100
00000000
00000100
00000001
00000100
00000000
00000100
,
00001000
00000010
00000000
00000010
00000001
00000010
00000000
00010000
,
00001000
01000000
00000000
01000000
10000000
01000000
00000000
01000000
,
00010000
00100000
00000000
00100000
10000000
00100000
00000000
00100000
,
00010000
01000000
00000000
01000000
10000000
01000000
00000000
01000000
,
00010000
00100000
00000000
00100000
10000000
00100000
00001000
00010000
,
00001000
00000100
00000000
00000020
00001000
00000130
00000001
00000010
,
00000100
00001000
00000000
00000020
00000100
00001030
00000100
00010000
,
00001000
01000000
00000000
00200000
10000000
01300000
00000000
00010000
,
00100000
10000000
00000000
10000000
00100000
00001000
00010000
00001000
,
00010000
01000000
00000000
00200000
00010000
01300000
10000000
00100000
,
01000000
00010000
00000000
00200000
01000000
00310000
01000000
00001000
,
00010000
00000100
00000000
00000020
00000001
00000130
00000000
00000200
,
00001000
00000000
00010300
00000000
00000000
00000000
00001000
00000000
00010000
00001000
00010000
00001000
00010000
00000000
00000000
00000000
,
00000100
00010000
00000100
00010000
00000000
00000100
00001000
00000000
00000200
00000000
00000301
00000000
00000200
00000000
00000310
00000000
,
00000001
00001000
00000001
00001000
00000000
00000001
00000100
00000000
00000020
00000000
00000130
00000000
00002000
00000000
00013000
00000000
,
00100000
10000000
00100000
10000000
00000000
00010000
10000000
00000000
02000000
00000000
03010000
00000000
02000000
00000000
03100000
00000000
,
00001000
00010000
00001000
00010000
00000000
00001000
01000000
00000000
00200000
00000000
01300000
00000000
20000000
00000000
31000000
00000000
,
00010000
10000000
00010000
00100000
00000000
01000000
00100000
00000000
00010000
00100000
00010000
00000000
00100000
00001000
00100000
00000000
,
00001000
00010000
00000100
00001000
00000000
00000100
00000010
00000000
00000001
00000010
00000001
00000000
00001000
00000010
00001000
00000000
,
00001001
00000000
00000000
00000000
,
00000001
00000100
00000010
00001000
00000000
00000100
00010000
00000000
00001000
00010000
00001000
00000000
00010000
00001000
00010000
00000000
,
00001000
00000000
00010000
00000000
01000000
00000000
00000000
10000000
00010000
00000000
10000000
00000000
00100000
00000000
02000000
00000000
,
00000000
00000000
03100000
00000000
10000000
00000000
01000000
00000000
00100000
00010000
00100000
00010000
00100000
00001000
00100000
00001000
,
00010000
00000000
00001000
00000000
00000100
00000000
00000000
00000001
00001000
00000000
00000001
00000000
00000010
00000000
00000200
00000000
,
00000000
00000000
00000310
00000000
00000001
00000000
00000100
00000000
00000010
00001000
00000010
00001000
00000010
00010000
00000010
00010000
,
00001000
00000000
00010000
00000000
01000000
00000000
00000000
10000000
00010000
00000000
10000000
00000000
00100000
00000000
02000000
00000000
,
00000000
00000000
03100000
00000000
10000000
00000000
01000000
00000000
00100000
00010000
00100000
00010000
00100000
00001000
00010000
00000000
,
00011000
00001000
00010000
00010100
00000100
00001000
00001100
00000100
,
00000010
00000000
00000011
00000000
00000001
00000000
00000100
00000000
00000110
00000000
00001000
00000001
00001000
00000000
00000000
00000000
,
00000001
00000000
00000100
00000000
00001000
00000000
00000000
00010000
00001000
00000000
00000100
00000000
00001000
00000000
00020000
00000000
,
00000000
00000000
01030000
00000000
00100000
00000000
00010000
00000000
10000000
00100000
10000000
00100000
01000000
00010000
01000000
00010000
,
10000000
00000000
01000000
00000000
00010000
00000000
00000000
00001000
00010000
00000000
01000000
00000000
00010000
00000000
00002000
00000000
,
00000000
00000000
00003100
00000000
00000010
00000000
00001000
00000000
00000001
00000010
00000001
00000010
00000100
00001000
00000100
00001000
,
00000001
00000000
00000100
00000000
00001000
00000000
00000000
00010000
00001000
00000000
00000100
00000000
00001000
00000000
00020000
00000000
,
00000000
00000000
01030000
00000000
00100000
00000000
00010000
00000000
10000000
00100000
10000000
00100000
01000000
00010000
10000000
00000000
,
11000000
01000000
00100000
00110000
00010000
01000000
01001000
00001000
,
00010000
00020200
00030300
00002200
00003300
00002002
00003003
00000000
,
00000102
00000000
00001003
00000020
00000100
00001030
00000000
00000000
,
00000100
00010000
00001000
02000000
00010000
03100000
00000000
00000000
,
20100000
00000000
30010000
00200000
01000000
00310000
00000000
00000000
,
00100000
00001000
00010000
00000020
00001000
00000130
00000000
00000000
,
00000102
00000000
00000000
00000000
00001003
00000000
00000200
00000000
00000010
00000000
00001300
00000000
00000100
00010000
00000100
00020000
,
00001000
00000000
00030100
00000000
00000000
00000000
00001000
00000000
00000100
00000000
00000000
00000000
00010000
00001000
00010000
00002000
,
01000000
00000000
00000000
00013000
00000000
00000000
00000100
00000000
00001000
00000000
00000000
00000000
00000100
00010000
00000100
00000000
,
00010000
00001000
00010000
00001000
00010000
00000000
00001000
00000000
01000000
00010000
01000000
00100000
10000000
00000000
00010000
00000000
,
20000000
00000000
00000000
00000000
00000000
31000000
00100000
00002000
,
00000000
00013000
00000100
00000020
00000000
00000000
00000031
00000200
,
00000000
00002300
00000000
00000000
00000000
00000000
00013000
02000000
,
00000000
23000000
00000000
00000000
00000000
00000000
30010000
02000000
,
00000000
00000000
03100000
00020000
00000000
00031000
00010000
00000200
,
00000000
00000320
00000000
00002030
00000000
00003020
00000000
00000230
,
00000000
00000000
00000000
00000000
00000000
00000000
00000000
00020000
,
00000000
00000000
00000000
00030300
,
00001000
00010000
00001000
00010000
00001000
00000000
01000000
00010000
01000000
00010000
01000000
00000000
00100000
10000000
00100000
10000000
,
00100000
00000000
10000000
00010000
10000000
00010000
10000000
00000000
01000000
00100000
00001000
00000000
00010000
00001000
00010000
00001000
,
00000000
00000000
00010200
00000000
,
00000000
00000000
00000010
00000020
00000000
00000000
00000330
00000000
,
00000001
00001000
00000001
00001000
00000001
00001000
00000001
00001000
00000010
00000000
00000100
00000000
00001000
00000000
00000000
00001000
,
00010000
00000000
00100000
00000000
10000000
00000000
00020000
00000000
00000000
00000000
00130000
00000000
01000000
00000000
10000000
00010000
,
10000000
00100000
01000000
00010000
01000000
00100000
10000000
00010000
00100000
00000000
01000000
00000000
00010000
00000000
00000000
00010000
,
00001000
00000000
00000010
00000000
00000001
00000000
00002000
00000000
00000000
00000000
00003010
00000000
00000100
00000000
00000001
00001000
,
00000001
00000010
00000100
00001000
00000100
00000010
00000001
00000000
00000011
00000000
00000100
00000000
00001000
00000000
00001100
00000000
,
00010000
00001000
00011000
01000000
00010000
01010000
00100000
10000000
,
10100000
00000000
00010000
10000000
00010000
10000000
00010000
10000000
01000000
00000000
00100000
00000000
00001000
00000000
00000000
00001000
,
00000100
00000000
00001000
00000000
00010000
00000000
00002000
00000000
00000000
00000000
00103000
00000000
00010000
00000000
00001000
00000100
,
00000010
00000100
00001000
00000001
00001000
00000010
00001000
00000010
00000100
00000000
00000010
00000000
00010000
00000000
00000000
00010000
,
01000000
00000000
00010000
00000000
00001000
00000000
00020000
00000000
00000000
00000000
00030010
00000000
00001000
00000000
00010000
01000000
,
00100000
01000000
00010000
10000000
00010000
00100000
00010000
00100000
01000000
00000000
00100000
00000000
00001000
00000000
00000000
00001000
,
00000100
00000000
00001000
00000000
00010000
00000000
00002000
00000000
00000000
00000000
00103000
00000000
00010000
00000000
00001000
00000100
,
00000010
00000100
00001000
00000001
00001000
00000010
00000100
00000000
00000110
00000000
00001000
00000000
00000100
00000000
00010100
00000000
,
00001000
01000000
01001000
00010000
01000000
02200000
03300000
02020000
,
03030000
20020000
00000000
30030000
10000000
01000000
01100000
00100000
,
00101000
00000000
00001000
00000000
00000100
00000000
00000001
00001000
00000001
00000000
00000010
00000000
00000110
00000000
00000100
00000000
,
00010100
00000000
00010000
00000000
00100000
00000000
10000000
00010000
10000000
00000000
01000000
00000000
01100000
00000000
00100000
00000000
,
00101000
00000000
00001000
00000000
00000100
00000000
00000010
00001000
00000001
00000000
00000010
00000100
00000010
00000100
00000010
00000000
,
00000001
00001000
00000001
00001000
00000001
00001000
00000001
00001000
00000001
00000100
00000001
00000000
00001000
00000100
00001000
00000000
,
00000100
00010000
00000100
00000000
00010000
00001000
00010000
00001000
01000000
00000000
00010000
00000000
10000000
00100000
10000000
00000000
,
00010000
01000000
00010000
00000000
00100000
00000000
00001000
00100000
00010000
00100000
00001000
00000000
00010000
00000000
00001000
00010000
,
00000010
00010000
00001000
00000000
00010000
00000000
00000100
00001000
00000001
00001000
00000100
00000000
00000010
00000000
00000001
00001000
,
00000001
00001000
00000010
00000100
00000010
00000100
00000010
00001000
00000000
00000000
00000000
00000000
00000000
00000000
00000000
00000000
;
