#TITLE:Rising on the horizon;
#SUBTITLE:;
#ARTIST:TAG;
#TITLETRANSLIT:;
#SUBTITLETRANSLIT:;
#ARTISTTRANSLIT:;
#GENRE:;
#CREDIT:;
#BANNER:Rising on the horizon.png;
#BACKGROUND:Rising on the horizon-bg.png;
#LYRICSPATH:;
#CDTITLE:../_YSD cdtitles/ysd br2023 cdtitle.png;
#MUSIC:Rising on the horizon.ogg;
#OFFSET:-0.003000;
#SAMPLESTART:43.966999;
#SAMPLELENGTH:19.200001;
#SELECTABLE:YES;
#DISPLAYBPM:200.000000;
#BPMS:0.000000=200.000000
,274.000000=100.000000
,278.000000=200.000000
;
#STOPS:64.000000=0.300000,
143.000000=0.300000
;
#BGCHANGES:;
#KEYSOUNDS:;
#ATTACKS:;

//---------------dance-single - ----------------
#NOTES:
     dance-single:
     :
     Beginner:
     5:
     0.232693,0.359198,0.218801,0.000000,0.000000,201.000000,174.000000,27.000000,0.000000,0.000000,0.000000,0.232693,0.359198,0.218801,0.000000,0.000000,201.000000,174.000000,27.000000,0.000000,0.000000,0.000000:
0000
0000
0000
0000
,
0000
0000
0000
0000
,
0000
0000
0000
0000
,
0000
0000
0000
0000
,
0000
0000
0000
0000
,
1000
0000
0001
0000
,
0100
0000
0010
0010
,
1000
0000
0001
0000
,
0010
0000
0100
0000
,
1000
1000
1000
0000
,
0001
0001
0000
0000
,
0000
0100
0100
0000
,
0010
0010
0000
0000
,
1000
1000
1000
0000
,
0001
0001
0000
0000
,
1000
0000
0001
0000
,
1001
0000
0000
1000
,
0000
0000
0000
0100
,
0000
0000
0000
1000
,
0000
0001
0000
0100
,
0000
0001
0000
1000
,
0000
0100
0000
0010
,
0000
0001
0000
1000
,
0000
0000
0000
0010
,
0000
0000
0000
0100
,
0000
0000
0000
0001
,
0000
0000
0000
1000
,
0000
0100
0000
0010
,
0000
0100
0000
1000
,
0000
0010
0000
0100
,
0000
0001
0000
1000
,
0000
0000
0000
0100
,
0000
0000
0000
0010
,
0000
0010
0000
0001
,
0000
0001
0000
1000
,
1000
1000
0000
1001
,
0000
0000
0001
0000
,
0100
0000
0001
0000
,
1000
0000
0001
0000
,
1000
0000
0100
0100
,
0100
0000
0010
0000
,
0100
0000
0010
0000
,
0001
0000
1000
0000
,
0010
0000
0110
0000
,
0000
0000
1001
0000
,
0001
0000
1000
0000
,
0100
0000
0010
0000
,
0001
0000
1000
0000
,
0010
0000
0001
0000
,
0010
0000
0100
0000
,
0001
0000
1001
0000
,
1001
0000
0110
0000
,
0000
0000
1001
0000
,
0000
1000
0000
0000
,
0001
0000
0100
0000
,
0000
0010
0000
0000
,
1000
0000
0001
0000
,
0000
0010
0000
0000
,
0100
0000
1000
0000
,
0000
0010
0100
0100
,
0100
0000
1001
0000
,
0000
0001
0000
0000
,
1000
0000
0100
0000
,
0000
0010
0000
0000
,
0100
0000
1000
0000
,
0000
0001
0000
0000
,
0100
0000
0010
0000
,
0000
1000
0001
0001
,
0001
0000
1001
0000
,
0000
0000
1000
0000
,
0000
0000
0100
0000
,
0000
0000
0010
0000
,
0100
0000
1000
0000
,
0001
0000
0100
0000
,
0010
0000
1000
0000
,
0001
0000
0010
0000
,
0100
0000
1000
0000
,
0000
0001
1001
0000
,
0000
0100
0110
0000
,
0000
0001
1001
0000
,
0000
1000
1001
0000
,
0110
0000
1001
0000
,
1001
0000
0001
0000
,
0100
0000
0001
0000
,
1000
0000
0100
0000
,
0010
0000
0100
0000
,
1000
0000
1001
0000
,
0110
0000
1001
0000
,
0000
0000
0001
0000
,
1000
0000
0100
0000
,
0010
0000
0100
0000
,
1000
0000
0001
0000
,
0100
0000
0010
0000
,
1000
0000
1001
0000
,
0110
0000
1001
0000
,
0110
0000
0001
0000
,
1000
0000
0100
0000
,
0010
0000
1001
0000
,
0110
0000
1001
0000
;

//---------------dance-single - ----------------
#NOTES:
     dance-single:
     :
     Easy:
     10:
     0.424867,0.598663,0.251216,0.316045,0.000000,367.000000,336.000000,31.000000,39.000000,0.000000,0.000000,0.424867,0.598663,0.251216,0.316045,0.000000,367.000000,336.000000,31.000000,39.000000,0.000000,0.000000:
0000
0000
0000
0000
,
0000
0000
0000
0000
,
0000
0000
0000
0000
,
0000
0000
0000
0000
,
0000
0000
0000
0000
,
1000
0001
0100
0000
,
0001
1000
0100
0010
,
0001
1000
0010
0000
,
0100
0001
1000
0000
,
0100
0010
0110
0000
,
0001
0100
0101
0000
,
0010
1000
1010
0000
,
1000
0100
1100
1000
,
0001
0100
1000
0100
,
0001
1000
0100
0010
,
1000
0010
0001
1000
,
1001
0100
1001
0002
,
0000
0000
0000
0023
,
0000
0000
0000
0230
,
0000
0320
0000
0032
,
0000
2003
0000
3020
,
0000
0230
0000
0302
,
0000
0023
0000
0230
,
0000
0000
0000
2300
,
0000
0000
0000
3001
,
0100
0010
0000
1000
,
0100
0010
0000
0100
,
1000
0001
0100
0010
,
0100
0001
0000
1000
,
0100
0010
0001
0100
,
0010
1000
0001
0010
,
0100
0010
0001
1000
,
0000
0000
1001
0000
0000
0000
0001
0100
,
0001
0000
0001
0100
0001
0000
1000
0100
,
1000
0000
1000
0100
1000
0000
0100
0000
,
0010
0000
0001
1000
0010
0000
1010
0000
,
0000
0000
0010
0100
,
0001
1000
0100
0010
,
0002
0000
0000
1003
0020
0000
0000
1030
,
0002
0000
0013
1000
,
0010
0000
0001
0000
1000
0000
0000
0100
,
0010
0000
0000
0100
1000
0000
0000
0001
,
0100
0000
0000
0010
2000
0000
0000
0000
,
3001
0000
0010
0000
0100
0000
0000
1100
,
0000
1000
0001
0100
,
0010
1010
1000
0001
,
0020
0000
0000
0130
1000
0000
0001
0000
,
0100
0000
0010
1000
0001
0000
1000
0000
,
0100
0000
0010
0001
1000
0000
0010
0000
,
0100
0001
0010
0000
0100
0000
1000
0000
,
0001
0000
1000
0000
1010
0000
0000
0001
,
1000
0000
0000
0001
0100
0000
0000
2002
,
0000
0000
3003
0000
1001
0000
0000
0001
,
0100
0000
0001
0000
0000
1000
0100
0000
,
1000
0000
0010
0000
1000
0000
0000
0001
,
0010
0000
0001
0000
0000
1000
0010
0000
,
1000
0000
0001
0000
0010
0000
0000
0100
,
1000
0000
0100
0000
0000
0010
0001
0000
,
1000
0000
0010
0000
0100
0000
0000
0001
,
0100
0001
0101
0101
,
1001
0000
1001
0000
0001
0000
0000
0100
,
0001
0000
0100
0000
0000
0001
1000
0000
,
0001
0000
1000
0000
0100
0000
0000
1000
,
0010
0000
0100
0000
0000
0001
1000
0000
,
0100
0010
0001
0100
,
0010
1000
0100
0010
,
0001
0000
1000
0000
1010
0000
0000
1001
,
0000
0011
0001
0100
,
0010
1000
2010
0000
,
3200
0320
0032
0000
,
0000
0000
2003
0000
,
0000
0000
3200
0000
,
0320
0000
0031
1001
,
1001
0000
1000
0000
0010
0000
0000
1000
,
0001
0000
0000
0100
0001
0000
0000
1000
,
0001
0000
0000
0010
0002
0000
0000
0000
,
1003
0000
0010
0000
0200
0000
0000
0302
,
0000
2003
0000
0000
,
0000
0000
3000
0000
0200
0000
0000
0320
,
0000
0032
0000
0000
,
0003
1000
0010
0000
0220
0000
0330
0000
,
0202
0303
1001
1010
,
1100
0000
0000
1000
0001
0000
0100
0000
,
0010
1000
0010
0001
,
0010
0000
0100
0001
0100
0000
0001
0000
,
1000
0100
1000
0000
0001
0000
0100
0000
,
0010
0000
1000
0001
1000
0000
0000
0000
,
1001
0000
0000
0000
0001
0000
0000
0011
,
0000
0010
0100
1000
,
0001
0100
0001
0000
1000
0000
0001
0000
,
0010
0100
0010
0000
0001
0000
1000
0000
,
0010
0100
0010
0000
1000
0000
0001
0000
,
0010
0100
0010
0000
0001
0000
1000
0000
,
0001
0100
0001
0000
1000
0100
1000
0000
,
0001
0100
0001
0000
1000
0100
1000
0100
,
0010
0001
0010
0001
2000
0000
0000
3001
,
0001
0000
0100
0010
2000
0000
0000
3100
,
0000
0100
0010
0001
1000
0000
0000
0010
,
0000
0100
1001
0000
;

//---------------dance-single - ----------------
#NOTES:
     dance-single:
     :
     Medium:
     14:
     0.685344,0.838128,0.348460,0.259319,0.202593,592.000000,549.000000,43.000000,32.000000,0.000000,0.000000,0.685344,0.838128,0.348460,0.259319,0.202593,592.000000,549.000000,43.000000,32.000000,0.000000,0.000000:
0000
0000
0000
0000
,
0000
0000
0000
0000
,
0000
0000
0000
0000
,
0000
0000
0000
0000
,
0000
0000
0000
0000
,
1000
0010
0100
0001
0000
1000
0010
0100
,
0000
0001
0010
0100
1000
0001
0100
0010
,
1000
0001
0010
0100
0000
1000
0001
0100
,
0000
0010
1000
0001
0010
0100
1000
0001
,
0100
0000
0010
1000
0010
1000
0000
0000
,
0001
0010
0001
0010
0000
0000
0100
0000
,
1000
0000
0001
0100
0001
0100
0000
0000
,
0010
1000
0010
1000
0001
0010
1000
0010
,
0001
1000
0010
1000
0010
0100
0001
0100
,
0001
1000
0100
0010
0001
0100
0010
1000
,
0001
1000
0000
0001
0100
0000
0010
1000
,
1001
0000
0001
0100
0101
0000
0002
0000
,
0000
0000
0000
0203
,
0000
0000
0000
0302
,
0000
0023
0000
0230
,
0000
0320
0000
0032
,
0000
0203
0000
0320
,
0000
0230
0000
2300
,
0000
0000
0000
3200
,
0000
0000
0000
0000
0000
0000
0000
0000
0000
0000
0000
0000
0301
0000
0000
1000
,
0000
0000
0100
0000
0010
0000
0000
0000
0001
0000
0000
0000
1000
0000
0000
0010
,
0000
0000
0100
0000
0001
0000
0000
0000
1000
0000
0000
0000
0100
0000
0000
0010
,
0000
0000
0100
0000
1000
0000
0000
0000
0001
0000
0000
0000
0100
0000
0000
0010
,
0000
0000
1000
0000
0001
0000
0000
0000
0010
0000
0000
0000
0100
0000
0000
1000
,
0000
0000
0100
0000
0010
0000
0000
0001
0000
0000
1000
0000
0010
0000
0000
0100
,
0000
0000
0001
0000
1000
0000
0000
0100
0000
0000
0010
0000
0100
0000
0000
1000
,
0000
0000
0001
0000
0100
0000
0000
0010
0000
0000
1000
0000
0001
0000
0000
0010
,
0000
0100
1001
0000
1000
0000
0001
0100
,
0001
0100
0010
1000
0010
1000
0001
0010
,
0001
0010
0100
1000
0100
1000
0001
0100
,
1000
0100
0001
1000
0100
0010
1001
0000
,
1000
0000
0100
0000
0010
0000
0001
0000
0100
0000
0000
0010
0000
0000
1000
0000
,
0001
0000
0010
0000
0100
0000
0000
0000
1000
0000
0000
0001
0000
0000
0100
0000
,
0020
0000
0000
1030
0002
0000
0000
0013
,
0100
0000
0000
1000
0000
0000
0001
0000
0100
0000
0000
0000
0110
0000
0000
0000
,
1010
0000
0000
0000
1001
0000
0000
0000
0001
0000
0000
0010
0000
0000
0100
0000
,
1000
0000
0000
0001
0000
0000
0100
0000
0010
0000
0000
1000
0000
0000
0001
0000
,
0010
0000
0000
0100
0000
0000
0010
0000
0001
0000
1000
0000
0001
0000
1000
0000
,
0010
0100
0001
1000
0100
0010
0100
0010
,
0000
0000
0001
0000
1000
0000
0010
0000
0100
0000
0000
0001
0000
0000
1000
0000
,
0001
0000
0000
1000
0010
0000
0000
0000
0100
0000
0000
0000
0001
0000
0010
0000
,
0200
0000
0000
0000
0000
0000
1300
0000
0001
0000
0000
0100
0000
0000
0010
0000
,
1000
0000
0001
0000
0010
0000
0100
0000
1000
0000
0000
0001
0000
0000
0100
0000
,
0002
0000
0000
0000
1003
0000
0100
0000
0010
0000
0000
0010
0000
0000
0010
0000
,
0001
0000
1000
0000
0010
0000
0100
0000
0001
0000
0000
1000
0000
0000
0200
0000
,
0000
1300
0001
0100
0110
0010
0000
0000
,
1010
0000
1000
0000
0000
0000
0000
0000
0011
0000
0000
1001
0000
0000
2200
0000
,
0000
0000
3300
0000
1000
0001
0100
0010
,
1000
0000
0001
0010
0100
1000
0001
0000
,
1000
0010
0100
0001
1000
0100
0010
0001
,
1000
0000
0010
0100
0001
1000
0100
0000
,
0010
0100
1000
0001
0100
0010
1000
0001
,
0010
0000
0100
0010
0001
1000
0010
0000
,
0100
0001
1000
0100
0010
0100
1000
0001
,
0100
0000
0010
1000
1001
0000
0011
0000
,
0110
0000
1100
0000
1000
0001
0100
0001
,
1000
0000
0001
1000
0100
1000
0001
0000
,
0100
0010
1000
0100
0010
0001
1000
0001
,
0100
0000
0010
1000
0001
0010
0100
0000
,
0010
0001
1000
0010
0100
0001
0010
0100
,
1000
0000
0001
0100
0010
0100
0001
0000
,
1000
0100
0010
0001
1000
0010
0000
0100
,
0001
0000
1000
0100
0110
0000
0010
0000
,
0001
1000
0020
0000
,
0230
0302
2003
0000
,
0000
0000
3200
0000
,
0000
0000
0000
0310
0002
0000
0000
1003
,
0020
0000
0000
0130
0101
0000
0110
0000
,
1010
0000
0000
0000
1001
0000
0000
0000
1000
0000
0000
0100
0000
0000
0010
0000
,
0001
0000
0000
1000
0000
0000
0010
0000
0100
0000
0000
0001
0000
0000
1000
0000
,
0100
0000
0000
0010
0000
0000
0001
0000
0100
0000
0010
0000
1000
0000
0010
0000
,
0100
0000
0000
0001
0000
0000
1000
0000
1001
0000
0001
0000
0000
0000
0101
0000
,
0000
1001
1000
0100
0110
0010
0000
0011
,
0000
1001
0001
1000
1010
0010
0000
0110
,
0000
0101
0001
1000
1100
0100
0000
0110
,
0000
0010
0001
1000
2002
0000
3003
0000
,
0101
0000
0000
0001
1000
0000
0000
0000
1100
0000
0000
0100
0010
0000
0000
0001
,
1000
0000
0000
0000
1010
0000
0010
0000
0100
0000
0000
0001
0000
0000
1000
0000
,
0100
0000
0010
0000
0100
0000
1000
0000
0001
0000
0000
0100
0000
0000
0010
0000
,
2000
0000
0000
0000
3001
0000
0010
0000
0100
0000
0000
0100
0000
0000
1000
0000
,
0001
0000
0010
0000
0100
0000
0010
0000
1000
0000
0000
0010
0000
0000
0001
0000
,
0100
1000
0100
0001
1001
1000
0000
0000
,
1010
0000
0010
0000
0000
0000
0000
0000
0110
0000
0000
0101
0000
0000
1001
0000
,
0000
0000
1000
0000
0100
0000
0010
0000
0001
1000
0001
0000
1000
0000
0010
0000
,
0100
0000
0001
0000
2000
0000
0000
0000
3100
0010
0100
0000
1000
0000
0100
0000
,
0001
0000
0100
0000
0010
0000
0001
0000
1000
0010
1000
0000
0001
0000
0010
0000
,
0200
0000
0000
0000
0010
0000
0000
0000
1300
0001
1000
0000
0001
0000
0100
0000
,
1000
0000
0100
0000
0010
0000
1000
0000
0100
0010
0100
0000
1000
0000
0001
0000
,
0010
0000
0100
0000
1000
0000
0001
0000
1000
0010
1000
0000
0001
0000
1000
0000
,
0001
0010
0001
0000
1000
0000
0001
0000
1000
0100
1000
0000
0001
0000
1000
0000
,
0001
0100
0001
0000
1000
0000
0001
0000
2000
0000
0000
0000
0100
0000
0001
0000
,
3001
0100
0010
1000
0001
0011
0000
1001
,
0000
0000
1000
0000
0010
0000
0100
0000
0001
1000
0001
0000
1000
0000
0001
0100
,
0001
0000
1000
0000
0100
0010
0100
0000
1000
0000
0000
0000
0000
0000
0000
0000
;

//---------------dance-single - ----------------
#NOTES:
     dance-single:
     :
     Hard:
     17:
     0.855522,1.037682,0.316045,0.194489,0.591572,739.000000,700.000000,39.000000,24.000000,0.000000,0.000000,0.855522,1.037682,0.316045,0.194489,0.591572,739.000000,700.000000,39.000000,24.000000,0.000000,0.000000:
// measure 0
0000
0000
0000
0000
,  // measure 1
0000
0000
0000
0000
,  // measure 2
0000
0000
0000
0000
,  // measure 3
0000
0000
0000
0000
,  // measure 4
0000
0000
0000
0000
,  // measure 5
1000
0010
1000
0010
0100
0001
0100
0001
,  // measure 6
1000
0100
1000
0100
0010
0001
0010
0001
,  // measure 7
1000
0010
0100
0001
1000
0001
0010
0100
,  // measure 8
1000
0100
0010
0001
1000
0001
0100
0010
,  // measure 9
1000
0000
0001
0010
0001
0010
0000
0000
,  // measure 10
0001
1000
0001
1000
0010
0000
0100
0000
,  // measure 11
0001
0000
1000
0100
1000
0100
0000
0000
,  // measure 12
0010
0001
0010
0001
1000
0010
0100
0001
,  // measure 13
1000
0100
1000
0100
0010
0001
0010
0001
,  // measure 14
1000
0010
0100
0001
1000
0001
0010
0100
,  // measure 15
1000
1001
0000
0001
0101
0000
0100
0010
,  // measure 16
1001
0000
0000
0000
0001
1000
0010
0000
1001
0000
0000
0000
2000
0000
0000
0000
,  // measure 17
0000
0000
0000
3200
,  // measure 18
0000
0000
0000
2300
,  // measure 19
0000
3020
0000
0032
,  // measure 20
0000
0023
0000
2030
,  // measure 21
0000
3200
0000
0302
,  // measure 22
0000
2003
0000
3020
,  // measure 23
0000
0000
0000
0032
,  // measure 24
0000
0000
0000
0000
0000
0000
0000
0000
0000
0000
0000
0000
1003
0000
0000
0100
,  // measure 25
0000
0000
1000
0000
0001
0000
0000
0000
0100
0000
0000
0000
0010
0000
0000
1000
,  // measure 26
0000
0000
0001
0000
0010
0000
0000
0100
0000
0000
1000
0000
0010
0000
0000
0100
,  // measure 27
0000
0000
0001
0000
1000
0000
0000
0100
0000
0000
0010
0000
0001
0000
0000
1000
,  // measure 28
0000
0000
0010
0000
0100
0000
0000
0000
0001
0000
0000
0000
1000
0000
0000
0001
,  // measure 29
0000
0000
0100
0000
0010
0000
0000
1000
0000
0000
0100
0000
0010
0000
0000
0001
,  // measure 30
0000
0000
0100
0000
1000
0000
0000
0100
0000
0000
0010
0000
1000
0000
0001
0000
,  // measure 31
1000
0000
0001
0000
1000
0100
1000
0100
0010
0001
0010
0001
1000
0000
0000
0010
,  // measure 32
0000
0000
0100
0000
0101
0000
0000
0000
0001
1000
0001
1000
0001
0000
0100
0000
,  // measure 33
0001
0100
0010
1000
0010
1000
0001
0010
,  // measure 34
0001
0000
0010
0000
0100
0000
1000
0000
0100
0000
1000
0000
0001
0100
0010
1000
,  // measure 35
0100
0010
0001
0000
1000
0010
0100
0001
0010
0100
1000
0000
1001
0000
0000
0000
,  // measure 36
1000
0000
0001
0100
0001
1000
0100
0010
0001
0000
1000
0010
0000
1000
0001
0000
,  // measure 37
0010
0000
0100
1000
0000
0001
1000
0000
0010
0000
0100
0001
0000
1000
0100
0000
,  // measure 38
0020
0000
0000
0000
0001
0000
0130
1000
0002
0000
0000
0000
0100
0000
1003
0001
,  // measure 39
0100
0000
0001
0100
0000
0001
1000
0000
0200
0000
0000
0000
0010
0000
0000
0000
,  // measure 40
0001
0000
0000
0000
0010
0000
1300
0001
0100
0000
0001
1000
0000
0100
1000
0000
,  // measure 41
0001
0000
0010
0100
0000
1000
0001
0000
0100
0000
0010
1000
0000
0001
0010
0000
,  // measure 42
0100
0000
1000
0001
0000
0100
0010
0000
1000
0000
0001
0000
0010
0000
0100
0000
,  // measure 43
0010
0000
0001
0000
1000
0010
1000
0010
1000
0000
0010
0000
0001
0000
0010
0000
,  // measure 44
0000
0000
1000
0100
0010
0001
0010
0100
1000
0000
0001
0100
0000
0010
1000
0000
,  // measure 45
0001
0000
0010
0100
1000
0000
0000
0000
0001
0000
0100
0001
0000
1000
0100
0000
,  // measure 46
0020
0000
0000
0000
0100
0000
0031
1000
0010
0000
0100
0001
0000
1000
0100
0000
,  // measure 47
0010
0000
0001
1000
0000
0010
0100
0000
0001
0000
1000
0100
0000
1000
0010
0000
,  // measure 48
0100
0000
0001
0000
1000
0100
0010
0001
0100
0000
0010
1000
0000
0001
1000
0000
,  // measure 49
0001
0000
0010
0000
1000
0000
0010
0000
0001
0000
1000
0010
0000
0100
0001
0000
,  // measure 50
1000
0000
0100
0000
0001
0000
0100
0000
1000
0000
0001
0100
0000
0010
1000
0000
,  // measure 51
1001
0000
0001
0010
0000
0100
1000
0000
1001
0000
0000
0011
0000
0000
1100
0000
,  // measure 52
0000
1000
0001
0000
1000
0000
0010
0000
1000
0000
0100
0000
0010
0000
0001
0000
,  // measure 53
1000
0000
1000
0100
0010
0001
1000
0000
,  // measure 54
1000
0100
0010
0001
1000
0001
0100
0010
,  // measure 55
1000
0000
1000
0001
0100
0010
1000
0000
,  // measure 56
1000
0010
0100
0001
0010
0100
1000
0001
,  // measure 57
0010
0000
0010
0100
1000
0001
0010
0000
,  // measure 58
0010
0001
1000
0010
0100
0001
1000
0010
,  // measure 59
0100
0000
0100
0001
1001
0000
1100
0000
,  // measure 60
0110
0000
0011
0000
0001
0010
0100
0010
,  // measure 61
0001
1000
0010
1000
0001
0010
0100
1000
,  // measure 62
0010
0100
0001
1000
0100
0010
0001
1000
,  // measure 63
0010
0100
0001
1000
0100
0010
0100
1000
,  // measure 64
0010
0100
0001
1000
0100
0001
0100
0010
,  // measure 65
0001
1000
0010
0001
0010
0100
0001
1000
,  // measure 66
0100
0010
0001
1000
0010
0110
0000
0100
,  // measure 67
0101
0000
0000
0000
0001
1000
0001
1000
0001
0000
0010
0000
0100
0000
1000
0000
,  // measure 68
0010
0100
0001
1000
0200
0000
0000
0000
,  // measure 69
0320
0032
2003
0000
,  // measure 70
0000
0000
3020
0000
,  // measure 71
0000
0000
0000
0000
0000
0000
0130
0001
2000
0000
0000
0000
0000
0000
3100
0010
,  // measure 72
0002
0000
0103
0110
,  // measure 73
1010
0000
0000
0000
1000
0010
0100
0001
1000
0000
0001
0100
0000
0001
1000
0000
,  // measure 74
0001
0000
1000
0100
0000
1000
0001
0000
1000
0000
0010
0100
0000
0001
1000
0000
,  // measure 75
0001
0000
0010
0100
0000
1000
0001
0000
1000
0000
0010
0000
0100
0000
0001
1000
,  // measure 76
0100
0000
0010
0001
0000
1000
0001
0000
1001
0000
1000
0000
0000
0000
1010
0000
,  // measure 77
0000
0000
0101
0000
0001
0000
1000
0100
0010
0000
0110
0000
0000
0000
1100
0000
,  // measure 78
0000
0000
1001
0000
0001
0000
0100
0010
1000
0000
1001
0000
0000
0000
0011
0000
,  // measure 79
0000
0000
0110
0000
0100
0000
1000
0001
0100
0000
0101
0000
0000
0000
0110
0000
,  // measure 80
0000
0000
1010
0000
1000
0000
0001
0010
0100
0000
0000
0000
0000
0000
0000
0000
,  // measure 81
1100
0000
1000
0001
0100
0000
0000
0000
0110
0000
0010
1000
0001
0000
0010
0100
,  // measure 82
1000
0000
0000
0001
1000
0000
0010
0100
0001
0000
1000
0100
0000
1000
0001
0000
,  // measure 83
0100
0000
0010
1000
0000
0001
0010
0000
0001
0000
0100
0010
0000
1000
0001
0000
,  // measure 84
0010
0000
0100
0000
1000
0010
0100
0001
0010
0000
0100
1000
0000
0001
0100
0000
,  // measure 85
0010
0000
0001
0000
0010
0000
1000
0000
0001
0000
0010
0100
0000
1000
0010
0000
,  // measure 86
0100
0000
1000
0000
0100
0000
0001
0000
0010
0000
0100
1000
0000
0001
1000
0000
,  // measure 87
1010
0000
0010
0100
0000
0001
1000
0000
1100
0000
0000
0110
0000
0000
0011
0000
,  // measure 88
0000
0001
1000
0000
0010
0000
0100
0000
0001
0000
0010
0000
1000
0000
0010
0000
,  // measure 89
0001
1000
0010
1000
0002
0000
0000
0000
1003
0000
0100
0000
0010
0000
0001
0000
,  // measure 90
1000
0000
0010
0100
0000
0001
1000
0000
0100
0000
0010
0001
0000
1000
0010
0000
,  // measure 91
0100
0000
1000
0000
0100
0000
0001
1000
0100
0000
0010
0001
0000
1000
0010
0000
,  // measure 92
0100
0000
1000
0000
0100
0000
0001
0000
1000
0000
0100
0010
0000
0001
1000
0000
,  // measure 93
0010
0000
0100
0001
0000
1000
0100
0000
0010
0000
0001
0000
1000
0010
0100
0010
,  // measure 94
1000
0000
0001
0000
1000
0100
0010
0100
1000
0000
0001
0000
0100
0010
1000
0001
,  // measure 95
0010
0000
0100
0000
1000
0100
0010
0001
1000
0000
0010
0000
0001
0000
0010
0000
,  // measure 96
0100
0001
0010
0100
1000
1001
0000
0101
,  // measure 97
0000
0000
0110
0000
0010
0000
1000
0000
0001
0100
0001
0100
0001
0000
1000
0100
,  // measure 98
1000
0100
1000
0000
0001
0100
0010
1000
0001
0000
0000
0000
0000
0000
0000
0000
;

//---------------dance-single - ----------------
#NOTES:
     dance-single:
     Event Horizon:
     Challenge:
     18:
     1.022227,1.317058,0.388979,0.194489,0.972447,883.000000,835.000000,48.000000,24.000000,0.000000,0.000000,1.022227,1.317058,0.388979,0.194489,0.972447,883.000000,835.000000,48.000000,24.000000,0.000000,0.000000:
// measure 0
0000
0000
0000
0000
,  // measure 1
0000
0000
0000
0000
,  // measure 2
0000
0000
0000
0000
,  // measure 3
0000
0000
0000
0000
,  // measure 4
0000
0000
0000
0000
,  // measure 5
1000
0100
0010
0100
1000
0001
0100
0010
,  // measure 6
1000
0100
0010
0001
1000
0100
0010
0100
,  // measure 7
1000
0001
0100
0001
1000
0001
0010
0100
,  // measure 8
0010
0001
1000
0010
0100
0001
0010
0100
,  // measure 9
1000
0001
0100
0100
0100
0100
0010
0000
,  // measure 10
1000
1000
1000
1000
0001
0010
0100
0000
,  // measure 11
1000
0001
0010
0010
0010
0010
0100
0000
,  // measure 12
1000
0000
1000
0000
1000
0000
1000
0000
0001
0000
0100
0010
1000
0010
0100
0001
,  // measure 13
1000
0100
0010
0010
0010
0010
0001
1000
,  // measure 14
0010
0010
0010
0010
0100
0001
1000
0100
,  // measure 15
0010
0011
0000
0001
1001
0000
1000
0010
,  // measure 16
1001
0000
0000
0000
0100
0010
0100
0000
1001
0000
0000
0000
2000
0000
0000
0000
,  // measure 17
0000
0000
0000
3200
,  // measure 18
0000
0000
0000
2300
,  // measure 19
0000
3020
0000
0032
,  // measure 20
0000
0203
0000
2300
,  // measure 21
0000
3020
0000
0032
,  // measure 22
0000
2003
0000
3200
,  // measure 23
0000
0000
0000
0302
,  // measure 24
0000
0000
0000
0000
0000
0000
0000
0000
0000
0000
0000
0000
1003
0000
0000
0100
,  // measure 25
0000
0000
1000
0000
0001
0000
0000
1000
0010
0000
0100
0000
0001
1000
0000
0100
,  // measure 26
1000
0000
0010
0000
0100
0001
0000
1000
0001
0000
0100
0000
0010
0000
0000
1000
,  // measure 27
0000
0000
0001
0000
0010
0000
0000
0100
1000
0000
0001
0000
0100
0010
0000
1000
,  // measure 28
0001
0000
0010
0000
0100
1000
0000
0001
0100
0000
0010
0000
1000
0001
0000
0010
,  // measure 29
0001
0000
1000
0000
0010
0100
0000
0001
1000
0000
0100
0000
0010
0001
0000
1000
,  // measure 30
0001
0000
0100
0000
0010
1000
0000
0001
0010
0000
0100
0000
1000
0010
1000
0010
,  // measure 31
0100
0001
0100
0001
1000
0100
0010
0001
0100
0010
1000
0001
0010
0000
0000
0011
,  // measure 32
0000
0000
1001
0000
1010
0000
1000
0010
0100
0001
0010
0100
1000
0000
1000
0000
,  // measure 33
1000
1000
0100
0100
0100
0100
0010
0010
,  // measure 34
0010
0000
0010
0000
0001
0000
0001
0000
0001
0000
0001
0000
1000
0010
1000
0010
,  // measure 35
0100
0001
0100
0001
1000
0100
0010
0001
1000
0010
0100
0001
1000
0000
0000
0000
,  // measure 36
0001
0010
0100
0010
0001
0100
0010
1000
0001
0000
1000
0010
0100
0010
1000
0001
,  // measure 37
0010
0000
0100
1000
0001
0100
0010
1000
0001
0000
1000
0100
0000
0010
0001
0000
,  // measure 38
2000
0000
3000
0000
0101
0000
0001
1000
0200
0000
0000
0000
0010
0000
1300
0001
,  // measure 39
0100
0000
0010
1000
0000
0001
0010
0000
0100
1000
0001
0100
0010
1000
0100
0010
,  // measure 40
0001
1000
0010
0100
0001
0010
0100
1000
0001
0000
0100
0001
0000
1000
0100
0000
,  // measure 41
1000
0000
0001
0100
0000
0010
1000
0000
0001
0000
0010
0100
0000
1000
0010
0000
,  // measure 42
0001
0000
0010
0100
0000
0001
0100
0000
0001
0000
0100
0000
0010
0000
0100
0001
,  // measure 43
1000
0100
0010
0100
1000
0001
0100
0010
1000
0000
0001
0000
0010
0000
1001
0000
,  // measure 44
0000
0000
1000
0010
0100
0001
0010
0100
1000
0000
0001
0100
0000
0001
1000
0000
,  // measure 45
0100
0000
0000
0000
0000
0000
1000
0000
0010
0000
1000
0000
0020
0000
0000
0000
0000
0000
0000
0000
0000
0000
0000
0000
1030
0000
0000
0000
0000
0000
0001
0000
0000
1000
0000
0000
0000
0000
0000
0001
0000
0000
0010
0000
0000
0000
0000
0000
,  // measure 46
0002
0000
0000
0000
0100
0000
1003
0100
0010
0000
0001
1000
0000
0010
0100
0000
,  // measure 47
0001
0010
0100
1000
0001
0100
0010
0100
0001
0000
1000
0010
0000
0100
0001
0000
,  // measure 48
0200
0000
0000
0000
0301
1000
0100
1000
0001
0000
1000
0010
0000
0100
0001
0000
,  // measure 49
1000
0100
0010
0100
1000
0001
0100
0010
1000
0000
0001
0010
0000
0001
0100
0000
,  // measure 50
0010
0000
1000
0001
0010
0100
0010
0001
1000
0000
0010
0100
0000
0001
1000
0000
,  // measure 51
1010
0000
0010
1000
0000
0001
0010
0000
0011
0000
0000
1010
0000
0000
1100
0000
,  // measure 52
0000
1000
0001
0000
1000
0000
0100
0000
1000
0000
0010
0000
0100
0000
0001
0000
,  // measure 53
1001
0000
1000
0010
0100
0001
1000
0000
,  // measure 54
1001
0001
0010
0100
1000
0001
0100
0010
,  // measure 55
1001
0000
1000
0001
0100
0010
1000
0000
,  // measure 56
0011
0010
1000
0010
0001
1000
0100
0010
,  // measure 57
1001
0000
0001
1000
0100
0010
0001
0000
,  // measure 58
1001
1000
0100
0010
0001
1000
0010
0100
,  // measure 59
1001
0000
0001
1000
1010
0010
0110
0100
,  // measure 60
0101
0000
0001
0000
1000
0001
1000
0001
1000
0000
0100
0000
0001
0000
0100
0000
,  // measure 61
1000
0001
0100
1000
0100
0001
1000
0100
,  // measure 62
0010
0001
0100
0010
1000
0001
0100
1000
,  // measure 63
0100
0001
1000
0100
0001
0100
1000
0001
,  // measure 64
1000
0010
0100
0001
0010
0001
0100
1000
,  // measure 65
0100
0001
1000
0100
0001
0100
1000
0010
,  // measure 66
1000
0100
0010
0001
0100
0010
1000
0001
,  // measure 67
0010
0100
1000
0001
0100
1000
0100
0001
,  // measure 68
1000
0100
0010
0001
1002
0000
0000
0000
,  // measure 69
0203
0000
0000
0000
0320
0000
0000
0000
1030
0000
0000
0100
0000
0000
0010
0000
,  // measure 70
0001
0000
1000
0000
0010
0000
1000
0000
0100
0000
0000
0001
0000
0000
0100
0000
,  // measure 71
2000
0000
0000
0000
3000
0000
0001
1000
0200
0000
0000
0000
0000
0000
1300
0001
,  // measure 72
0100
0000
0000
0010
0000
0000
1000
0000
0001
1000
0001
0010
0100
1000
0010
0100
,  // measure 73
0001
1000
0100
0010
0001
0100
0010
1000
0001
0000
0010
0001
0000
1000
0010
0000
,  // measure 74
0100
0000
0001
1000
0000
0010
1000
0000
0010
0000
0100
0010
0000
1000
0001
0000
,  // measure 75
0010
0000
0100
1000
0000
0010
0100
0000
0002
0000
1000
0000
0000
0000
1003
0100
,  // measure 76
0010
0000
0001
1000
0000
0010
0100
0000
0101
0000
1001
0000
0000
0000
1100
0000
,  // measure 77
0000
0000
0110
0000
0011
0000
0001
1000
0010
0000
0110
0000
0000
0000
0101
0000
,  // measure 78
0000
0000
1001
0000
1100
0000
0100
0010
0001
0000
1001
0000
0000
0000
1010
0000
,  // measure 79
0000
0000
0110
0000
0101
0000
0100
0001
1000
0000
1100
0000
0000
0000
1001
0000
,  // measure 80
0000
0000
0001
0100
0010
1000
0100
0010
0001
0000
1000
0010
0000
0100
0001
0000
,  // measure 81
1000
0000
0000
0010
1000
0010
1000
0000
0000
0000
0000
0000
1001
0000
0000
0001
1000
0001
1000
0000
0000
0010
0100
0010
,  // measure 82
0100
0000
0001
1000
0100
0000
0010
0001
1000
0000
0001
1000
0000
0100
0010
0000
,  // measure 83
0001
0010
0100
1000
0001
0100
0010
0100
0001
0000
1000
0100
0000
0010
0001
0000
,  // measure 84
0200
0000
0000
0000
0301
0010
0100
1000
0010
0000
1000
0100
0000
0010
0001
0000
,  // measure 85
1000
0010
0100
0010
1000
0001
0010
0100
1000
0000
0001
0100
0000
0001
0010
0000
,  // measure 86
0100
0000
1000
0001
0100
0010
0100
0001
1000
0000
0100
0010
0000
0001
1000
0000
,  // measure 87
1100
0000
0100
1000
0000
0001
0100
0000
0101
0000
0000
1100
0000
0000
1010
0000
,  // measure 88
0000
1000
0001
0000
1000
0000
0010
0000
1000
0100
0010
0100
1000
0001
0100
0010
,  // measure 89
0100
0001
1000
0100
0010
0001
0100
0010
1000
0000
0001
0100
0000
0001
1000
0000
,  // measure 90
0010
0000
1000
0100
0000
0010
0001
0000
0100
0000
0010
1000
0000
0001
0010
0000
,  // measure 91
0100
1000
0100
1000
0100
0000
0010
0001
0100
0000
0010
1000
0000
0001
0010
0000
,  // measure 92
0100
0000
0001
0000
0100
0000
1000
0000
0001
0000
1000
0010
0000
0100
0001
1000
,  // measure 93
0001
0010
0100
0010
0001
1000
0010
0100
0001
0010
0100
0010
1000
0010
0001
1000
,  // measure 94
0010
1000
0001
0010
1000
0010
0100
0010
0001
1000
0010
0100
1000
0100
0001
1000
,  // measure 95
0100
1000
0001
0100
1000
0100
0010
1000
0001
0000
0010
0000
1000
0000
0010
0000
,  // measure 96
0100
1000
0010
0100
0001
1000
0100
0010
0001
0000
1001
0000
0000
0000
0011
0000
,  // measure 97
0000
0000
0110
0000
1100
0000
1000
0100
0010
0100
1000
0001
0100
0000
1000
0100
,  // measure 98
0010
1000
0001
0000
0010
1000
0010
0100
1000
0000
0000
0000
0000
0000
0000
0000
;
