#TITLE:Devilz Staircase;
#SUBTITLE:;
#ARTIST:OSTER project;
#TITLETRANSLIT:;
#SUBTITLETRANSLIT:;
#ARTISTTRANSLIT:;
#GENRE:SYMPHONIC BREAK BEATS;
#CREDIT:;
#BANNER:Devilz Staircase.png;
#BACKGROUND:Devilz Staircase-bg.png;
#LYRICSPATH:;
#CDTITLE:../_YSD cdtitles/ysd plat cdtitle.png;
#MUSIC:Devilz Staircase.ogg;
#OFFSET:1.166000;
#SAMPLESTART:21.861000;
#SAMPLELENGTH:15.000000;
#SELECTABLE:YES;
#BPMS:0.000000=185.000000
;
#STOPS:68.000000=0.648649
;
#BGCHANGES:;
#KEYSOUNDS:;
#ATTACKS:;

//---------------dance-single - ----------------
#NOTES:
     dance-single:
     :
     Easy:
     11:
     0.000000,0.000000,0.000000,0.000000,0.000000,0.000000,0.000000,0.000000,0.000000,0.000000,0.000000,0.000000,0.000000,0.000000,0.000000,0.000000,0.000000,0.000000,0.000000,0.000000,0.000000,0.000000:
0000
0000
0000
0000
,
0000
0000
0000
0000
,
0000
0000
0000
0000
,
0000
0000
0000
0000
,
0000
0000
0000
0000
,
0000
0000
0000
0000
,
0000
0000
0000
0000
,
0000
0000
0000
0000
,
0000
0000
0000
0000
,
1000
0100
0010
0001
,
1000
0010
0100
0001
,
1000
0100
0010
0001
,
0100
0010
1000
0001
,
1000
0100
0001
0100
,
1000
0010
0001
0010
,
1000
0100
0010
0001
,
0100
0010
1000
0001
,
0000
0000
1000
1000
,
0001
0100
0000
0001
0000
0000
0001
1000
,
0001
0000
0001
0000
1000
0100
0000
1000
,
0000
0000
1000
0001
1000
0000
0100
0000
,
0010
0001
0010
0000
0001
0000
1000
0000
,
0010
0100
0010
0000
1000
0000
0001
0000
,
0010
0100
0010
0000
0100
0000
1000
0000
,
0001
0100
0001
0000
1000
0000
0100
0000
,
0010
0001
1000
0000
0100
0000
1000
0000
,
0001
0100
0010
0000
1000
0000
0010
0000
,
0100
0001
1000
0000
0100
0010
0001
0000
,
0010
0100
1000
0000
0001
0000
0100
0000
,
1000
0100
0001
0010
,
1000
0010
0001
0100
,
1000
0001
0010
1000
,
0001
0000
0010
0000
0100
0000
1000
0001
,
0100
0000
0001
1000
0100
0000
0010
0001
,
1000
0000
0010
0000
0100
0001
1000
0000
,
0100
0010
0001
0000
1000
0010
0100
0001
,
0100
0010
1000
0000
0001
0100
0000
0000
,
0001
1000
0000
0000
0001
0010
0000
0000
,
0011
0000
0001
0000
1000
0001
1000
0000
,
0001
0100
0001
0000
0100
0010
0100
0000
,
0010
1000
0010
1000
0002
0000
0023
0000
,
0230
2300
3002
0203
,
0320
0230
0302
2003
,
3200
0320
0032
0203
,
0320
0032
0023
2030
,
3200
0320
0032
2000
,
0000
3003
2020
0000
,
3030
0020
0230
0302
,
2000
0000
3003
2100
,
3002
0203
0320
0000
,
0030
1000
1010
0001
,
0011
0011
0011
0110
,
0110
0110
1002
0000
,
0000
0203
0320
0000
,
1030
0000
0001
0000
0010
0000
0100
1000
,
0000
0100
1000
0000
0001
0000
0100
0001
,
0000
0100
0001
0000
1000
0000
0100
0010
,
0001
0000
0100
0000
0010
0000
1000
0001
,
0010
0000
0100
1000
0001
0000
0100
0001
,
1000
0000
0100
0010
0001
0000
0010
0100
,
1000
0000
0001
0100
0010
0000
1000
0001
,
0010
0000
0100
1000
0001
0000
0100
0010
,
1000
0000
0001
0010
0100
0000
1100
0000
,
1001
0000
0001
0100
0010
0000
0110
0000
,
1010
0000
1000
0000
0001
0100
0010
0000
,
1000
0001
0010
0000
0110
0000
0000
0000
,
1001
0000
0101
0100
,
0100
0010
1010
1001
,
0001
0000
0011
0010
,
0010
0100
1100
1001
,
1000
0000
0000
0000
0010
0100
0001
1000
,
0100
0010
0001
0000
0010
0100
1000
0010
,
0100
0001
1000
0000
2100
0000
0000
0000
,
3001
0100
0010
1000
,
0001
0000
0010
0000
0001
0100
0010
1000
,
0001
0100
0010
1000
0001
0100
0010
1000
,
0100
0010
0001
1000
0001
0010
0100
1000
,
0001
0010
0100
1000
0001
0010
0100
1000
,
0001
0010
0100
1000
0001
1000
0001
1000
,
0001
1000
0001
0000
0010
0000
2002
0000
,
0000
0000
0000
0000
,
0000
0000
0000
0000
,
0000
0000
0000
0000
,
0000
0000
3003
0000
;

//---------------dance-single - ----------------
#NOTES:
     dance-single:
     :
     Medium:
     15:
     0.000000,0.000000,0.000000,0.000000,0.000000,0.000000,0.000000,0.000000,0.000000,0.000000,0.000000,0.000000,0.000000,0.000000,0.000000,0.000000,0.000000,0.000000,0.000000,0.000000,0.000000,0.000000:
0000
0000
0000
0000
,
0000
0000
0000
0000
,
0000
0000
0000
0000
,
0000
0000
0000
0000
,
0000
0000
0000
0000
,
0000
0000
0000
0000
,
0000
0000
0000
0000
,
0000
0000
0000
0000
,
0000
0000
0000
0000
0000
0000
1000
0000
0001
1000
0000
0010
,
1000
0000
0001
0000
1000
0000
0001
0000
0000
0000
0000
0000
0000
0000
0000
1000
0000
0000
0000
0000
0000
0010
0000
0000
,
0000
0000
0000
0100
0000
0000
0001
0000
1000
0000
0001
0000
1000
0000
0000
0000
0000
0000
0100
0000
0000
0000
0000
0000
,
0010
0000
0001
0000
0010
0000
0001
0000
0000
0000
0000
0000
0000
0000
0000
1000
0000
0000
0000
0000
0000
0010
0000
0000
,
0000
0000
0000
0100
0000
0000
0001
0000
1000
0000
0001
0000
1000
0000
0000
0000
0000
0000
0100
0000
0000
0000
0000
0000
,
0010
0000
0010
0001
0000
0001
1000
0000
1000
0010
0000
0010
,
0100
0000
0100
1000
0000
1000
0100
0000
0100
0001
0000
0001
,
1000
0000
0100
0000
1000
0000
0100
0000
0000
0000
0000
0000
0000
0000
0000
0010
0000
0000
0000
0000
0000
0001
0000
0000
,
0000
0000
0000
1000
0000
0000
0010
0000
0100
0000
0010
0000
0100
0000
0001
0000
1000
0000
0100
0000
0010
0000
0001
0000
,
0000
0000
0000
0000
0000
0000
1000
0010
1000
0010
0000
0000
,
0100
0000
0000
0001
0000
0000
0000
0000
0000
1000
0000
0000
0100
0000
0010
0000
0100
0000
0010
0000
0000
0001
0000
0000
,
1000
0000
0010
0000
1000
0000
0010
0000
0000
0000
0000
0000
0100
0000
0000
0001
0000
0000
0000
0000
0000
1000
0000
0000
,
0100
0000
0010
0000
0100
0000
0010
0000
0000
0001
0000
0000
1000
0000
0000
0010
0000
0000
0100
0000
0000
0010
0000
0000
,
1000
0001
0010
0100
1000
0001
0100
0001
,
1000
0100
0010
0001
0100
0010
1000
0001
,
0010
0100
0010
0001
1000
0010
0001
0010
,
0100
0001
0010
1000
0010
0100
1000
0001
,
0100
0010
1000
0001
0010
0100
0010
0001
,
1000
0010
0100
0001
1000
0100
0010
0100
,
1000
0010
0001
0010
0100
0001
0010
0100
,
1000
0000
0000
0001
0000
0000
0100
0000
0000
0010
0000
0000
1000
0000
0000
0000
1000
0000
0100
0000
0000
0000
0100
0000
,
0010
0000
0010
0001
0000
0001
0100
0000
0100
1000
0000
1000
,
0100
0010
0100
0010
1000
0001
1000
0000
1000
0010
0000
0010
,
0100
0001
0100
0001
1000
0100
1000
0000
1000
0001
0000
0001
,
0010
0000
0000
0000
0100
0000
0000
0000
0010
0000
0000
0000
0100
0000
0000
0000
1000
0000
0000
0000
0001
0000
0000
0000
1000
0000
0000
0000
0000
0000
0000
0000
0000
0000
0000
0000
0001
0000
0000
0000
0000
0000
0100
0000
0000
0010
0000
0000
,
1000
0000
0000
0000
0001
0000
1000
0100
0010
0000
0000
0000
0001
0000
1000
0000
,
0000
0010
0100
0001
1000
0100
0001
0100
,
1000
0010
0100
0001
0010
1000
0010
0100
,
1000
0001
0100
0010
1010
1000
0000
0000
,
0110
0010
0000
0000
0101
0100
0000
0000
,
0101
0000
1001
0000
1000
0100
0010
0100
,
1000
0001
0100
0010
1000
0100
0010
0001
,
0010
1000
0010
0001
1000
0010
0000
0100
,
0000
0001
1000
0100
0010
0100
1000
0001
,
0100
0010
0000
1000
0000
0001
0010
0100
,
1000
0010
0100
0001
1000
0100
0000
0010
,
0000
0100
1000
0010
0001
0010
0100
0001
,
1000
0100
0000
0010
0000
0001
0202
0000
,
0000
0000
0303
0000
2002
0000
0000
0003
,
3000
0000
0002
0000
0023
0000
0130
1000
,
2002
0003
3000
1100
,
1001
0000
0001
0100
0101
0000
0001
0100
,
0001
1000
0100
0000
0010
0000
0001
0000
,
0011
0110
1001
1010
,
0110
1001
0201
0000
,
0000
0320
2030
0000
,
3001
0010
0100
1000
0010
0000
0100
0001
,
0000
0000
1000
0000
0001
0000
0010
0100
1000
0000
0000
0000
0010
0000
0100
0000
,
0000
0000
0001
0000
1000
0000
0100
0010
0001
0000
1000
0000
0010
0000
0100
0001
,
1000
0000
0100
0000
0010
0000
0001
0000
0100
0000
0010
0000
1000
0000
0001
0010
,
0100
1000
0001
0100
1000
0100
0010
1000
,
0001
0010
0100
0010
1000
0010
0001
1000
,
0010
0100
0001
0100
1000
0100
0010
1000
,
0001
0010
0100
0010
0001
0100
0010
1000
,
0001
0000
0100
0000
0010
0000
1000
0000
0001
0010
0001
0000
1000
0000
0010
0000
,
0100
0001
0100
0000
0010
0000
1000
0000
0001
0010
0001
0000
1000
0000
0100
0000
,
0010
0001
0010
0000
0100
0000
1000
0000
0001
0100
0001
0000
0100
0010
0100
0000
,
0010
1000
0010
0000
1000
0001
1000
0000
0001
0010
0001
0010
0001
0000
0000
0000
,
1000
0000
0000
0010
0000
0000
1000
0000
0000
0010
0000
0000
1000
0000
0000
0000
0000
0000
0000
0000
0000
0000
0000
0000
1001
0000
0000
0000
0000
0000
0000
0000
0000
0000
0000
0000
0001
0000
0000
0000
0100
0000
0000
0000
0001
0000
0000
0000
,
0100
0000
0000
0010
1000
0010
1000
0000
0000
1001
0000
0000
,
0010
0000
0000
0100
0000
0000
1001
0000
0000
1000
0100
1000
,
0100
0000
0000
0010
0001
0010
0001
0000
0000
1001
0000
0000
,
0010
0000
0100
0000
1001
1000
0100
0010
,
0100
1000
0001
0100
0010
1000
0100
0010
,
0001
1000
0010
0100
0201
0000
0000
0000
,
0301
0000
0000
1000
0000
0000
0001
0010
0001
0010
0100
0010
,
0100
0000
0000
0000
1000
0000
0000
0000
0100
0000
0000
0000
1000
0000
0000
0000
0001
0000
0000
0000
1000
0000
0000
0000
0001
0000
0000
0100
0000
0000
0001
0000
0000
0000
0000
0000
1000
0000
0000
0100
0000
0000
1000
0000
0000
0000
0000
0000
,
0001
0010
0001
0000
1000
0010
1000
0000
0001
0100
0001
0000
1000
0100
1000
0000
,
0001
0100
0010
1000
0010
0100
0001
0000
1000
0100
0010
0000
0001
0010
0100
0000
,
1000
0010
0100
0000
0001
0100
0010
0000
1000
0001
0100
0000
0001
1000
0100
0000
,
1000
0001
0010
0000
0001
1000
0010
0000
1000
0001
1000
0001
1000
0001
1000
0001
,
1000
0001
1000
0001
1000
0000
0000
0000
0010
0000
0000
0000
2002
0000
0000
0000
,
0000
0000
0000
0000
,
0000
0000
0000
0000
,
0000
0000
0000
0000
,
0000
0000
3003
0000
;

//---------------dance-single - ----------------
#NOTES:
     dance-single:
     :
     Hard:
     17:
     0.000000,0.000000,0.000000,0.000000,0.000000,0.000000,0.000000,0.000000,0.000000,0.000000,0.000000,0.000000,0.000000,0.000000,0.000000,0.000000,0.000000,0.000000,0.000000,0.000000,0.000000,0.000000:
0000
0000
0000
0000
,
0000
0000
0000
0000
,
0000
0000
0000
0000
,
0000
0000
0000
0000
,
0000
0000
0000
0000
,
0000
0000
0000
0000
,
0000
0000
0000
0000
,
0000
0000
0000
0000
,
0000
0000
0000
0000
0000
0000
1000
0100
0010
0100
1000
0001
,
0100
0010
1000
0010
0100
0001
1000
0100
0010
0001
0010
0100
,
1000
0001
0100
0010
0100
0001
1000
0100
0010
0001
0100
0010
,
1000
0001
0010
0100
1000
0010
0100
0001
0010
0100
0010
0001
,
1000
0100
0010
0001
0010
0100
1000
0010
0100
0001
0100
0010
,
1000
0001
0010
0001
1000
0010
1000
0001
0010
0100
1000
0001
,
1000
0100
1000
0001
0100
0001
1000
0100
0010
0001
0100
0010
,
1000
0001
0010
0100
0010
0001
1000
0010
1000
0001
0010
0100
,
1000
0010
0100
0001
1000
0100
0010
0100
1000
0010
0100
0001
,
0000
0000
0000
1000
0100
0010
0001
0100
0001
0100
0000
0000
,
0010
0000
0000
1000
0000
0000
0000
0000
0000
0001
0000
0000
0010
0000
0100
0000
0010
0000
0100
0000
0000
1000
0000
0000
,
0001
0000
0010
0000
0001
0000
0010
0000
0000
0000
0000
0000
0001
0000
0000
1000
0000
0000
0000
0000
0000
0010
0000
0000
,
1000
0000
0000
0000
0001
0000
0000
0000
1000
0000
0000
0000
0001
0000
0000
0000
0000
0000
0100
0000
0000
0000
0000
0000
0010
0000
0000
1000
0000
0000
0010
0000
0000
0000
0000
0000
0100
0000
0000
0000
0000
0000
0001
0000
0000
0000
0000
0000
,
1000
0100
1000
0000
0010
0000
0100
0000
0001
1000
0001
0000
0010
0000
0100
0000
,
1000
0001
1000
0000
0010
0000
0100
0000
0001
0010
0001
0000
1000
0000
0010
0000
,
0100
0001
0100
0000
0010
0000
1000
0000
0001
0010
0001
0000
1000
0000
0010
0000
,
1000
0100
1000
0000
0010
0000
0100
0000
0001
1000
0100
0000
0010
0000
0001
0000
,
1000
0001
0100
0000
0010
0000
1000
0000
0001
0010
0100
0000
1000
0000
0001
0000
,
0100
0001
1000
0000
0100
0000
0010
0000
0001
0100
0010
0000
1000
0000
0001
0000
,
0010
0100
1000
0000
0010
0000
0100
0000
0001
1000
0100
0000
0010
0000
0100
0000
,
1000
0000
0000
0001
0000
0000
0100
0000
0000
0000
0000
0000
0010
0000
0000
0000
0000
0000
1000
0000
0000
0000
0000
0000
0001
0000
0000
0000
0010
0000
0000
0000
0100
0000
0000
0000
1000
0000
0000
0000
0100
0000
0000
0000
0010
0000
0000
0000
,
0001
0100
0010
1000
0010
0100
0001
1000
0100
0010
0001
0100
,
1000
0100
0010
1000
0100
0010
0001
0100
0010
1000
0100
0010
,
1000
0010
0001
1000
0010
0100
0001
0010
0100
1000
0001
0100
,
0010
0000
0000
0000
0100
0000
0000
0000
0001
0000
0000
0000
1000
0000
0000
0000
0100
0000
0000
0000
0010
0000
0000
0000
0001
0000
0000
0000
0000
0000
1000
0000
0000
0000
0000
0000
0010
0000
0000
0000
0000
0000
0100
0000
0000
0001
0000
0000
,
1000
0000
0100
0000
0010
0000
0100
1000
0010
0000
0100
0000
0001
0000
1000
0100
,
0010
0000
0100
0000
1000
0000
0001
0000
0100
0001
0100
0001
0100
0000
0010
1000
,
0001
0010
0001
0010
0001
0000
1000
0001
1000
0010
1000
0010
0100
0001
0100
0001
,
1000
0010
0100
0001
1000
0100
0010
0001
1001
0000
1001
0000
0000
0000
0000
0000
,
0101
0101
0000
0000
0110
0110
0000
0000
,
1010
0000
1001
0000
0011
0001
0100
0010
,
1010
1000
0100
0010
0011
0001
1001
1000
,
0010
0001
0010
0100
0001
1000
0100
0010
0001
0000
0000
1000
0001
0000
0000
0100
,
0001
0000
1000
0000
0100
0010
0001
0000
1000
0000
0010
0000
0100
0000
0001
0000
,
1000
0000
0000
0010
1000
0000
0000
0001
1000
0000
0100
0000
0010
0001
1000
0000
,
0010
0000
0100
0000
0001
0000
1000
0000
0100
0000
0000
0100
0010
0000
0000
0010
,
0001
0000
1000
0000
0010
0100
0001
0000
1000
0000
0100
0000
0010
0000
0001
0000
,
0100
0000
0000
0100
1000
0000
0000
1000
0100
0000
0001
0000
1002
0000
0000
0000
,
0000
0000
0013
0000
0120
0000
0000
0001
,
0001
0000
0230
0000
0302
0000
0103
1000
,
2001
0020
3030
0101
,
1001
0000
1000
0010
1010
0000
1000
0100
,
1100
1000
1001
0000
0101
0000
0100
0000
,
0110
1010
1001
0011
,
0110
0000
1100
0000
2001
0000
3001
0200
,
0000
0310
1000
0001
0010
0100
1000
0001
,
1000
0100
0010
0001
1000
0100
0010
0001
1000
0010
0100
0000
0001
0000
1000
0000
,
0100
0000
0010
0000
0100
0000
1000
0000
0001
0100
0010
0000
1000
0000
0100
0000
,
0010
0000
0100
0000
1000
0000
0001
0000
0100
0010
1000
0000
0001
0000
0010
0100
,
1000
0001
0100
0000
0010
0000
1000
0000
0001
0010
0100
0000
0010
0000
0001
0000
,
1000
0010
0100
0000
0010
0000
1000
0001
0010
0000
0100
0000
1000
0001
0100
0000
,
0010
0000
1000
0000
0001
0000
0010
0000
0100
0000
1000
0000
0010
0100
0001
0000
,
1000
0000
0100
0000
0010
0000
0001
0000
1000
0000
0010
0000
0100
0001
1000
0000
,
0100
0000
0010
0000
0100
0000
1000
0000
0001
0000
0100
0010
1000
0000
0001
0000
,
0010
0000
0100
0000
0010
0000
0001
0000
1000
0010
1000
0010
1000
0000
0001
0000
,
0010
0100
0010
0100
0010
0000
0001
0000
1000
0100
1000
0100
1000
0000
0001
0000
,
0100
0001
0100
0001
0100
0000
0001
0000
1000
0100
1000
0100
0010
0001
0010
0001
,
1000
0010
1000
0010
0100
0000
0001
0000
1000
0001
1000
0001
0100
0010
0100
0010
,
1000
0000
0000
0001
0000
0000
1000
0000
0000
0001
0000
0000
0010
0000
0000
0100
0000
0000
1000
0000
0000
0001
0000
0000
1001
0000
0000
0000
0000
0000
0000
0000
0000
0000
0000
0000
1000
0000
0000
0000
0010
0000
0000
0000
1000
0000
0000
0000
,
0010
0000
0000
0100
0001
0100
0010
0000
0000
1010
0000
0000
,
1000
0000
0000
0001
0000
0000
0011
0000
0000
0010
0100
0010
,
0100
0000
0000
1000
0001
1000
0010
0000
0000
0110
0000
0000
,
0100
0000
0001
0000
1001
1000
0100
0010
,
0100
1000
0001
0100
0010
0100
0001
0010
,
1000
0010
0100
1000
2010
0000
0000
0000
,
0100
0000
0000
3001
0000
0000
1000
0010
0100
0001
0010
0100
,
1000
0000
0000
0000
0001
0000
0000
0000
0100
0000
0000
0000
0010
0000
0000
0000
0100
0000
0000
0000
0001
0000
0000
0000
1000
0000
0000
0100
0000
0000
0010
0000
0000
0001
0000
0000
1000
0000
0000
0100
0000
0000
0010
0000
0000
0001
0000
0000
,
1000
0100
0010
0001
1000
0100
0010
0001
1000
0100
0010
0001
1000
0100
0010
0000
,
0001
0100
0010
1000
0100
0010
0001
0000
1000
0001
0100
0010
1000
0001
0100
0010
,
1000
0001
0100
0010
1000
0001
0100
0010
1000
0001
0010
0100
1000
0001
0010
0100
,
1000
0001
0010
0100
1000
0001
0010
0100
1000
0010
1000
0010
1000
0010
1000
0010
,
1000
0010
1000
0010
1000
0010
0100
0001
0010
0000
0000
0000
2200
0000
0000
0000
,
0000
0000
0000
0000
,
0000
0000
0000
0000
,
0000
0000
0000
0000
,
0000
0000
3300
0000
;

//---------------dance-single - ----------------
#NOTES:
     dance-single:
     :
     Challenge:
     18:
     0.000000,0.000000,0.000000,0.000000,0.000000,0.000000,0.000000,0.000000,0.000000,0.000000,0.000000,0.000000,0.000000,0.000000,0.000000,0.000000,0.000000,0.000000,0.000000,0.000000,0.000000,0.000000:
0000
0000
0000
0000
,
0000
0000
0000
0000
,
0000
0000
0000
0000
,
0000
0000
0000
0000
,
0000
0000
0000
0000
,
0000
0000
0000
0000
,
0000
0000
0000
0000
,
0000
0000
0000
0000
,
0000
0000
0000
0000
0000
0000
1000
0100
0010
0001
0100
0010
,
1000
0001
0010
0100
0010
0001
1000
0010
0100
0010
1000
0001
,
0010
0100
1000
0001
0100
0010
1000
0001
0010
0100
0010
0001
,
1000
0010
0100
0001
0010
0100
1000
0001
0100
0010
1000
0100
,
0010
0001
1000
0010
0100
0010
1000
0001
0010
0100
1000
0001
,
0100
1000
0100
0010
1000
0100
0001
0100
0010
0001
0100
0010
,
0001
0010
0100
0001
1000
0100
0001
0100
0010
0001
1000
0010
,
0100
0001
0010
0100
0010
0001
1000
0010
0100
0001
1000
0001
,
0010
0001
1000
0001
0010
0100
1000
0010
0100
0001
1000
0100
,
0000
0000
0000
1000
0010
0100
0001
0001
0001
0001
0000
0000
,
0010
0000
0000
0100
0000
0000
0000
0000
0000
1000
0000
0000
1000
0000
1000
0000
1000
0000
0010
0000
0000
0100
0000
0000
,
0001
0000
0001
0000
0001
0000
0001
0000
0000
0000
0000
0000
0010
0000
0000
0100
0000
0000
0000
0000
0000
1000
0000
0000
,
1000
0000
0000
0000
1000
0000
0000
0000
1000
0000
0000
0000
0010
0000
0000
0000
0000
0000
0100
0000
0000
0000
0000
0000
0001
0000
0000
1000
0000
0000
0100
0000
0000
1000
0000
0000
0001
0000
0000
0000
0000
0000
0010
0000
0000
0000
0000
0000
,
0100
1000
0010
1000
0100
0000
0010
0000
0001
1000
0010
0100
0010
0000
1000
0000
,
0001
0010
0100
1000
0001
0100
0010
0100
0001
1000
0010
0100
0001
0000
1000
0000
,
0100
0010
0001
1000
0010
0000
0100
0000
0001
0010
0100
0010
0001
1000
0100
0010
,
0001
0100
0010
1000
0100
0010
0001
0100
0010
0100
0001
1000
0100
0000
0010
0000
,
0001
1000
0010
0100
0001
0000
1000
0000
0100
0010
0100
1000
0001
0000
0100
0000
,
0010
1000
0001
0010
0100
0010
0001
0100
0010
0001
0010
1000
0001
0000
0010
0000
,
0100
0001
0100
1000
0001
0000
0100
0000
0010
0100
1000
0100
0010
1000
0001
0010
,
0100
0000
0000
0001
0000
0000
0100
0000
0000
1000
0000
0000
0001
0000
0000
0100
0000
0000
0010
0000
0000
1000
0000
0000
0001
0000
0000
0000
0100
0000
0000
0000
0010
0000
0000
0000
1000
0000
0000
0000
0001
0000
0000
0000
0010
0000
0000
0000
,
0100
0010
0001
1000
0010
0100
0001
0010
0100
1000
0010
0100
,
1000
0100
0001
1000
0100
0010
0100
1000
0010
0100
0001
0010
,
1000
0010
0100
1000
0001
0100
0010
1000
0001
0010
0100
0010
,
1000
0000
0000
0000
0010
0000
0000
0000
0001
0000
0000
0000
0100
0000
0000
0000
0010
0000
0000
0000
1000
0000
0000
0000
0001
0000
0000
0010
0000
0000
0100
0000
0000
1000
0000
0000
0010
0000
0000
0000
0000
0000
0100
0000
0000
0001
0000
0000
,
1000
0100
0010
0001
0100
0000
0010
1000
0100
0010
0100
1000
0001
0000
0100
0010
,
1000
0100
0010
0001
1000
0000
0010
0000
0001
0010
1000
0001
0010
0100
0010
0001
,
0100
0010
1000
0001
0010
0100
1000
0001
0100
1000
0100
0010
1000
0001
0010
0100
,
1000
0001
0100
0010
0100
0001
1000
0100
0110
0000
0110
0000
0000
0000
0000
0000
,
0011
0011
0000
0000
1100
1100
0000
0000
,
0101
0000
0000
0000
0001
1000
0001
1000
1001
0000
0010
0000
0100
0000
0010
0000
,
1001
0100
0010
0100
1001
0001
0101
0100
,
0010
0001
0010
0100
0001
1000
0100
0010
0001
0000
1000
0010
1000
0000
0001
0010
,
0001
0000
1000
0000
0100
0010
0001
0010
0100
0000
1000
0000
0010
0000
0100
0000
,
0001
0000
1000
0100
1000
0000
0001
0100
0001
0000
1000
0000
0100
1000
0010
1000
,
0100
0000
0010
0000
0001
0000
0100
0000
0010
0000
1000
0010
0100
0000
0001
0010
,
0100
0000
1000
0000
0010
0100
0001
1000
0010
0000
1000
0000
0100
0000
0010
0000
,
0001
0000
0100
0001
1000
0000
0100
0010
0001
0000
1000
0000
1020
0000
0000
0000
,
0001
0000
0130
0000
0201
0000
0000
1000
,
1000
0000
2300
0000
3002
0000
0013
0110
,
0210
0000
0302
0000
0000
0003
0101
0000
,
1100
0000
1000
1010
0101
0000
0001
0100
,
0101
0001
1001
0000
1100
0000
0010
0000
,
1001
0101
1100
1001
,
0011
0000
1010
0000
2001
0000
3001
0200
,
0000
0310
1000
0001
0010
0100
1000
0010
,
1000
0100
0010
0001
1000
0100
0010
0001
1000
0010
0100
0000
0001
0000
1000
0100
,
0010
0000
0100
0000
1000
0001
0100
0000
0010
1000
0001
0000
0010
0000
0100
1000
,
0001
0000
0100
0000
0010
1000
0001
0000
1000
0100
0010
0001
1000
0000
0001
1000
,
0001
0100
0010
1000
0001
0000
0100
0000
0001
1000
0100
0010
0001
0000
0100
0010
,
1000
0000
0000
0001
0000
0000
0010
0000
0000
0100
0000
0000
1000
0000
0000
0001
0000
0000
1000
0000
0100
0000
0010
0000
0001
0000
0000
0000
0000
0000
0100
0000
0000
0000
0000
0000
0001
0000
0100
0000
0010
0000
1000
0000
0000
0000
0000
0000
,
0001
0000
0000
0100
0000
0000
1000
0000
0000
0000
0000
0000
1000
0000
0000
0100
0000
0000
0001
0000
0000
0000
0000
0000
1000
0000
0000
0000
0000
0000
0010
0000
0000
0000
0000
0000
1000
0000
0100
0000
0010
0000
0001
0000
0000
0000
0000
0000
,
1000
0000
0000
0100
0000
0000
0001
0000
0000
0000
0000
0000
0001
0000
0000
0100
0000
0000
1000
0000
0000
0000
0000
0000
0010
0000
0000
0000
0000
0000
0100
0000
0000
0000
0000
0000
0001
0000
0100
0000
0010
0000
1000
0000
0000
0000
0000
0000
,
0001
0000
0000
0010
0000
0000
1000
0000
0000
0000
0000
0000
0001
0000
0000
0100
0000
0000
1000
0000
0000
0000
0000
0000
0001
0000
0000
0000
0000
0000
1000
0000
0100
0000
0010
0000
0001
0000
0000
0000
0000
0000
1000
0000
0000
0000
0000
0000
,
0001
0100
1000
0000
0001
0010
1000
0000
0001
0010
0100
1000
0001
0000
0100
0000
,
0001
0100
0010
1000
0001
0000
0010
0000
0001
1000
0100
0010
0001
0000
0100
0000
,
0001
1000
0010
0100
0001
0000
0010
0000
0001
0100
1000
0100
0010
1000
0100
0010
,
0001
0010
1000
0010
0100
1000
0001
0100
0001
1000
0100
0010
0001
1000
0100
0010
,
0001
0000
0000
1000
0000
0000
0010
0000
0000
0100
0000
0000
0001
0000
0000
1000
0000
0000
0010
0000
0000
0100
0000
0000
0101
0000
0000
0000
0000
0000
0000
0000
0000
0000
0000
0000
0001
0000
0000
0000
0001
0000
0000
0000
0001
0000
0000
0000
,
0001
0000
0000
0100
0100
0100
0010
0000
0000
1010
0000
0000
,
1000
0000
0000
0100
0000
0000
1100
0000
0000
1000
1000
1000
,
1000
0000
0000
0001
0001
0001
0010
0000
0000
0011
0000
0000
,
0001
0000
1000
0000
1010
0010
1000
0010
,
0100
0001
1000
0100
0010
0001
0100
0010
,
0001
0010
1000
0100
0210
0000
0000
0000
,
0001
0000
0000
0010
0000
0000
1300
0001
0010
1000
0001
0100
,
0010
0000
0000
0000
0001
0000
0000
0000
1000
0000
0000
0000
0010
0000
0000
0000
0100
0000
0000
0000
0001
0000
0000
0000
1000
0000
0000
0100
0000
0000
0010
0000
0000
0001
0000
0000
1000
0000
0000
0010
0000
0000
0100
0000
0000
0001
0000
0000
,
1000
0100
0010
0001
1000
0010
0100
0001
1000
0100
0010
0001
1000
0010
0100
0001
,
1000
0100
0001
1000
0010
0100
1000
0010
1000
0001
0010
0100
1000
0001
0100
0010
,
1000
0001
0010
0100
1000
0001
0100
0010
1000
0100
0010
0001
1000
0001
0100
1000
,
0001
0010
0100
1000
0100
0001
0010
0100
1000
0010
1000
0010
1000
0010
1000
0010
,
1000
0010
1000
0010
1000
0010
0100
0001
0010
0000
0000
0000
2200
0000
0000
0000
,
0000
0000
0000
0000
,
0000
0000
0000
0000
,
0000
0000
0000
0000
,
0000
0000
3300
0000
;

//---------------dance-single - XO++, STR(8 (4) 4 (17.5) 12 (8) 5)----------------
#NOTES:
     dance-single:
     demon legz ☺:
     Edit:
     19:
     0.000000,0.000000,0.000000,0.000000,0.000000,0.000000,0.000000,0.000000,0.000000,0.000000,0.000000,0.000000,0.000000,0.000000,0.000000,0.000000,0.000000,0.000000,0.000000,0.000000,0.000000,0.000000:
0000
0000
0000
0000
,
0000
0000
0000
0000
,
0000
0000
0000
0000
,
0000
0000
0000
0000
,
0000
0000
0000
0000
,
0000
0000
0000
0000
,
0000
0000
0000
0000
,
0000
0000
0000
0000
,
0000
0000
0000
0000
0000
0000
1000
0100
0010
0001
0100
0010
,
1000
0001
0010
0100
0010
0001
1000
0010
0100
0010
1000
0001
,
0010
0100
1000
0001
0100
0010
1000
0001
0010
0100
0010
0001
,
1000
0010
0100
0001
0010
0100
1000
0001
0100
0010
1000
0100
,
0010
0001
1000
0010
0100
0010
1000
0001
0010
0100
1000
0001
,
0100
1000
0100
0010
1000
0100
0001
0100
0010
0001
0100
0010
,
0001
0010
0100
1000
0100
0010
0001
0010
1000
0001
0010
0100
,
1000
0001
1000
0010
1000
0001
1000
0010
0100
0001
1000
0001
,
0010
0001
1000
0001
0010
0100
1000
0010
0100
0001
1000
0100
,
0000
0000
0000
1000
0010
0100
0001
0001
0001
0001
0000
0000
,
0010
0000
0000
0100
0000
0000
0000
0000
0000
1000
0000
0000
1000
0000
1000
0000
1000
0000
0010
0000
0000
0100
0000
0000
,
0001
0000
0001
0000
0001
0000
0001
0000
0000
0000
0000
0000
0010
0000
0000
0100
0000
0000
0000
0000
0000
1000
0000
0000
,
1000
0000
0000
0000
1000
0000
0000
0000
1000
0000
0000
0000
0010
0000
0000
0000
0000
0000
0100
0000
0000
0000
0000
0000
0001
0000
0000
0010
0000
0000
0100
0000
0000
0010
0000
0000
0001
0000
0000
1000
0000
0000
0010
0000
0000
0100
0000
0000
,
0010
1000
0001
0010
0100
1000
0001
0100
0010
1000
0001
0010
0100
0010
0001
1000
,
0010
0100
0001
1000
0100
0010
0100
1000
0001
0100
0010
1000
0001
0010
0100
1000
,
0001
0100
0001
1000
0100
0010
0001
1000
0010
0100
0001
0010
0100
1000
0001
0100
,
0010
1000
0001
0010
0100
1000
0010
0100
0001
1000
0010
0100
0010
1000
0001
0010
,
0100
1000
0010
0100
0001
1000
0001
0010
0100
1000
0001
0100
0010
1000
0001
1000
,
0100
0010
0001
1000
0010
0100
0010
1000
0001
0010
0100
1000
0010
0100
0001
1000
,
0001
0010
0100
1000
0001
0100
0010
1000
0001
0010
0100
1000
0010
0100
0001
0010
,
0100
0000
0000
1000
0000
0000
0001
0000
0000
0100
0000
0000
0010
0000
0000
1000
0000
0000
0100
0000
0000
0010
0000
0000
0001
0000
0000
0000
0100
0000
0000
0000
0010
0000
0000
0000
1000
0000
0000
0000
0010
0000
0000
0000
0100
0000
0000
0000
,
0001
0010
0100
1000
0100
0010
0001
0010
1000
0001
0100
0010
,
1000
0010
0100
0001
0100
1000
0001
0100
1000
0001
0010
0100
,
1000
0100
0010
0001
1000
0100
0010
1000
0001
0010
0100
0010
,
1000
0000
0000
0000
0010
0000
0000
0000
0001
0000
0000
0000
0100
0000
0000
0000
0010
0000
0000
0000
1000
0000
0000
0000
0001
0000
0000
0010
0000
0000
0100
0000
0000
1000
0000
0000
0010
0000
0000
0100
0000
0000
0010
0000
0000
1000
0000
0000
,
0001
0010
0100
1000
0001
0100
0010
0100
0001
1000
0100
0010
0001
0100
0010
1000
,
0001
0010
0100
1000
0010
0100
0001
0100
1000
0100
0010
1000
0001
0010
0100
1000
,
0010
0100
0001
0010
0100
1000
0001
0100
1000
0100
0010
0001
0010
1000
0100
0010
,
0001
1000
0010
0100
0010
1000
0001
0010
0110
0000
0110
0000
0000
0000
0000
0000
,
0011
0011
0000
0000
1100
1100
0000
0000
,
0101
0000
0000
0000
0001
1000
0001
1000
1001
0000
0010
0000
0100
0000
0010
0000
,
1001
0100
0010
0100
1001
0001
0101
0100
,
0010
0001
0010
0100
1000
0100
0001
1000
0001
0000
1000
0010
1000
0000
0001
0010
,
0001
0000
1000
0000
0100
0010
0001
0010
0100
0000
1000
0000
0010
0000
0100
0000
,
0001
0000
1000
0100
1000
0000
0001
0100
0001
0000
1000
0000
0100
1000
0010
1000
,
0100
0000
0010
0000
0001
0000
0100
0000
0010
0000
1000
0010
0100
0000
0001
0010
,
0100
0000
0001
0000
1000
0010
0100
0001
0100
0000
1000
0000
0100
0000
0010
0000
,
0001
0000
0100
0001
1000
0000
0100
0010
0001
0000
1000
0000
0010
0001
0010
0100
,
1000
0100
0001
0100
0201
0000
0000
1000
,
1000
0000
2300
0000
3002
0000
0013
0110
,
0210
0001
0302
0000
0000
0003
0101
0000
,
1100
0000
1000
1010
0101
0000
0001
0100
,
0101
0001
1001
0000
1100
0000
0010
0000
,
1001
0101
1100
1001
,
0011
0000
1010
0000
2001
0000
3001
0200
,
0000
0310
0001
1000
0100
0010
0001
0010
,
1000
0100
0010
0001
1000
0010
0100
0001
1000
0001
0100
0010
0100
0001
1000
0100
,
0010
0100
1000
0001
0100
0010
1000
0001
1000
0100
0010
0001
0100
0010
1000
0001
,
0010
0100
0010
0001
1000
0010
0100
0010
0001
0010
0100
0001
1000
0100
0010
0100
,
1000
0010
0100
0001
1000
0100
0010
0001
0100
0010
1000
0001
0010
0100
0001
0100
,
1000
0000
0000
0001
0000
0000
0100
0000
0000
0010
0000
0000
1000
0000
0000
0001
0000
0000
1000
0000
0100
0000
0010
0000
0001
0000
0000
1000
0000
0000
0100
0000
0000
1000
0000
0000
0001
0000
0100
0000
0010
0000
1000
0000
0000
0100
0000
0000
,
1000
0000
0000
0010
0000
0000
0100
0000
0000
0001
0000
0000
0010
0000
0000
0100
0000
0000
1000
0000
0000
0001
0000
0000
0100
0000
0000
0010
0000
0000
1000
0000
0000
0001
0000
0000
1000
0000
0100
0000
0010
0000
0001
0000
0000
0100
0000
0000
,
0010
0000
0000
0100
0000
0000
0001
0000
0000
0010
0000
0000
0100
0000
0000
1000
0000
0000
0010
0000
0000
0100
0000
0000
0001
0000
0000
0010
0000
0000
0100
0000
0000
0010
0000
0000
0001
0000
0010
0000
0100
0000
1000
0000
0000
0010
0000
0000
,
0100
0000
0000
0010
0000
0000
1000
0000
0000
0001
0000
0000
0010
0000
0000
0100
0000
0000
1000
0000
0000
0001
0000
0000
0100
0000
0000
0001
0000
0000
1000
0000
0100
0000
0010
0000
0001
0000
0000
1000
0000
0000
0001
0000
0000
0100
0000
0000
,
0010
1000
0100
0001
0100
0010
0001
1000
0010
0001
0010
0100
0001
1000
0100
0010
,
1000
0010
0001
0100
0010
1000
0001
0010
1000
0010
0100
1000
0010
0100
0001
0100
,
1000
0100
0010
1000
0100
0010
0001
1000
0001
0100
1000
0100
0010
1000
0100
0010
,
0001
0010
1000
0010
0100
1000
0001
0100
0001
1000
0100
0010
0001
1000
0100
0001
,
1000
0000
0000
0010
0000
0000
0100
0000
0000
0001
0000
0000
0100
0000
0000
1000
0000
0000
0001
0000
0000
0100
0000
0000
0101
0000
0000
0000
0000
0000
0000
0000
0000
0000
0000
0000
0001
0000
0000
0000
0001
0000
0000
0000
0001
0000
0000
0000
,
0001
0000
0000
0100
0100
0100
0010
0000
0000
1010
0000
0000
,
1000
0000
0000
0100
0000
0000
1100
0000
0000
1000
1000
1000
,
1000
0000
0000
0001
0001
0001
0010
0000
0000
0011
0000
0000
,
0001
0000
1000
0000
1010
0010
0001
0010
,
0100
1000
0100
0001
1000
0100
0001
0100
,
0010
1000
0010
0100
0210
0000
0000
0000
,
0001
0000
0000
0010
0000
0000
1300
0001
0010
1000
0001
0100
,
0010
0000
0000
0000
0001
0000
0000
0000
1000
0000
0000
0000
0010
0000
0000
0000
0100
0000
0000
0000
0001
0000
0000
0000
1000
0000
0000
0100
0000
0000
0010
0000
0000
0001
0000
0000
1000
0000
0000
0010
0000
0000
0100
0000
0000
0001
0000
0000
,
1000
0100
0010
0001
1000
0010
0100
0001
1000
0100
0010
0001
1000
0010
0100
0001
,
1000
0100
0010
0100
1000
0001
0100
1000
0001
0010
0100
1000
0001
0010
0100
1000
,
0001
0010
0100
1000
0100
0001
1000
0100
0001
0100
0010
1000
0001
0100
0010
1000
,
0001
0100
0010
1000
0010
0001
0100
0010
1000
0010
1000
0010
1000
0010
1000
0010
,
1000
0010
1000
0010
1000
0010
0100
0001
0010
0000
0000
0000
2200
0000
0000
0000
,
0000
0000
0000
0000
,
0000
0000
0000
0000
,
0000
0000
0000
0000
,
0000
0000
3300
0000
;

//---------------dance-single - ----------------
#NOTES:
     dance-single:
     :
     Beginner:
     6:
     0.255465,0.557162,0.195730,0.142349,0.000000,201.000000,179.000000,22.000000,16.000000,0.000000,0.000000,0.255465,0.557162,0.195730,0.142349,0.000000,201.000000,179.000000,22.000000,16.000000,0.000000,0.000000:
// measure 0
0000
0000
0000
0000
,  // measure 1
0000
0000
0000
0000
,  // measure 2
0000
0000
0000
0000
,  // measure 3
0000
0000
0000
0000
,  // measure 4
0000
0000
0000
0000
,  // measure 5
0000
0000
0000
0000
,  // measure 6
0000
0000
0000
0000
,  // measure 7
0000
0000
0000
0000
,  // measure 8
0000
0000
0000
0000
,  // measure 9
1000
0000
0010
0000
,  // measure 10
0100
0000
0001
0000
,  // measure 11
1000
0000
0100
0000
,  // measure 12
0010
0000
0100
0000
,  // measure 13
1000
1000
0001
0000
,  // measure 14
0100
0100
0010
0000
,  // measure 15
1000
0000
0001
0000
,  // measure 16
0010
0000
0100
0000
,  // measure 17
0000
0000
1000
0000
,  // measure 18
1000
0000
0001
0000
,  // measure 19
0001
0000
0001
0000
,  // measure 20
0100
0000
0100
0100
,  // measure 21
0001
0000
1000
1000
,  // measure 22
0100
0000
0010
0010
,  // measure 23
0001
0000
1000
1000
,  // measure 24
0010
0010
0100
0100
,  // measure 25
0001
0000
0010
0010
,  // measure 26
0100
0000
1000
1000
,  // measure 27
0001
0000
0100
0100
,  // measure 28
0010
0010
1000
0000
,  // measure 29
0001
0000
1000
0000
,  // measure 30
0001
0000
0100
0000
,  // measure 31
0010
0000
0100
0000
,  // measure 32
0010
0000
1000
1000
,  // measure 33
1000
0000
0001
0001
,  // measure 34
0001
0000
0100
0100
,  // measure 35
0100
0000
0010
0010
,  // measure 36
0010
0000
1001
0000
,  // measure 37
1001
0000
0110
0000
,  // measure 38
0110
0000
1001
0000
,  // measure 39
0110
0000
1001
0000
,  // measure 40
0110
0000
2000
0000
,  // measure 41
3000
0002
0000
0003
,  // measure 42
0200
0000
0300
0020
,  // measure 43
0000
0030
2000
0000
,  // measure 44
3000
0200
0000
0300
,  // measure 45
0020
0000
0030
0002
,  // measure 46
0000
0003
0200
0000
,  // measure 47
0300
0010
0020
0030
,  // measure 48
2000
0000
3000
0001
,  // measure 49
0002
0003
0020
0000
,  // measure 50
0030
0100
0200
0300
,  // measure 51
1001
1001
1001
0110
,  // measure 52
0110
0110
1001
0000
,  // measure 53
0001
0000
0100
0000
,  // measure 54
0010
0010
1000
0000
,  // measure 55
0001
0001
1000
0000
,  // measure 56
0100
0100
0010
0000
,  // measure 57
0001
0000
1000
0000
,  // measure 58
0010
0000
0100
0100
,  // measure 59
0001
0001
1000
1000
,  // measure 60
0100
0100
0010
0010
,  // measure 61
0100
0100
1000
1000
,  // measure 62
0001
0001
0100
0001
,  // measure 63
0100
0000
0001
1000
,  // measure 64
0001
0000
1000
0100
,  // measure 65
1000
0000
1001
0000
,  // measure 66
0110
0000
1001
0000
,  // measure 67
0000
0000
1001
0000
,  // measure 68
0000
0000
0110
0000
,  // measure 69
0000
0000
0110
0000
,  // measure 70
0000
0000
0001
0001
,  // measure 71
1000
1000
0001
1000
,  // measure 72
0001
1000
1001
0000
,  // measure 73
0001
1000
0002
0000
,  // measure 74
0000
0003
1000
1000
,  // measure 75
0100
0100
0010
0010
,  // measure 76
0001
0001
1000
0100
,  // measure 77
0010
0001
1000
0010
,  // measure 78
0100
0001
1000
0000
,  // measure 79
0000
0001
0010
0200
,  // measure 80
0000
0000
0000
0000
,  // measure 81
0000
0000
0000
0000
,  // measure 82
0000
0000
0000
0000
,  // measure 83
0000
0000
0300
0000
;
