#TITLE:BIG-BANG STARS;
#SUBTITLE:;
#ARTIST:co-ping;
#TITLETRANSLIT:;
#SUBTITLETRANSLIT:;
#ARTISTTRANSLIT:;
#GENRE:;
#CREDIT:;
#BANNER:BIG-BANG STARS.png;
#BACKGROUND:BIG-BANG STARS-bg.png;
#LYRICSPATH:;
#CDTITLE:pop'n music.png;
#MUSIC:BIG-BANG STARS.ogg;
#OFFSET:-1.930000;
#SAMPLESTART:24.478001;
#SAMPLELENGTH:15.000000;
#SELECTABLE:YES;
#BPMS:0.000000=124.999992
;
#STOPS:
;
#BGCHANGES:4.000=light6.mp4=1.000=1=0=1===CrossFade==,
12.000=cyber1.mp4=1.000=0=0=1=====,
20.000=circle2.mp4=1.000=0=0=1=====,
28.000=cyber1.mp4=1.000=0=0=1=====,
36.000=circle2.mp4=1.000=0=0=1=====,
38.000=cyber1.mp4=1.000=0=0=1=====,
40.000=circle2.mp4=1.000=0=0=1=====,
42.000=cyber1.mp4=1.000=0=0=1=====,
44.000=light6.mp4=1.000=0=0=1=====,
47.000=tunnel5.mp4=1.000=0=0=1=====,
55.000=star7.mp4=1.000=0=0=1=====,
63.000=star1.mp4=1.000=0=0=1=====,
71.000=disco4.mp4=1.000=0=0=1=====,
79.000=star5.mp4=1.000=0=0=1=====,
87.000=ring3.mp4=1.000=0=0=1=====,
95.000=ring5.mp4=1.000=0=0=1=====,
103.000=circle2.mp4=1.000=0=0=1=====,
111.000=circle4.mp4=1.000=0=0=1=====,
115.000=star8.mp4=1.000=0=0=1=====,
119.000=star2.mp4=1.400=0=0=1=====,
123.000=star3.mp4=1.000=0=0=1=====,
127.000=cyber1.mp4=1.000=0=1=1=StretchRewind====,
131.000=light6.mp4=1.000=0=1=1=StretchRewind====,
135.000=star8.mp4=1.000=0=1=1=StretchRewind====,
139.000=star3.mp4=1.000=0=1=1=StretchRewind====,
142.000=fireworks5.mp4=1.000=0=0=1=====,
144.000=ring3.mp4=1.000=0=1=1=StretchRewind====,
152.000=star3.mp4=1.000=0=1=1=StretchRewind====,
156.000=star2.mp4=1.400=0=1=1=StretchRewind====,
160.000=circle4.mp4=1.000=0=1=1=StretchRewind====,
167.000=ring5.mp4=1.000=0=1=1=StretchRewind====,
175.000=star8.mp4=1.000=0=1=1=StretchRewind====,
183.000=circle2.mp4=1.000=0=1=1=StretchRewind====,
191.000=cyber1.mp4=1.000=0=1=1=StretchRewind====,
199.000=star2.mp4=1.400=0=1=1=StretchRewind====,
201.000=disco4.mp4=1.000=0=1=1=StretchRewind====,
205.000=tunnel5.mp4=1.000=0=1=1=StretchRewind====,
209.000=light6.mp4=1.000=0=1=1=StretchRewind====,
211.000=circle4.mp4=1.000=0=1=1=StretchRewind====,
213.000=star5.mp4=1.000=0=1=1=StretchRewind====,
216.000=fireworks5.mp4=1.000=0=1=1=StretchRewind====,
221.000=BIG-BANG STARS-bg.png=1.000=0=0=1=====,
99999=-nosongbg-=1.000=0=0=0 // don't automatically add -songbackground-
;
#KEYSOUNDS:;
#ATTACKS:;

//---------------dance-single - ----------------
#NOTES:
     dance-single:
     :
     Easy:
     5:
     0.198179,0.300571,0.081603,0.117871,0.000000,153.000000,144.000000,9.000000,13.000000,0.000000,0.000000,0.198179,0.300571,0.081603,0.117871,0.000000,153.000000,144.000000,9.000000,13.000000,0.000000,0.000000:
0000
0000
0000
0000
,
0000
0000
0000
0000
,
0000
0000
0000
0000
,
1000
0001
1000
0000
,
0001
1000
0001
0000
,
0100
0010
0100
0000
,
0010
0100
0010
0000
,
1000
1000
0100
0100
,
0010
0010
0001
0001
,
1000
0001
0000
0100
,
0000
0010
0000
1000
,
0000
0001
0000
1000
,
1000
1000
0000
0010
,
0000
0100
0000
0001
,
0001
0001
0000
0100
,
0000
0010
0000
0100
,
0100
0100
0000
0001
,
0000
0010
0000
0001
,
0000
1000
1000
1000
,
0000
0010
0000
0100
,
0100
0100
0000
0001
,
0000
0010
0000
0001
,
0001
0001
0000
0010
,
0000
0100
0000
1000
,
1000
1000
0000
0010
,
0000
0100
0000
0001
,
0001
0001
0000
2002
,
0000
0000
3003
0100
,
0100
0100
0110
0010
,
0010
0010
0110
1000
,
1000
1000
1001
0220
,
0000
0000
0330
0010
,
0010
0010
1000
0010
,
0010
0010
0100
0010
,
0010
0010
1000
0001
,
1000
0001
1000
0000
,
0001
0000
0001
0000
,
0200
0000
0000
0300
,
0010
0000
0010
0000
,
1000
0000
1000
1001
,
0000
0000
0000
0000
,
0000
0000
1001
0010
,
0010
0000
0100
0001
,
0001
1000
1000
0010
,
0010
0000
0100
0001
,
0001
1000
1000
0100
,
0100
0000
0010
0001
,
0001
1000
1000
0001
,
0100
0000
0010
1000
,
0001
0100
1001
0000
,
0000
2000
3010
1000
,
0001
0200
0301
0100
,
0010
2000
3000
0002
,
0003
0200
0300
0020
,
0030
2002
0000
0000
,
0000
3003
0000
0000
;

//---------------dance-single - ----------------
#NOTES:
     dance-single:
     :
     Beginner:
     2:
     0.126938,0.175333,0.009067,0.063469,0.000000,98.000000,97.000000,1.000000,7.000000,0.000000,0.000000,0.126938,0.175333,0.009067,0.063469,0.000000,98.000000,97.000000,1.000000,7.000000,0.000000,0.000000:
0000
0000
0000
0000
,
0000
0000
0000
0000
,
0000
0000
0000
0000
,
0000
1000
0000
0000
,
0000
0001
0000
0000
,
0000
1000
0000
0000
,
0000
0001
0000
0000
,
0000
1000
0000
0000
,
0000
0001
0000
0000
,
0000
1000
0000
0001
,
0000
1000
0000
0001
,
0000
1000
0000
0010
,
0000
0010
0000
0010
,
0000
0000
0000
0100
,
0000
0100
0000
0100
,
0000
0000
0000
0001
,
0000
0001
0000
0001
,
0000
0000
0000
1000
,
0000
1000
0000
1000
,
0000
0000
0000
0001
,
0001
0001
0000
0001
,
0000
1000
0000
1000
,
1000
1000
0000
0010
,
0000
0100
0000
0010
,
0010
0010
0000
0010
,
0000
0100
0000
0100
,
0100
0100
0000
0002
,
0000
0003
0000
1000
,
0000
1000
0000
0100
,
0000
0100
0000
0010
,
0000
0010
0000
0002
,
0000
0003
0000
1000
,
0000
1000
0000
0001
,
0000
0001
0000
0100
,
0000
0100
0000
0010
,
0000
0010
0000
0000
,
2000
0000
3000
0000
,
0002
0000
0003
0000
,
0200
0000
0300
0000
,
0010
0010
0000
0000
,
0000
0000
0000
0000
,
0000
0000
1000
0001
,
0001
0000
0000
0001
,
1000
0100
0010
0001
,
0001
0000
0000
1000
,
0001
0010
0100
1000
,
1000
0000
0000
0001
,
1000
0100
0010
0001
,
0001
0000
0000
0001
,
0010
0100
1000
1000
,
0000
0001
0000
0001
,
0000
1000
0000
1000
,
0000
0010
0000
0010
,
0000
0100
0000
0100
,
0000
2002
0000
0000
,
0000
3003
0000
0000
;

//---------------dance-single - ----------------
#NOTES:
     dance-single:
     :
     Medium:
     8:
     0.308278,0.350666,0.117871,0.108804,0.000000,238.000000,225.000000,13.000000,12.000000,0.000000,0.000000,0.308278,0.350666,0.117871,0.108804,0.000000,238.000000,225.000000,13.000000,12.000000,0.000000,0.000000:
0000
0000
0000
0000
,
0000
0000
0000
0000
,
0000
0000
0000
0000
,
1000
0000
0001
0000
0010
0001
0010
0000
,
0001
0000
1000
0000
0010
1000
0010
0000
,
1000
0000
0100
0000
0010
0001
0010
0000
,
0100
0000
1000
0000
0001
0100
0001
0000
,
0100
0010
0100
0000
0010
0000
1000
0000
,
0010
0100
0010
0000
0100
0000
0001
0000
,
1000
1100
0001
0101
,
0100
0110
0010
0220
,
0000
0000
0330
1000
,
0010
1000
0000
0001
0100
0001
0100
0000
,
0001
1000
0010
0100
,
0001
0010
0000
0010
0001
0000
1000
0000
,
0100
0010
0100
1000
,
0001
0100
0000
0001
1000
0001
1000
0000
,
0010
0100
0001
0010
,
0001
0000
1000
0000
0010
0000
0100
0001
,
0100
0000
0001
0100
0001
0000
1100
0000
,
1000
0010
0000
1000
0001
1000
0001
0000
,
0010
0001
0100
0001
,
1000
0010
0000
0010
1000
0000
0010
0000
,
0100
0000
0001
0010
0001
0000
0101
0000
,
0001
0100
0000
0100
0010
0100
0010
0000
,
1000
0001
0010
0100
,
1000
0100
0000
0100
1000
0000
0002
0000
,
0000
0000
0003
1000
,
0101
0000
0001
1000
0001
0000
0001
0000
,
1100
0000
0010
0100
0010
0000
1000
0000
,
0110
0000
0001
1000
0001
0000
0000
0000
,
0000
0000
0000
0100
,
0010
0000
0100
0100
0100
0000
0010
0000
,
0100
0000
0010
0010
0010
0000
1000
0000
,
0001
0000
1000
1000
1000
0000
0001
0000
,
1000
0000
0001
0001
0001
0000
0000
0000
,
2000
0010
0000
3010
,
0200
0001
0000
0301
,
0020
0001
0000
0031
,
1000
0001
1000
0000
0001
0100
0010
0000
,
0000
0000
0000
0000
,
0000
0000
1001
1000
,
0010
0100
0000
0001
1000
0001
1000
0000
,
0001
1000
0100
0010
,
0001
0010
0000
0001
1000
0001
1000
0000
,
0010
0000
0100
0010
0100
0000
0001
0000
,
1000
0100
0000
1000
0010
0100
0001
0000
,
0010
0001
1000
0001
,
0010
0001
0000
0100
0001
1000
0010
0000
,
0100
0000
0001
1000
0001
0000
0000
0000
,
0000
0000
1010
0000
0010
0000
0100
0001
,
0100
0000
0101
0000
0001
0000
1000
0001
,
1000
0020
1030
0200
,
1300
2000
3001
0020
,
0031
2002
0000
0000
,
0000
3003
0000
0000
;

//---------------dance-single - ----------------
#NOTES:
     dance-single:
     :
     Hard:
     11:
     0.414492,0.500952,0.190407,0.172273,0.149606,320.000000,299.000000,21.000000,19.000000,0.000000,0.000000,0.414492,0.500952,0.190407,0.172273,0.149606,320.000000,299.000000,21.000000,19.000000,0.000000,0.000000:
0000
0000
0000
0000
,
0000
0000
0000
0000
,
0000
0000
0000
0000
,
1000
0000
0001
0000
1000
0100
0010
0000
,
0001
0000
0010
0000
0100
1000
0101
0000
,
0100
0000
0010
0000
1000
0001
0010
0000
,
0001
0000
0100
0000
0010
1000
0100
0010
,
0001
0000
1000
0000
0100
0001
0100
1000
,
0001
0000
0100
0000
0010
1000
0010
0100
,
0002
1000
2003
0001
,
3002
0100
0203
0010
,
0310
0000
0000
0000
0000
0000
0110
0010
,
1000
0010
0000
0100
0001
0001
0100
0000
,
0001
0000
1000
0000
0100
0000
0000
1000
0000
0001
0100
0000
0010
0000
1000
0000
,
0100
0010
0000
0001
0100
0100
0010
1000
,
0010
0100
0001
0010
0100
1000
1001
0001
,
0100
0001
0000
0010
0001
0001
1000
0000
,
0100
0000
1000
0000
0001
0000
0000
0100
0000
0010
0100
0000
0010
0000
1000
0000
,
0001
0010
0000
0001
0010
0100
1000
0100
,
0010
0000
0100
0000
1000
0000
0001
0000
1000
0000
0010
0000
0110
0000
0000
0100
,
0001
0000
1000
0000
0000
0010
1000
0000
0001
0000
0100
0000
0001
0000
0000
0000
,
1000
0000
0100
0000
0010
0000
0000
0001
0000
0000
0010
0000
0100
0000
1000
0000
,
0001
0000
0100
0000
0000
0000
0010
0000
0010
0000
0100
0000
0001
0000
0000
1000
,
0100
0000
1000
0000
0001
0000
0000
0010
0000
0001
0100
0000
0010
0000
0000
1000
,
0010
0000
0100
0000
0000
0001
0100
0000
0010
0000
1000
0000
0001
0000
0100
0000
,
0010
0000
1000
0000
0100
0000
0000
1000
0000
0000
0001
0000
0010
0000
0100
0000
,
1000
0100
0010
0100
1000
0001
0022
0000
,
0000
0000
0033
1001
,
0100
0010
0000
0100
0001
0000
0010
0000
0001
0000
0000
0000
1001
0000
0000
0000
,
0010
1000
0000
0100
1000
0000
0010
0000
0100
0001
0000
0000
0011
0000
0000
0000
,
0001
1000
0000
0010
0100
0000
0010
0000
1000
0000
0000
0000
2020
0000
0000
0000
,
0000
0000
0000
0000
3030
0000
1000
0010
,
0001
0000
0001
0010
1000
0010
0100
0001
,
1000
0000
1000
0001
0100
0010
1000
0100
,
0001
0000
0001
0100
1000
0100
0011
0000
,
0001
1001
1000
0110
,
0002
1000
0100
1000
,
2003
0010
0001
0010
,
0200
0000
0000
3300
,
1000
0000
0001
0000
0010
0000
0000
0000
0001
1000
0000
0100
0000
0000
0000
0000
,
0000
0000
0000
0000
,
0000
0000
0000
0000
1001
0000
0001
0010
,
0001
0010
0000
0100
0100
0100
0100
0000
,
1000
0000
0100
0000
0010
0000
0000
0001
0000
0010
0001
0000
0100
0000
0010
0000
,
0100
0010
0000
1000
1000
1000
1000
0000
,
0001
0000
0010
0000
0100
0000
1000
0000
0001
0010
0000
0000
0001
0000
1000
0000
,
0100
1000
0000
0001
0001
0001
0001
0000
,
0100
0000
0010
0000
1000
0000
0000
0010
0000
0100
0001
0000
1000
0000
0010
0000
,
0100
0000
0001
0000
0000
0000
0010
0000
0010
0000
0010
0000
0010
0000
0000
0001
,
1000
0000
0000
0000
0100
0000
0000
1000
0001
0000
0000
0000
0220
0000
0000
0000
,
0330
0000
0000
0000
0001
0000
0100
0000
0110
0000
0000
1000
0010
0000
0100
0000
,
0001
0100
0000
0000
0100
0000
0010
0000
1010
0000
0000
1000
0001
0000
0010
0000
,
0001
0100
0000
0000
0120
0000
0000
0000
1030
0000
0000
0000
0210
0000
0000
0000
,
0301
2001
3100
1002
,
0013
2002
0000
0000
,
0000
3003
0000
0000
;

//---------------dance-single - ----------------
#NOTES:
     dance-single:
     :
     Challenge:
     15:
     0.660596,1.026952,0.226675,0.154139,0.852298,510.000000,485.000000,25.000000,17.000000,0.000000,0.000000,0.660596,1.026952,0.226675,0.154139,0.852298,510.000000,485.000000,25.000000,17.000000,0.000000,0.000000:
// measure 0
0000
0000
0000
0000
,  // measure 1
0000
0000
0000
0000
,  // measure 2
0000
0000
0000
0000
,  // measure 3
1000
0000
0000
0001
0100
0000
0010
0000
1000
0000
0100
0000
1000
0010
0000
0100
,  // measure 4
0001
0000
0000
0001
0010
0000
0001
0000
1000
0000
0010
0100
0010
0100
0000
0001
,  // measure 5
1000
0000
0000
1000
0100
0000
0010
0000
0100
0000
1000
0000
0001
0010
0000
0001
,  // measure 6
0100
0000
0000
0100
0010
0000
1000
0000
0010
0000
0100
0001
0100
0001
0100
0001
,  // measure 7
1000
0000
0001
0010
0000
0000
0001
0000
1000
0100
1000
0100
0000
0000
1000
0000
,  // measure 8
0010
0000
0100
0001
0000
0010
0000
0001
1000
0000
0010
0100
0010
0100
0010
0000
,  // measure 9
1000
0001
1000
0001
1000
0001
1000
0001
1000
0001
1000
0001
1000
0001
1000
0001
,  // measure 10
1000
0001
1000
0001
1000
0001
1000
0001
1000
0001
1000
0001
1000
0001
1000
0001
1000
0001
1000
0001
1000
0001
1000
0001
,  // measure 11
1000
0000
0000
0000
0000
0000
0000
0000
0000
0000
0000
0000
1001
0000
0000
0001
,  // measure 12
0010
0100
1000
0000
0100
0000
0010
0000
0010
0000
0001
0000
1000
0000
0000
0001
,  // measure 13
0100
0000
0010
0000
1000
0000
0000
1000
0100
0010
0100
0000
1001
0000
0001
0010
,  // measure 14
0001
0000
0100
0001
1000
0000
0010
0000
0100
0000
0100
0000
1001
0000
1000
0100
,  // measure 15
0010
0001
0100
0010
1000
0100
0010
0001
0010
0100
1000
0010
0100
0000
0000
0001
,  // measure 16
0010
0100
1000
0000
0010
0000
1000
0000
1000
0000
0001
0000
0010
0000
0000
0001
,  // measure 17
0100
0000
0010
0000
0100
0000
0000
0001
1000
0100
1000
0000
0101
0000
1000
0010
,  // measure 18
1000
0000
0001
0010
0100
0000
1000
0100
1000
0000
0001
0100
0001
0100
0010
0100
,  // measure 19
0000
0010
1000
0010
1000
0100
1000
0001
0000
0001
1000
0000
0110
0000
1000
0000
,  // measure 20
0001
0000
0000
1000
0100
0000
1000
0000
1000
0000
0001
0000
0010
0000
0000
0001
,  // measure 21
0100
0010
1000
0000
0010
0000
1000
0001
0000
0001
0100
0000
0010
0000
0000
0010
,  // measure 22
1000
0000
0001
0000
0010
0000
0100
0000
0100
0000
1000
0000
0001
0000
0000
1000
,  // measure 23
0001
0100
0010
0000
1000
0000
0001
0100
0010
1000
0010
1000
0100
0000
0000
1000
,  // measure 24
0001
0000
0010
0000
0000
0000
0001
0000
0001
0000
0100
0000
0010
0000
0000
0100
,  // measure 25
0001
0000
1000
0000
0010
0000
1000
0100
0010
0100
1000
0000
0001
0000
0100
0010
,  // measure 26
0100
0000
0001
0000
0000
1000
0001
0000
0001
0000
0100
0000
0010
0000
1000
0000
,  // measure 27
0001
0101
0000
0000
0000
0000
2100
0000
,  // measure 28
3001
0010
0000
0001
1000
0000
0100
1000
0100
1000
0000
0000
0120
0000
0000
0000
,  // measure 29
1030
0001
0000
0010
0100
0000
1000
0100
0001
0100
0000
0000
1002
0000
0000
0000
,  // measure 30
0013
0001
0000
1000
0001
0000
0100
0000
0010
0200
0000
0000
0300
0000
0000
0000
,  // measure 31
0000
0000
0000
0000
0000
0000
0000
0000
0000
0000
0000
0000
0001
1000
0000
0100
,  // measure 32
0000
1000
0010
1000
0000
0010
0000
0100
0000
0001
0010
0000
0001
1000
0000
0100
,  // measure 33
0000
1000
0100
0010
0000
0001
0000
0010
0000
0100
1000
0000
0001
1000
0000
0100
,  // measure 34
0000
1000
0010
1000
0010
1000
0000
0010
0000
0100
0001
0000
2001
0000
0000
0000
,  // measure 35
0010
0000
0000
0000
3002
0100
0000
0100
0000
0103
0010
0000
1002
0000
0000
0000
,  // measure 36
1003
0100
0010
0000
0001
0010
0100
1000
,  // measure 37
0001
0100
0001
0100
0001
0100
0001
0100
0001
0100
0001
0100
0001
0100
0001
0100
0001
0100
0001
0100
0001
0100
0001
0100
,  // measure 38
0002
0000
0000
0000
,  // measure 39
1003
0000
0001
0000
0010
0000
0000
0000
0001
1000
0000
1200
0000
0000
0300
0000
,  // measure 40
0000
0000
0000
0000
,  // measure 41
0000
0000
0000
0000
0000
0000
0000
1000
0001
0000
0000
0000
0011
0000
0001
0000
,  // measure 42
1000
0000
1200
0000
0000
1300
0001
0000
0100
0000
0100
0000
0010
0000
1000
0000
,  // measure 43
2001
0000
0000
0000
3001
0000
0001
1000
0000
0100
1000
0000
1100
0000
0100
0000
,  // measure 44
0010
0000
0012
0000
0000
0103
0010
0000
0100
0000
0100
0000
0001
0000
1000
0000
,  // measure 45
1100
0000
1000
0000
1001
0000
0001
0010
0100
1000
0100
0000
1100
0000
1000
0001
,  // measure 46
1000
0000
1000
0200
0000
0000
1300
0000
1001
0000
0001
0000
0110
0000
0001
0010
,  // measure 47
1000
0010
0001
0000
0100
0000
0010
1000
0000
0001
0100
0000
0110
0000
1000
0001
,  // measure 48
1000
0001
1000
0000
0010
0000
0100
0000
0100
0000
0001
0000
1000
0000
0000
0001
,  // measure 49
0100
0000
0000
0010
1000
0000
0000
0100
0010
0000
0001
0000
1000
0000
0000
0000
,  // measure 50
0000
0000
0000
0000
0101
0000
0001
0000
0001
1000
0000
1000
0100
0010
0001
0000
,  // measure 51
0001
0010
0000
0010
0100
0000
1000
0000
1000
0001
0000
0001
0010
0100
0010
0000
,  // measure 52
0001
0010
0000
0010
0002
0000
1000
0000
1000
0000
1003
0000
0200
0000
0010
0000
,  // measure 53
0010
0000
0000
0310
0000
0000
0001
1000
0001
1000
0001
1000
0001
1000
0100
1000
0100
1000
0100
0010
0100
0010
0100
0010
,  // measure 54
0001
0010
0001
0010
0000
0000
2002
0000
0000
0000
0000
0000
0000
0000
0000
0000
0000
0000
0000
0000
0000
0000
0000
0000
,  // measure 55
0000
3003
0000
0000
;

//---------------dance-double - ----------------
#NOTES:
     dance-double:
     :
     Easy:
     5:
     0.208541,0.324145,0.117871,0.054402,0.000000,161.000000,148.000000,13.000000,6.000000,0.000000,0.000000,0.208541,0.324145,0.117871,0.054402,0.000000,161.000000,148.000000,13.000000,6.000000,0.000000,0.000000:
00000000
00000000
00000000
00000000
,
00000000
00000000
00000000
00000000
,
00000000
00000000
00000000
00000000
,
00000000
10000000
00000000
00010000
,
00100000
00001000
00000000
00011000
,
00010000
00000010
00000000
00000100
,
00000001
00001000
00000000
00000100
,
00010000
00001000
00000000
00100000
,
00100000
00001000
00000000
00001000
,
00001000
01000000
00000000
00100000
,
00000000
10000000
00000000
00010000
,
00000000
01000000
00000000
00100000
,
00100000
00100000
00000000
10000000
,
00000000
10000000
00000000
00010000
,
00010000
00010000
00000000
00100000
,
00001000
00100000
00001000
00010000
,
00010000
00010000
00000000
00000010
,
00000000
00000100
00000000
00000001
,
00000001
00000001
00000000
00001000
,
00001000
00001000
00000000
00000010
,
00000010
00000010
00000000
00001000
,
00000000
00000100
00000000
00010000
,
00010000
00010000
00000000
00000100
,
00000000
00010000
00000000
00001000
,
00001000
00001000
00000000
01000000
,
00000000
00100000
00000000
10000000
,
10000000
10000000
00000000
02020000
,
00000000
03030000
00000000
00011000
,
00001000
00010000
00000010
00000100
,
00000000
00000100
00000000
00000011
,
00000001
00001000
00000100
00000000
,
00000000
00000000
00000000
00100000
,
00100000
00100000
00010000
10000000
,
10000000
10000000
01000000
00100000
,
00100000
00100000
00010000
00100000
,
00001000
00010000
00001000
00000000
,
00010000
00000010
00000000
00000010
,
00000100
00000001
00000000
00000001
,
00001000
00000100
00000000
00000100
,
00010000
00001000
00010000
00011000
,
00000000
00000000
00000000
00000000
,
00000000
00000000
10010000
01000000
,
01000000
01000000
00000000
00100000
,
10000000
00010000
00100000
00001000
,
00001000
00001000
00000000
00010000
,
00000010
00000100
00000010
00001000
,
00001000
00001000
00000000
00000001
,
00000010
00000100
00000010
00000001
,
00000001
00000001
00000000
00001000
,
00000100
00010000
00001000
00011000
,
00000000
00101000
00100000
00010000
,
01000000
01010000
00010000
10000000
,
01000000
11000000
10000000
00110000
,
00001000
00022000
00000000
00000000
,
00033000
00020020
00000000
00000000
,
00030030
00000000
00000000
00000000
;

//---------------dance-double - ----------------
#NOTES:
     dance-double:
     :
     Medium:
     8:
     0.327707,0.374014,0.145072,0.081603,0.000000,253.000000,237.000000,16.000000,9.000000,0.000000,0.000000,0.327707,0.374014,0.145072,0.081603,0.000000,253.000000,237.000000,16.000000,9.000000,0.000000,0.000000:
00000000
00000000
00000000
00000000
,
00000000
00000000
00000000
00000000
,
00000000
00000000
00000000
00000000
,
10000000
00000000
00010000
00000000
00100000
00010000
00100000
00000000
,
00001000
00000000
00010000
00000000
00000100
00001000
00000100
00000000
,
00001000
00000000
00000001
00000000
00000010
00000001
00000010
00000000
,
00000001
00001000
00000100
00010000
,
00000100
00000000
00001000
00000000
00000100
00010000
00000100
00000000
,
00010000
00000000
00001000
00000000
00100000
00001000
00100000
00000000
,
00001000
01000000
00001000
00000000
00010000
00001000
00010000
00000000
,
00001000
00010000
00001000
00000000
00010000
00000010
00010000
00000000
,
00000000
00000000
00000000
00000011
,
00000001
00001000
00000000
00001000
00000100
00001000
00000100
00000000
,
00010000
00001000
00100000
00000000
00010000
10000000
01000000
00000000
,
10000000
00100000
01000000
00010000
,
00100000
00010000
00100000
00011000
,
00010000
00000100
00000000
00001000
00000010
00001000
00000010
00000000
,
00000100
00000001
00001000
00000000
00000001
00001000
00000100
00000000
,
00010000
00000000
00001000
00000000
00010000
00000000
00001000
01000000
,
00100000
00000000
00100000
10000000
01000000
00000000
10000000
00010000
,
10000000
00010000
00000000
00100000
00010000
00100000
00010000
00000000
,
00100000
00000000
00001000
00000000
00011000
00000000
00010000
00000010
,
00010000
00000010
00000000
00000100
00000010
00000100
00000010
00000000
,
00001000
00000000
00000001
00000010
00000100
00000000
00000100
00010000
,
00000100
00010000
00000000
00001000
00100000
00001000
00100000
00000000
,
00010000
10000000
01000000
00000000
10010000
00000000
01000000
00100000
,
01000000
00100000
00000000
00001000
00010000
00001000
00022000
00000000
,
00000000
00033000
00000000
00001010
,
00000010
00000000
00000100
00000001
00000100
00000000
00001001
00000000
,
00000100
00000000
00001000
00000100
00001000
00000000
00000100
00000000
,
00010100
00000000
00001000
00010000
00001000
00000000
00000000
00000000
,
00000000
00000000
00000000
00000000
00000000
00000000
10000000
10000000
,
10000000
00000000
00010000
00000000
00100000
00000000
00001000
00001000
,
00001000
00000000
00010000
00000000
00000100
00000000
00000010
00000010
,
00000010
00000000
00000001
00000000
00000100
00000000
00001000
00001000
,
00001000
00000000
00000100
00000001
00000100
00000000
00000000
00000000
,
00012000
00010000
00000000
00013000
,
00002000
01000000
00000000
01003000
,
00200000
10000000
00000000
10300000
,
01000000
00000000
10000000
00000000
00010000
00100000
00001000
00000000
,
00000000
00000000
00000000
00000000
,
00000000
00000000
00000000
00000000
00001001
00000000
00001000
00000100
,
00001000
00000000
00000100
00001000
00000100
00000000
00010000
00000000
,
00001000
00000000
00010000
01000000
00100000
00010000
00100000
00000000
,
00010000
00000000
10000000
00010000
10000000
00000000
00010000
00000000
,
00100000
00000000
00001000
00010000
00000010
00010000
00000100
00000000
,
00001000
00000000
00000001
00000010
00000001
00000000
00000010
00000001
,
00000010
00000001
00001000
00000100
,
00010000
00000000
00001000
00010000
00001000
00000000
00010000
00001000
,
00010000
00001000
01000000
00000000
,
00000000
00000000
10010000
00000000
10000000
01000000
00010000
00000000
,
01000000
00000000
11000000
00000000
00010000
01000000
00001000
00000000
,
00011000
00000000
00010010
00000000
00000010
00000100
00000001
00000000
,
00001000
00002200
00000000
00000000
,
00003300
00022000
00000000
00000000
,
00033000
00000000
00000000
00000000
;

//---------------dance-double - ----------------
#NOTES:
     dance-double:
     :
     Hard:
     11:
     0.410606,0.473751,0.117871,0.108804,0.181340,317.000000,304.000000,13.000000,12.000000,0.000000,0.000000,0.410606,0.473751,0.117871,0.108804,0.181340,317.000000,304.000000,13.000000,12.000000,0.000000,0.000000:
00000000
00000000
00000000
00000000
,
00000000
00000000
00000000
00000000
,
00000000
00000000
00000000
00000000
,
10000000
00000000
00010000
00000000
00100000
00010000
01000000
00000000
,
00001000
00000000
00010000
00000000
00000100
00001000
00000010
00001000
,
00000001
00000000
00000010
00000000
00000100
00001000
00000001
00001000
,
00000100
00000000
00010000
00000000
00001000
00100000
00001000
01000000
,
00100000
00000000
10000000
00000000
01000000
00100000
00010000
00000000
,
00100000
00000000
00001000
00000000
00010000
00000010
00000100
00000000
,
00000001
00000011
00001000
00001100
,
00000010
00000110
00001000
00001001
,
00000000
00000000
00000000
00000000
00000000
00000000
10000000
01000000
,
00100000
00010000
00000000
00100000
00001000
00010000
00001000
00000000
,
00010000
00000000
00000010
00000000
00000100
00000000
00000000
00000001
00000000
00001000
00000100
00000000
00001000
00000000
00000010
00000000
,
00000100
00000001
00000000
00000010
00000100
00001000
00000100
00000000
,
00010000
00000000
00001000
00100000
00010000
00100000
01000000
10000000
,
01000000
00100000
00000000
00010000
10000000
00010000
00100000
00000000
,
00001000
00000000
00010000
00000000
00000100
00000000
00000000
00001000
00000000
00000001
00001000
00000000
00000010
00000000
00000100
00000000
,
00000010
00001000
00000000
00000001
00000010
00000100
00001000
00000000
,
00000100
00000000
00010000
00001000
00100000
00000000
00010000
10000000
,
01000000
00110000
00000000
10000000
10000000
10000000
10000000
00000000
,
00100000
00000000
01000000
00000000
00010000
00000000
00000000
00100000
00000000
00001000
00010000
00000000
00000100
00000000
00001000
00000000
,
00000010
00000000
00001001
00000000
00000000
00000000
00000010
00000000
00000010
00000000
00000010
00000000
00000010
00000000
00000000
00000001
,
00000100
00000000
00000010
00000000
00001000
00000000
00000000
00000100
00000000
00000000
00010000
00000000
00001000
00000000
00000000
00000000
,
00100000
00010000
10000000
01000000
01000000
01000000
01000000
00000000
,
10000000
00000000
00010000
00000000
00100000
00000000
00000000
00001000
00000000
00010000
00001000
00000000
00010000
00000000
00000010
00000000
,
00000100
00000001
00000000
00001000
00001000
00001000
00002200
00000000
,
00000000
00000000
00003300
00000000
00000000
00000000
00010000
00000100
,
00001000
00000000
00000000
00000000
00000100
00000000
00010000
00000000
00001000
00100000
00000000
00000000
01000000
00000000
00100000
00000000
,
00010000
00000000
00000000
10000000
00010000
00000000
00100000
00000000
00010000
01000000
00000000
00000000
00001000
00000000
00010000
00000000
,
00000100
00000000
00000000
00001000
00000010
00000000
00000100
00000000
00000001
00001000
00000000
00000000
00000000
00000000
00000000
00000000
,
00000000
00000000
00000000
00000000
00000000
00000000
00000000
00000000
00000000
00000000
00000000
00000000
10000000
00010000
00000000
00010000
,
01000000
00000000
00000000
00000000
00010000
00000000
00010000
00000000
00010000
00000000
00100000
00000000
00001000
00010000
00000000
00010000
,
00000100
00000000
00000000
00000000
00000010
00000000
00000001
00000000
00000010
00000000
00001000
00000000
00000010
00000001
00000000
00000001
,
00000100
00000000
00000010
00000010
00000010
00001000
00000100
00000000
,
00010000
00000000
00001000
00100000
00010000
10000000
10010000
00000000
,
20000000
00010000
00000000
30020000
,
02030000
00100000
00000000
03200000
,
20300000
30010000
00020000
01030000
,
01000000
00000000
00001000
00000000
00010000
00000000
00000000
00000000
00000100
00010000
00000000
00001000
00000000
00000000
00000000
00000000
,
00000000
00000000
00000000
00000000
,
00000000
00000000
00000000
00000000
00001001
00000000
00000001
00000010
,
00000100
00000000
00001000
00000000
00000000
00001000
00000100
00000000
00010000
00000000
00001000
00000000
00010000
00000000
00000100
00000000
,
00001000
00000000
00000000
00000000
00000100
00000000
00000000
00010000
00000000
00001000
00010000
00000000
00001000
00000000
01000000
00000000
,
00100000
00000000
01000000
00000000
00000000
00010000
10000000
00000000
01000000
00000000
00100000
00000000
00010000
00000000
00100000
00000000
,
01000000
00000000
10000000
00000000
00100000
00000000
10000000
00010000
00000000
00010000
10000000
00000000
00010000
00000000
00100000
00000000
,
00001000
00000000
00100000
00000000
00000000
00001000
00010000
00000000
00000100
00000000
00010000
00000000
00000010
00000000
00000100
00000000
,
00000001
00000000
00000100
00000000
00000010
00000000
00000000
00001000
00000000
00000100
00010000
00000000
00001000
00000000
00010000
00000000
,
00001000
00000000
00100000
00000000
00010000
00000000
10000000
00000000
00000000
10000000
00100000
00000000
01000000
00000000
00000000
00010000
,
01000000
00000000
00001000
00000000
00010000
00000000
00000000
00010000
00000100
00000000
00000000
00000000
00000000
00000000
00000000
00000000
,
00000000
00000000
00000000
00000000
00011000
00000000
00000000
00000000
00001000
00100000
00000000
00010000
10000000
00000000
00100000
00000000
,
10000000
00000000
00000000
00000000
11000000
00000000
00000000
00000000
00010000
01000000
00000000
00010000
00100000
00000000
00001000
00000000
,
00010000
00001000
00000000
00000000
00001010
00000000
00000000
00000000
00000001
00000000
00000100
00000000
00000010
00000000
00000000
00000000
,
00001000
00000100
00020000
00000000
00031000
00000000
00002000
00000000
,
00013000
02002000
00000000
00000000
,
03003000
00000000
00000000
00000000
;

//---------------dance-double - ----------------
#NOTES:
     dance-double:
     :
     Challenge:
     15:
     0.633395,1.026952,0.108804,0.036268,0.897633,489.000000,477.000000,12.000000,4.000000,0.000000,0.000000,0.633395,1.026952,0.108804,0.036268,0.897633,489.000000,477.000000,12.000000,4.000000,0.000000,0.000000:
00000000
00000000
00000000
00000000
,
00000000
00000000
00000000
00000000
,
00000000
00000000
00000000
00000000
,
10000000
00000000
00000000
00010000
00100000
00010000
00000000
01000000
00010000
00000000
00000000
00100000
00001000
00100000
00000000
00001000
,
00010000
00000000
00000000
00000010
00000100
00000010
00000000
00001000
00000001
00000000
00000100
00000010
00000100
00000010
00000000
00000000
,
00001000
00000000
00000000
00000001
00000010
00000001
00000000
00001000
00000100
00000000
00000000
00010000
00001000
00010000
00000000
00001000
,
01000000
00000000
00000000
00010000
01000000
00010000
00000000
10000000
01000000
00000000
10000000
00000000
00010000
00000000
00100000
00000000
,
00001000
00000000
00010000
00001000
00000000
00010000
00000000
00000100
00010000
00000000
00000010
00000100
00000000
00000001
00000000
00001000
,
00000100
00000000
00000100
00001000
00000000
00000001
00000000
00001000
00000100
00000000
00000100
00010000
00000000
00001000
00000000
00100000
,
00010000
00100000
00010000
00100000
00010000
00100000
00010000
00100000
00010000
00100000
00010000
00100000
00010000
00100000
00010000
00100000
,
00010000
10000000
00010000
10000000
00010000
10000000
00010000
10000000
00010000
10000000
00010000
10000000
00010000
10000000
00010000
10000000
00010000
10000000
00010000
10000000
00010000
10000000
00010000
10000000
,
00010000
00000000
00000000
00000000
00000000
00000000
00001100
00001000
,
00000001
00000000
00000010
00000000
00000000
00000001
00001000
00000000
00000100
00000000
00000100
00000000
00001000
00000000
00000010
00000000
,
00001000
00000000
00000000
00000000
00000100
00000000
00010000
00001000
00010000
00001000
00010000
00000000
00001000
00000000
01000000
00000000
,
00100000
00000000
10000000
00000000
00000000
10000000
01000000
00000000
00100000
00000000
00010000
00000000
00100000
00000000
00010000
10000000
,
01000000
10000000
01000000
00100000
00010000
00100000
00010000
01000000
00001000
01000000
00001000
00000000
00010000
00000000
00000010
00000000
,
00000100
00000000
00000010
00000000
00000000
00001000
00000001
00000000
00000010
00000000
00000001
00000000
00000100
00000000
00000010
00000000
,
00001000
00000000
00000000
00000000
00000100
00000000
00010000
00001000
00010000
00001000
00010000
00000000
00001000
00000000
00100000
00000000
,
01000000
00000000
00100000
00000000
00000000
00010000
10000000
00000000
00010000
00000000
00100000
00010000
00100000
00010000
10000000
00010000
,
00000000
01000000
00010000
00100000
00001000
00010000
00001000
00010000
00000000
00000100
00000010
00000000
00000001
00000000
00000100
00000000
,
00000010
00000000
00001000
00000100
00001000
00000000
00000010
00000000
00000010
00000000
00000100
00000000
00000001
00000000
00001000
00000010
,
00001000
00000010
00001000
00000000
00000100
00000000
00010000
00001000
00000000
00001000
00010000
00000000
00001000
00000000
00100000
01000000
,
00100000
00000000
00010000
00100000
00010000
00000000
10000000
00000000
10000000
00000000
01000000
00000000
00100000
00000000
00000000
00010000
,
00100000
01000000
10000000
00000000
00010000
00000000
00100000
00001000
00000000
00001000
00100000
00000000
00001000
00000000
00010000
00000100
,
00010000
00000000
00000010
00000100
00000010
00000000
00001000
00000000
00001000
00000000
00000001
00000000
00000010
00000000
00000000
00000100
,
00001000
00000001
00000100
00000000
00000010
00000000
00001000
00000100
00000000
00000100
00001000
00000000
00000100
00000000
00010000
00001000
,
00010000
00000000
00001000
01000000
00001000
00000000
00100000
00000000
00100000
00000000
00010000
00000000
10000000
00000000
01000000
00000000
,
00100000
10010000
00000000
00000000
00000000
00000000
00000110
00000000
,
00000001
00001000
00000000
00000100
00000010
00000000
00000001
00000010
00000001
00000010
00000000
00000000
00011000
00000000
00000000
00000000
,
00001000
00100000
00000000
00100000
00010000
00000000
10000000
00000000
00010000
01000000
00000000
00000000
10010000
00000000
00000000
00000000
,
10000000
00100000
00000000
01000000
00010000
01000000
00010000
00000000
00100000
00001000
00000000
00001000
00010000
00000000
00000000
00000000
,
00000000
00000000
00000000
00000000
00000000
00000000
00000000
00000000
00000000
00000000
00000000
00000000
00000001
00000100
00000000
00000010
,
00000000
00001000
00000100
00001000
00000000
00000100
00000000
00010000
00000000
00000100
00010000
00000000
00010000
00001000
00000000
00010000
,
00000000
00001000
01000000
00001000
00000000
00100000
00000000
00010000
00000000
00100000
00010000
00000000
10000000
00010000
00000000
01000000
,
00000000
00100000
10000000
00100000
00000000
01000000
00000000
00010000
00000000
00100000
00001000
00000000
00001000
00010000
00000000
00001000
,
00000000
00010000
00000010
00010000
00000000
00000010
00000000
00000100
00000000
00000001
00001000
00000100
00000010
00000000
00000000
00000000
,
00001002
00000000
00000100
00000000
00001000
00001000
00001003
00000000
,
00001000
00000100
00001000
00000100
00001000
00000100
00001000
00000100
00001000
00000100
00001000
00000100
00001000
00000100
00001000
00000100
00001000
00000100
00001000
00000100
00001000
00000100
00001000
00000100
,
00002000
00000000
00000000
00000000
,
00003100
00000000
00010000
00000000
00001000
00000000
00010000
00001000
00010000
00000010
00000000
00000100
00000000
00000000
00000000
00000000
,
00000000
00000000
00000000
00000000
,
00000000
00000000
00000000
00000000
10010000
00000000
10000000
01000000
,
00100000
00000000
00100000
00000000
00000000
00010000
01000000
00000000
01000000
00000000
00100000
00000000
10000000
00000000
00010000
00000000
,
00100000
00000000
00000000
00000000
00001000
00000000
00100000
00001000
00000000
00001000
00010000
00000000
00000100
00000000
00000010
00000000
,
00000010
00000000
00000001
00000000
00000000
00000001
00001000
00000000
00001000
00000000
00000100
00000000
00000010
00000000
00000100
00000000
,
00000001
00000000
00000000
00000000
00001100
00000000
00001000
00000010
00001000
00000100
00000000
00000000
00011000
00000000
00001000
00000000
,
00100000
00000000
00100000
00000000
00000000
00010000
10000000
00000000
10000000
00000000
00010000
00000000
00100000
00000000
00010000
00000000
,
10000000
00000000
00000000
00000000
00010000
00000000
01000000
00010000
00000000
00010000
00100000
00000000
00001000
00000000
00010000
00000000
,
00000100
00000000
00000100
00000000
00000000
00000010
00000001
00000000
00001000
00000000
00001000
00000000
00000001
00000000
00000000
00001000
,
00000100
00000000
00000000
00000100
00000010
00000000
00000000
00000010
00000100
00001000
00000100
00000000
00000000
00000000
00000000
00000000
,
00000000
00000000
00000000
00000000
00110000
00000000
00000000
00000000
00010000
10000000
00000000
10000000
01000000
00100000
01000000
00000000
,
10000000
00010000
00000000
00010000
00100000
00000000
00000000
00000000
00001000
00010000
00000000
00010000
00000100
00000000
00010000
00000000
,
00000100
00001000
00000000
00000000
00000101
00000000
00000000
00000000
00000001
00001000
00000000
00001000
00000100
00000010
00000001
00000000
,
00001000
00000000
00000000
00000100
00000000
00000000
00000000
00000000
00000000
00000100
00000000
00000000
00010000
00000000
00001000
00000000
00010000
00000000
00001000
00000000
00010000
00000000
00001000
00000000
00010000
00000000
00001000
00000000
00010000
00000000
00001000
00000000
00010000
00000000
00001000
00000000
00010000
00000000
00001000
00000000
00010000
00000000
00001000
00000000
00010000
00000000
00001000
00000000
,
00010000
00001000
00010000
00001000
00000000
00000000
00022000
00000000
00000000
00000000
00000000
00000000
00000000
00000000
00000000
00000000
00000000
00000000
00000000
00000000
00000000
00000000
00000000
00000000
,
00000000
00033000
00000000
00000000
;
