#TITLE:PARANOiA Hardcore;
#SUBTITLE:;
#ARTIST:Unknown artist;
#TITLETRANSLIT:;
#SUBTITLETRANSLIT:;
#ARTISTTRANSLIT:;
#CREDIT:;
#BANNER:;
#BACKGROUND:;
#LYRICSPATH:;
#CDTITLE:;
#MUSIC:PARANOiA HARDCORE.mp3;
#OFFSET:-0.060;
#SAMPLESTART:45.400;
#SAMPLELENGTH:11.300;
#SELECTABLE:YES;
#BPMS:0.000=222.221;
#STOPS:;
#BGCHANGES:;

//---------------dance-single - ----------------
#NOTES:
     dance-single:
     :
     Easy:
     7:
     0.559,0.699,0.480,0.240,0.000:
1000
0001
1000
0000
,
0001
0100
0001
0000
,
1000
0010
1000
0000
,
0001
1000
0001
0000
,
0100
0010
0100
0000
,
0010
1000
0010
0000
,
0100
0001
0100
0000
,
0010
1000
0001
0000
,
0100
0100
0010
0100
,
0001
0010
0100
1000
,
0010
0010
0100
0010
,
1000
0100
0010
0001
,
1000
1000
0001
1000
,
0010
0100
0001
1000
,
0001
0001
1000
0001
,
0100
0010
1000
0001
,
2002
0000
3003
0000
,
1001
0001
1000
0001
,
0110
0010
0100
0010
,
1001
0100
0010
0100
,
0110
1000
0001
1000
,
0101
0001
1000
0100
,
1100
1000
0001
0010
,
0011
1000
0001
0100
,
0101
0001
1000
0010
,
1010
1010
1000
0001
,
0011
0011
0001
1000
,
1100
1100
1000
0001
,
0101
0101
0001
1000
,
1010
1010
0001
0100
,
0011
0011
1000
0010
,
1100
1100
0001
0010
,
0101
0101
1000
0100
,
0021
0032
0203
0320
,
1030
0010
0100
0001
,
0200
0320
2030
3002
,
0013
0100
1000
0010
,
0200
0302
2003
3200
,
1300
0010
0100
0001
,
0020
0230
2300
3020
,
0130
0001
0010
0000
,
0220
0000
0330
0000
,
0001
0000
1000
0000
0001
0100
1000
0000
,
0100
0001
1000
0010
,
1000
0000
0001
0000
1000
0100
0001
0000
,
0100
1000
0010
1000
,
0001
0000
1000
0000
0001
0100
1000
0000
,
0100
0001
1000
0010
,
1000
0000
0001
0000
1000
0100
0001
0000
,
0100
1000
0001
1000
,
1001
0000
1100
1100
,
0000
0011
0011
1010
,
0011
0000
0011
0011
,
0000
1100
1100
0101
,
1100
0000
0001
0000
1000
0100
0001
0000
,
0100
1000
0001
1000
,
0101
0000
0001
0000
1000
0010
0001
0000
,
0010
1000
0001
1000
,
0011
0000
1000
0000
0001
0010
1000
0000
,
0010
0001
1000
0001
,
1010
0000
1000
0000
0001
0100
1000
0000
,
0100
0001
1000
0001
,
0011
0000
1010
0000
0010
0001
0100
0000
,
0001
1000
0001
0100
,
0101
0000
1100
0000
0100
1000
0010
0000
,
1000
0001
1000
0010
,
0011
0000
1100
0000
0001
0010
1000
0000
,
0010
0001
0100
1000
,
0101
0000
1100
0000
1000
0010
0001
0000
,
0010
1000
0100
0001
,
0010
0020
0000
0000
0000
0000
0000
0030
,
0000
0000
0000
0001
0000
0000
1000
0000
,
0001
0002
0000
0000
0000
0000
0000
0000
,
0003
0000
0000
0000
,
0100
0200
0000
0000
0000
0000
0000
0300
,
0000
0000
0000
0001
0000
0000
1000
0000
,
0001
0002
0000
0000
0000
0000
0000
0003
,
0000
0000
0000
0000
,
1000
2000
0000
0000
0000
0000
0000
3000
,
0000
0000
0000
0010
0000
0100
0001
0000
,
0001
0200
0000
0000
0000
0000
0000
0300
,
0000
0000
0000
0000
,
0010
0020
0000
0000
0000
0000
0000
0030
,
0000
0000
0000
0100
0000
0010
1000
0000
,
1000
0020
0000
0000
0000
0000
0000
0030
,
0000
0000
0000
0000
,
0100
0100
0100
0000
0010
0000
1000
0000
,
0001
0100
0010
1000
,
0001
0001
0001
0000
0100
0000
0010
0000
,
1000
0001
0100
0010
,
1000
1000
1000
0000
0010
0000
0100
0000
,
0001
1000
0010
0100
,
0001
0001
0001
0000
0100
0000
0010
0000
,
1000
0001
0100
0010
,
1000
1000
1000
0000
0010
0000
0100
0000
,
0001
1000
0010
0100
,
0001
0001
0001
0000
0100
0000
0010
0000
,
1000
0001
0100
0010
,
1000
1000
1000
0000
0001
0001
0001
0000
,
1000
0000
0001
0000
0100
0100
0100
0000
,
1010
0001
0011
1000
,
1100
0010
0101
0010
,
1100
0000
0000
0000
;

//---------------dance-single - Copied from----------------
#NOTES:
     dance-single:
     Copied from:
     Medium:
     8:
     0.624,0.743,0.437,0.137,0.000:
1000
0001
0000
0100
0000
0000
0000
0000
,
0001
1000
0000
0100
0000
0000
0000
0000
,
1000
0001
0000
0010
0000
0000
0000
0000
,
0001
1000
0000
0010
0000
0000
0000
0000
,
1000
0100
0000
0010
0000
0000
0000
0000
,
0001
0100
0000
0010
0000
0000
0000
0000
,
1000
0010
0000
0100
0000
0000
0000
0000
,
0001
0100
0000
0010
0000
0000
0000
0000
,
1000
0001
0000
0110
0000
0000
0000
0000
,
0001
1000
0000
0110
0000
0000
0000
0000
,
0010
0100
0000
1001
0000
0000
0000
0000
,
0100
0010
0000
1001
0000
0000
0000
0000
,
1000
0010
0000
0101
0000
0000
0000
0000
,
0001
0100
0000
1010
0000
0000
0000
0000
,
1000
0100
0000
0011
0000
0000
0000
0000
,
0001
0010
0000
1100
0000
0000
0000
0000
,
2002
0000
3003
0000
,
1000
1100
0001
0101
,
1000
1100
0001
0101
,
1000
0100
0010
0001
0000
0000
0011
0000
,
1000
1010
0001
0011
,
0001
0100
0010
1000
0000
0000
1100
0000
,
1000
0011
0001
1010
,
1000
0010
0100
0001
0000
0000
0011
0000
,
1000
1010
0001
0011
,
0100
0010
0100
0010
0000
1000
0001
0000
,
0101
0001
1100
1000
,
0001
0010
0100
1000
0000
0010
0100
0000
,
0101
1001
1100
1001
,
1000
0010
0100
0001
0000
0010
0100
0000
,
0101
1001
1010
1001
,
0001
0010
0100
1000
0000
0010
0100
0000
,
0101
1001
1010
1001
,
0001
0100
1000
0000
0100
0000
0001
0000
,
1000
0100
0001
0000
0100
0000
1000
0000
,
0001
0100
1000
0000
1000
0100
0001
0000
,
1000
0100
0001
0200
0000
0300
0000
0000
,
0010
0001
1000
0000
0001
0000
0100
0000
,
0010
1000
0001
0000
0100
0000
0010
0000
,
1000
0001
0100
0000
0010
0000
1000
0000
,
0001
0100
0010
0000
1000
0000
0010
0000
,
0100
0001
0010
0200
0000
0000
0300
0000
,
0100
1000
0100
0000
0010
0000
0001
0000
,
0100
1000
0100
0000
0001
0000
0010
0000
,
0100
1000
0100
0000
1000
0000
0010
0000
,
0100
1000
0100
0000
0010
0000
0001
0000
,
0010
0001
0010
0000
1000
0000
0100
0000
,
0010
0001
0010
0000
0001
0000
0100
0000
,
0010
0001
0010
0000
0001
0000
1000
0000
,
0010
0001
0010
0000
0100
0000
0001
0000
,
1010
0000
1100
0101
,
0000
0101
1100
1010
,
1100
0000
0101
1100
,
0000
0011
1010
1100
,
0001
0100
1000
0000
0100
0010
1000
0000
,
0100
0010
0001
0100
,
0001
0010
1000
0000
0010
0001
0100
0000
,
0010
1000
0100
0010
,
0001
0100
1000
0000
0100
0001
0010
0000
,
0100
0010
0001
0100
,
1000
0100
0001
0000
0010
0001
0100
0000
,
0010
1000
0100
0010
,
0100
1000
0010
0000
0001
0010
1000
0000
,
0100
0010
0001
0100
,
0010
1000
0100
0000
0001
0100
1000
0000
,
0010
0100
0001
1000
,
0100
0010
0001
0000
0100
1000
0001
0000
,
0010
1000
0100
0001
,
0010
0100
1000
0000
0010
0001
1000
0000
,
0100
0001
1000
0100
,
0010
0020
0000
0000
0000
0000
0000
0030
,
0000
0000
0000
0100
0000
1000
0010
0000
,
0001
0020
0000
0000
0000
0000
0000
0030
,
0000
1000
0001
1000
0001
1000
0001
0000
,
0100
0200
0000
0000
0000
0000
0000
0300
,
0000
0000
0000
0010
0000
1000
0100
0000
,
0001
0200
0000
0000
0000
0000
0000
0300
,
0000
0010
0100
0010
0100
0010
0100
0000
,
0010
0002
0000
0000
0000
0000
0000
0003
,
0000
0000
0000
1000
0000
0010
0200
0000
,
0310
0002
0000
0000
0000
0000
0000
0000
,
0000
1003
0100
1000
0100
1000
0100
0000
,
0010
2000
0000
0000
0000
0000
0000
3000
,
0000
0000
0000
0001
0000
0010
0200
0000
,
0310
2000
0000
0000
0000
0000
0000
3000
,
0002
0000
0203
0000
,
1300
0001
1000
0001
1000
0001
1000
0000
,
0001
0100
0010
1000
,
0010
0100
0010
0100
0010
0100
0010
0000
,
1000
0010
0100
0001
,
1000
0010
1000
0010
1000
0010
1000
0000
,
0001
0100
0010
1000
,
0001
0100
0001
0100
0001
0100
0001
0000
,
1000
0010
0100
0001
,
1000
0010
1000
0010
0100
0001
0100
0000
,
0001
0010
0100
1000
,
0001
0010
0001
0010
0100
1000
0100
0000
,
0010
0001
0100
0010
,
1000
0010
1000
0010
0100
0001
0100
0001
,
1000
0010
1000
0010
0100
0001
0100
0001
,
0010
0100
1000
0100
0010
0001
0100
0010
,
1000
0100
0011
0101
,
1001
0000
0000
0000
;

//---------------dance-single - Copied from Copied from----------------
#NOTES:
     dance-single:
     Copied from Copied from:
     Hard:
     9:
     0.806,0.786,0.908,0.051,0.000: // measure 1
1000
0001
0000
0110
0000
0000
0000
0000
,  // measure 2
0001
1000
0000
0110
0000
0000
0000
0000
,  // measure 3
0010
0100
0000
0110
0000
0000
0000
0000
,  // measure 4
1000
0001
1000
0001
0000
0000
0000
0000
,  // measure 5
0010
0001
0000
1100
0000
0000
0000
0000
,  // measure 6
0010
1000
0000
0101
0000
0000
0000
0000
,  // measure 7
0100
0001
0000
1100
0000
0000
0000
0000
,  // measure 8
1000
0100
0010
0001
0000
0000
0000
0000
,  // measure 9
1000
0001
1000
0000
0100
0000
0100
0000
,  // measure 10
0001
1000
0001
0000
0100
0000
0100
0000
,  // measure 11
1000
0010
1000
0000
0100
0000
0100
0000
,  // measure 12
0001
0010
0001
0000
0100
0000
0100
0000
,  // measure 13
1000
0010
1000
0001
1000
0000
0100
0000
,  // measure 14
0001
1000
0001
0100
0001
0000
0100
0000
,  // measure 15
0010
0100
0010
0100
0010
0100
0010
0100
,  // measure 16
0001
0010
0100
1000
0010
0100
0001
1000
,  // measure 17
0002
0000
0000
0000
,  // measure 18
1003
0100
0010
0001
0100
0000
0110
0000
,  // measure 19
1001
0000
0110
0000
1000
0001
0010
0000
,  // measure 20
0001
0010
0100
1000
0010
0000
0110
0000
,  // measure 21
1001
0000
0110
0000
0001
1000
0100
0000
,  // measure 22
1000
0100
0010
0001
0100
0000
0101
0000
,  // measure 23
1001
0000
1100
0000
1000
0001
0010
0000
,  // measure 24
0001
0010
0100
1000
0010
0000
1010
0000
,  // measure 25
1001
0000
0011
0000
0001
1000
0100
0000
,  // measure 26
1000
0100
0010
0001
0010
0100
1000
0000
,  // measure 27
1100
1001
0101
1001
,  // measure 28
0001
0010
0100
1000
0100
0010
0001
0000
,  // measure 29
0011
1001
1010
1001
,  // measure 30
0010
1000
0100
0010
0001
0100
0010
0000
,  // measure 31
0110
1001
0110
1001
,  // measure 32
0100
0010
0100
0010
0100
0010
0100
0010
,  // measure 33
0100
1000
0001
0010
0100
1000
0001
0010
,  // measure 34
0200
0010
0001
0010
,  // measure 35
0302
1000
0010
1000
,  // measure 36
1003
0100
1000
0100
0010
0001
0010
0001
,  // measure 37
0100
0010
1000
0001
0000
0000
0000
0000
,  // measure 38
0020
0001
0100
0001
,  // measure 39
0032
1000
0100
1003
,  // measure 40
1000
0010
1000
0010
0100
0001
0100
0001
,  // measure 41
0010
0100
1000
0100
0010
0001
1000
0010
,  // measure 42
0200
0000
0000
0300
,  // measure 43
0010
1000
0100
0000
0110
0000
1001
0000
,  // measure 44
0010
0001
0100
0000
0110
0000
1001
0000
,  // measure 45
0001
1000
0100
0000
0110
0000
1001
0000
,  // measure 46
1000
0001
0100
0000
0110
0000
1001
0000
,  // measure 47
0001
0010
0100
1000
0010
0000
0110
0000
,  // measure 48
1000
0100
0010
0001
0100
0000
0110
0000
,  // measure 49
0001
1000
0001
1000
0001
1000
0001
1000
,  // measure 50
0001
0010
0100
1000
0010
0100
0001
1000
,  // measure 51
1001
0000
1001
1001
,  // measure 52
0000
0110
0110
0110
,  // measure 53
0110
0000
1010
1010
,  // measure 54
0000
0011
0101
0011
,  // measure 55
1001
0001
0010
0100
1000
0010
0100
0000
,  // measure 56
0101
0001
1100
1000
,  // measure 57
1001
1000
0100
0010
0001
0100
0010
0000
,  // measure 58
1010
1000
0011
0001
,  // measure 59
1001
0001
0010
0100
1000
0010
0100
0000
,  // measure 60
0101
1001
1100
0110
,  // measure 61
1001
1000
0100
0010
0001
0100
0010
0000
,  // measure 62
1010
1001
0011
1001
,  // measure 63
0100
0001
0100
0001
0100
0001
0001
0000
,  // measure 64
1000
0100
1000
0100
1000
0100
0100
0000
,  // measure 65
1000
0001
1000
0001
1000
0001
0001
0000
,  // measure 66
0100
0010
0100
0010
0100
0010
0010
0000
,  // measure 67
1000
0010
1000
0010
1000
1000
1000
0000
,  // measure 68
0001
0010
0001
0010
0001
0001
0001
0000
,  // measure 69
1000
1000
0001
0001
1000
1000
0001
0001
,  // measure 70
0100
0010
1000
0001
0010
0100
1000
0001
,  // measure 71
0100
0100
0000
0000
0000
0000
0000
0000
,  // measure 72
0000
0000
0000
0110
0000
0110
1001
0000
,  // measure 73
1001
0110
0000
0000
0000
0000
0000
0000
,  // measure 74
0000
0001
0010
0001
0001
0010
0001
0001
,  // measure 75
0010
0011
0000
0000
0000
0000
0000
0000
,  // measure 76
0000
0000
0000
1001
0000
1001
0110
0000
,  // measure 77
0110
1001
0000
0000
0000
0000
0000
0000
,  // measure 78
0000
1000
0100
0100
1000
0100
0100
1000
,  // measure 79
0100
1100
0000
0000
0000
0000
0000
0000
,  // measure 80
0000
0000
0000
1010
0000
1010
0101
0000
,  // measure 81
0101
1010
0000
0000
0000
0000
0000
0000
,  // measure 82
0000
0001
1000
1000
0001
1000
1000
0001
,  // measure 83
1000
1001
0000
0000
0000
0000
0000
0000
,  // measure 84
0000
0000
0000
0011
0000
0011
1100
0000
,  // measure 85
1000
1000
0100
0100
0010
0010
0001
0001
,  // measure 86
0100
0010
1000
0001
0010
0100
1000
0001
,  // measure 87
1000
0100
0010
0100
1000
0100
0010
0000
,  // measure 88
0011
1001
1010
1001
,  // measure 89
0001
0010
0100
0010
0001
0010
0100
0000
,  // measure 90
0101
1001
1010
1001
,  // measure 91
1000
0100
0001
0100
1000
0100
0001
0000
,  // measure 92
0101
1100
1001
1010
,  // measure 93
0001
0100
1000
0100
0001
0100
1000
0000
,  // measure 94
1100
0101
1001
1100
,  // measure 95
1000
0100
1000
0100
0010
0100
0010
0001
,  // measure 96
0010
0001
0010
0001
1000
0001
1000
0100
,  // measure 97
1000
0100
0010
0001
1000
0100
0010
0001
,  // measure 98
0010
0100
1000
0001
0010
0100
1000
0010
,  // measure 99
0100
0001
1000
0010
0100
0001
1000
0010
,  // measure 100
0100
0001
0010
0100
0010
0001
1000
0100
,  // measure 101
0010
0010
0001
0001
0100
0100
0010
0010
,  // measure 102
1000
1000
0100
0100
0001
0100
1000
0010
,  // measure 103
1001
0000
0000
0000
;
