#TITLE:Fly you to the Star;
#SUBTITLE:Beatmania IIDX 20th tricoro;
#ARTIST:Another Infinity feat. Mayumi Morinaga;
#TITLETRANSLIT:;
#SUBTITLETRANSLIT:;
#ARTISTTRANSLIT:;
#CREDIT:;
#BANNER:Fly you to the Star_bn.png;
#BACKGROUND:Fly you to the Star_bg.png;
#LYRICSPATH:;
#CDTITLE:CD_Title.png;
#MUSIC:Fly you to the star.mp3;
#OFFSET:-1.574;
#SAMPLESTART:55.900;
#SAMPLELENGTH:15.000;
#SELECTABLE:YES;
#BPMS:0.000=141.080,96.000=141.000,160.000=141.000,192.000=141.050,200.000=141.000,260.500=140.980;
#STOPS:;
#BGCHANGES:;

//---------------dance-single - ----------------
#NOTES:
     dance-single:
     :
     Hard:
     8:
     0.600,0.648,0.094,0.615,0.222:
1000
0100
0010
0001
0100
0002
0000
0023
,
0000
0000
0000
0000
0031
0010
0100
1000
,
0010
1000
0100
0010
0001
0200
0000
0302
,
0000
0000
0000
0000
1003
0100
0010
0001
,
0200
0000
0310
0000
1000
0100
0100
0000
,
0020
0000
0031
0000
0100
0010
1000
0100
,
0200
0000
1300
0000
0010
0100
0100
0000
,
0002
0000
0103
0000
0010
1000
0100
0010
,
0001
0000
0000
0001
0100
0000
0000
0100
0001
0000
1000
0000
0100
0000
0000
0000
,
1000
0000
0000
1000
0100
0000
0000
0100
1000
0000
0001
0000
0100
0000
0010
0000
,
1000
0000
0000
1000
0010
0000
0000
0010
1000
0000
0001
0000
0010
0000
0000
0000
,
0001
0000
0000
0001
0010
0000
0000
0010
0001
0000
1000
0000
0010
0000
0100
0000
,
0001
0000
0000
0001
0100
0000
0000
0100
1000
0000
0001
0000
0010
0000
0000
0000
,
1000
0000
0000
1000
0100
0000
0000
0100
0001
0000
1000
0000
0010
0000
0001
0000
,
1000
0000
0000
1000
0010
0000
0000
0010
0001
0000
1000
0000
0100
0000
0000
0000
,
0001
0000
0000
0001
0010
0000
0000
0010
1000
0000
0001
0000
0100
0000
0000
0000
,
0020
0000
2030
0000
3200
0000
0000
0310
,
0001
0010
0100
1000
0001
0000
0000
0000
,
0020
0000
0032
0000
0203
0000
0000
0310
,
1000
0010
0100
0001
0010
0000
0000
0000
,
0020
0000
0032
0000
0203
0000
0000
1300
,
0001
0010
1000
0100
0010
0000
0000
0000
,
0200
0000
2300
0000
3020
0000
0000
0031
,
1000
0100
0001
0010
0100
1000
1001
0000
,
0001
0000
0000
0001
0010
0000
0000
0010
1000
0000
0000
1000
0010
0000
0000
0010
,
0001
0000
0001
0100
0000
0000
0010
0000
1000
0000
0100
0000
0001
0000
0100
0000
,
1000
0000
0000
1000
0010
0000
0000
0010
0001
0000
0000
0001
0010
0000
1000
0000
,
0100
0000
0010
0100
0000
0000
2000
0000
0002
0000
0000
0000
3003
0000
0000
0000
,
1000
0000
0000
1000
0100
0000
0000
0100
0001
0000
0000
0001
0100
0000
0000
0100
,
1000
0000
1000
0010
0000
0000
0100
0000
0001
0000
0010
0000
1000
0000
0010
0000
,
0002
0203
2300
3020
,
0032
0000
0000
0000
2000
0000
0000
3003
,
1000
0100
0010
0001
0100
0002
0000
0023
,
0000
0000
0000
0000
0031
0010
0100
1000
,
0010
1000
0100
0010
0001
0200
0000
0302
,
0000
0000
0000
0000
1003
0100
0010
0001
,
0200
0000
0310
0000
1000
0100
0100
0000
,
0020
0000
0031
0000
0100
0010
1000
0100
,
0200
0000
1300
0000
0010
0100
0100
0000
,
0002
0000
0103
0000
0010
1000
0100
0010
,
0001
0000
0000
0001
0100
0000
0000
0100
1000
0000
0000
1000
0100
0000
0001
0000
,
0010
0000
0100
1000
0000
0000
0010
0000
1000
0000
0100
0000
0001
0000
0100
0000
,
1000
0000
0000
1000
0100
0000
0000
0100
0001
0000
0000
0001
0100
0000
1000
0000
,
0010
0000
0100
0001
0000
0000
0020
0000
0200
0000
0000
0000
0330
0000
0000
0000
,
1000
0000
0000
0001
0010
0000
0000
0010
1000
0000
0000
1000
0010
0000
0001
0000
,
0100
0000
0010
1000
0000
0000
0100
0000
1000
0000
0010
0000
0001
0000
0010
0000
,
2000
3020
0032
0203
,
2300
0000
0000
0000
0002
0000
0000
3003
,
0220
0000
0000
0000
,
0330
0000
0000
0000
,
1000
0100
0010
0001
0100
0002
0103
0002
,
0013
0001
0010
0100
2000
3020
0032
0023
,
1030
0100
0010
0001
1000
0020
1030
0020
,
1030
0100
0010
0001
0020
2030
3020
0032
,
1003
0100
0010
0001
0100
2000
3100
0002
,
0013
0100
1000
0100
0002
0023
0230
0320
,
0031
0100
0010
1000
0100
0002
0103
2000
,
3010
0100
1000
0100
0002
0023
2030
3020
,
0031
0100
0010
1000
0100
0011
0000
1020
,
0000
0000
0001
0000
0100
0100
0031
0001
,
1000
0010
0100
0001
0010
1100
0000
0201
,
0000
0000
1000
0000
0010
0010
1000
1300
,
1001
0000
0000
0001
0010
0000
0000
0010
1000
0000
0000
1000
0010
0000
0001
0000
,
1001
0000
0000
1000
0010
0000
0000
0010
0001
0000
0000
0001
0010
0000
1000
0000
,
1001
0000
0000
0001
0100
0000
0010
0000
1001
0000
0000
1000
0010
0000
0100
0000
,
1001
0000
0000
0001
0100
0000
0000
1000
0100
0000
0001
0000
0010
0000
1000
0000
,
1000
0000
0000
0000
;

//---------------dance-single - Copied from----------------
#NOTES:
     dance-single:
     Copied from:
     Medium:
     6:
     0.528,0.479,0.487,0.572,0.013:
1000
0100
1000
0100
0010
0001
0000
2000
,
0000
0000
0001
3001
,
0001
0010
0001
0010
0100
1000
0000
0002
,
0000
0000
1000
1003
,
0001
0000
2000
0000
0000
3001
1001
0000
,
0010
0000
0200
0000
0000
0310
0110
0000
,
2000
3200
0320
0032
,
0203
0000
0020
0330
,
2000
0000
0010
0000
3010
0001
0010
0000
,
0020
2030
3200
0320
,
0032
0000
0010
0000
0013
1000
0010
0000
,
0020
0032
0203
0320
,
2030
0000
0002
3000
0103
1000
0100
0000
,
0002
0023
2030
3020
,
0032
0000
2000
0003
3010
0001
0010
0000
,
2000
3200
0320
0032
,
1103
0000
1001
0000
1200
0000
0000
1300
,
0100
0010
0001
0100
1000
0000
0000
0000
,
0101
0000
1001
0000
0201
0000
0000
0301
,
0010
0100
1000
0010
0001
0000
0000
0000
,
1010
0000
1001
0000
0021
0000
0000
0031
,
0100
0010
0100
0001
0010
0000
0000
0000
,
0011
0000
1001
0000
1020
0000
0000
1030
,
0010
0100
0010
1000
0100
0000
0000
0000
,
0011
0000
1100
0000
1001
0000
0000
0001
,
1000
0000
0000
0001
0000
0000
1000
0000
0100
0000
0010
0000
0001
0000
0100
0000
,
0101
0000
1010
0000
1001
0000
0000
1000
,
0100
0000
0000
0100
0000
0000
0010
0000
0001
0000
0000
0000
0000
0000
0000
0000
,
0011
0000
1100
0000
0011
0000
0000
1000
,
0010
0000
0000
0010
0000
0000
1000
0000
0010
0000
1000
0000
0010
0000
1000
0000
,
1001
0101
1010
0110
,
2002
0000
0000
0000
0000
0000
0000
3003
0200
0000
0000
0000
0000
0000
0300
0000
,
0010
1000
0010
1000
0001
0010
0000
0200
,
0000
0000
0010
0310
,
0001
0100
0001
0100
0010
1000
0000
0200
,
0000
0000
1000
1300
,
0011
0000
0011
0000
0100
1000
0001
0000
,
1010
0000
1010
0000
0001
1000
0100
0000
,
1100
0000
1100
0000
0010
0001
1000
0000
,
0101
0000
0101
0000
1000
0001
0010
0100
,
2000
0000
3200
0000
0310
0001
0010
0000
,
0002
0003
0200
0000
0310
1000
0010
0100
,
0002
0000
2003
0000
3100
0010
0100
0000
,
0010
0001
0100
0010
1000
0000
0000
0000
,
0002
0000
0203
0000
0310
1000
0100
0000
,
2000
0000
3020
0000
0130
0001
0010
0001
,
0200
0320
2030
3002
,
0023
0000
0001
0031
,
2002
0000
0000
0000
,
3103
0100
0100
0100
,
0010
1000
0100
0000
0010
0001
0100
0000
,
0110
0000
0110
0000
0001
1000
0100
0000
,
0010
0001
0100
0000
0010
1000
0100
0000
,
0110
0000
0110
0000
1000
0001
0010
0000
,
0001
0100
0010
0000
1000
0100
0010
0000
,
1100
0000
1010
0000
1000
0001
0010
0000
,
0001
0100
0010
0000
1000
0100
0010
0000
,
0011
0000
0101
0000
1000
0010
0100
0001
,
2000
0010
3020
0000
0032
0000
0023
0000
,
1030
1100
1001
1100
,
0001
0010
0020
0000
2030
0000
3020
0000
,
0031
0101
1001
0101
,
1000
0010
0020
0000
0001
0001
1000
0030
,
1010
1100
1001
0101
,
0001
0010
0020
0000
1000
1000
0031
0000
,
0011
0000
1001
0000
0010
1000
0001
0010
,
0100
0000
0000
0000
;

//---------------dance-single - Copied from Copied f----------------
#NOTES:
     dance-single:
     Copied from Copied f:
     Easy:
     4:
     0.406,0.509,0.649,0.376,0.000:
1000
0100
0010
0000
,
0002
0003
2000
3000
,
0001
0010
0100
0000
,
2000
3000
0002
0003
,
0100
0010
0000
1001
,
1000
0001
0000
0110
,
0100
0010
0000
1010
,
2000
3000
0002
0003
,
0011
0011
1001
1001
,
1010
1010
1001
1001
,
0011
0011
1001
1001
,
0101
0101
1001
1001
,
1010
1001
0011
0011
,
0101
1001
1100
1100
,
1010
1001
0011
0011
,
0101
1001
1100
1001
,
0001
0100
0020
0000
,
1000
1000
0001
0030
,
1000
0100
0020
0000
,
1000
1000
0001
0030
,
0001
0100
0020
0000
,
0001
0001
0100
0030
,
0200
0302
0023
0230
,
0320
0000
0032
0000
2003
0000
3020
0030
,
1010
1100
2020
3030
,
0001
0100
1000
0100
,
0101
0011
0101
0000
,
1100
1001
1100
0000
,
0101
0011
0101
0000
,
1000
0010
0001
0010
,
2000
3200
0320
0032
,
1003
1010
1001
0000
,
0001
0100
0010
1000
,
0011
0011
1000
0010
,
0100
0001
0010
0001
,
1100
1100
0001
0100
,
0010
1000
0001
0010
,
1001
1001
0010
0100
,
0001
0010
0100
1000
,
0101
0101
1000
0010
,
2000
0000
3020
0000
,
0032
0000
0023
0000
,
2030
0000
3200
0000
,
0001
0000
1000
0300
0011
0000
0000
0000
,
0002
0000
0203
0000
,
2300
0000
3200
0000
,
0320
2030
3200
0320
,
0031
0100
0110
0000
,
1001
0000
0000
0000
,
0000
0000
0000
0000
,
0001
0100
0010
0000
,
1100
0010
0001
0100
,
0010
1000
0001
0000
,
1010
0100
0001
0010
,
0100
1000
0100
0000
,
0011
1000
0010
0100
,
0001
1000
0010
0000
,
0101
0000
0000
0000
0010
0000
0000
0000
2001
0000
0000
3000
1002
0000
0000
0003
,
0021
0000
0000
0000
,
0000
0000
0030
0000
,
0001
0100
0010
1000
,
0011
0011
1000
0010
,
0100
0001
1000
0010
,
1100
1100
0010
1000
,
0001
0100
0010
1000
,
0101
0000
1010
0000
0210
0300
0120
0030
,
2002
3003
0000
0000
;

//---------------dance-single - Copied from----------------
#NOTES:
     dance-single:
     Copied from:
     Challenge:
     9:
     0.782,0.797,0.461,0.231,0.602:
1000
0100
0010
0100
1000
0001
0000
0020
,
0000
0000
0000
0000
1030
0010
0001
0100
,
0001
0010
0100
0010
0001
1000
0000
0020
,
0000
0000
0000
0000
0031
0010
1000
0100
,
0001
0000
1100
0000
1010
0001
0011
0000
,
1000
0000
0011
0000
0101
1000
1100
0000
,
0001
0000
1100
0000
0011
0100
1010
0000
,
2002
0000
0000
3003
0001
1000
0100
0010
,
0001
0000
0000
0001
0100
0000
0000
0100
0001
0000
1000
0000
0010
0000
0001
0000
,
0010
0000
0000
0010
1000
0000
0100
0000
0010
0001
0100
0000
0010
1000
0001
0000
,
1000
0000
0000
1000
0010
0000
0000
0010
1000
0000
0001
0000
0010
0000
1000
0000
,
0010
0000
0000
0010
0001
0000
0100
0000
0010
1000
0100
0000
0010
0001
1000
0000
,
1010
0000
0000
1000
0100
0000
0000
0100
0001
0000
0100
0000
1000
0000
0010
0000
,
0100
0000
0000
0100
1000
0000
0100
0000
0001
0010
1000
0000
1000
0010
0001
0000
,
0011
0000
0000
0001
0100
0000
0000
0100
1000
0000
0100
0000
0001
0000
0010
0000
,
0100
0000
0000
0100
0001
0000
0010
0000
0001
0100
1000
0000
1000
0100
0001
0000
,
1001
0000
0000
1000
0010
0000
0000
0010
0001
0000
0000
0001
0010
0000
1000
0000
,
0100
0000
0010
0001
0100
0000
1000
0000
0100
0000
0010
0000
1000
0000
0000
0000
,
1001
0000
0000
0001
0010
0000
0000
0010
1000
0000
0000
1000
0010
0000
0001
0000
,
0100
0000
0010
1000
0100
0000
0001
0000
0100
0000
0010
0000
0001
0000
0000
0000
,
0110
0000
0000
0010
1000
0000
0000
1000
0100
0000
0000
0100
0001
0000
0100
0000
,
0010
0000
0001
0100
1000
0000
0020
0000
0001
0000
0001
0000
1030
0000
0000
0000
,
0110
0000
0000
0100
0001
0000
0000
0001
0010
0000
0000
0010
1000
0000
0010
0000
,
0100
0000
1000
0010
0001
0000
0020
0000
1000
0000
1000
0000
0031
0000
0000
0000
,
1010
0000
0000
1000
0100
0000
0000
0100
0001
0000
0000
0001
0100
0000
0010
0001
,
0100
0000
0100
0001
0000
0001
1000
0000
0010
1000
0100
0000
0010
0001
0100
0001
,
0010
0000
0000
0010
0100
0000
0000
0100
1000
0000
0000
1000
0010
0000
0100
0010
,
0100
0000
0001
0010
0000
0010
1000
0000
0010
0001
0100
0000
0110
0000
0010
1000
,
0001
0000
0000
0001
0100
0000
0000
0100
1000
0000
0000
1000
0100
0000
0010
1000
,
0100
0000
0001
0100
0000
0100
0010
0000
0001
0100
1000
0000
0100
0000
0010
1000
,
0100
0010
0001
0000
0100
0001
0100
0000
0010
1000
0100
0000
0010
0001
1000
0010
,
2000
3002
0023
1030
,
0010
0001
0100
1000
0100
0001
0010
0100
,
0002
0000
0103
000M
2000
0000
3100
M000
0002
0000
0103
000M
0010
0000
0001
0000
,
1000
0010
0001
0010
1000
0100
0001
0100
,
0020
0000
0031
00M0
0020
0000
1030
00M0
0020
0000
0031
00M0
0100
0000
1000
0000
,
0100
0010
1000
0100
0001
0100
0010
0001
,
2000
0000
3010
M000
0002
0000
0013
000M
2000
0000
3100
M000
0010
0000
0001
0000
,
0100
1000
0100
0010
1000
0100
0001
0100
,
0020
0000
0031
00M0
0020
0000
1030
00M0
0020
0000
0031
00M0
0100
0000
0010
0000
,
1001
0000
0000
0001
0010
0000
0000
0010
1000
0000
0000
1000
0010
0000
0100
1000
,
0010
0000
0010
1000
0000
1000
0001
0000
0100
0001
0010
0000
0100
1000
0010
1000
,
0100
0000
0000
0100
0010
0000
0000
0010
0001
0000
0000
0001
0100
0000
0010
0100
,
0010
0000
1000
0100
0000
0100
0001
0000
0100
1000
0010
0000
0110
0000
0100
0001
,
1000
0000
0000
1000
0010
0000
0000
0010
0001
0000
0000
0001
0010
0000
0100
0001
,
0010
0000
1000
0010
0000
0010
0100
0000
1000
0010
0001
0000
0010
0000
0100
0001
,
0010
0100
1000
0000
0010
1000
0010
0000
0100
0001
0010
0000
0100
1000
0001
0100
,
0020
2030
3002
0203
,
0301
001M
00M1
001M
00M1
001M
00M1
001M
,
01M0
1M00
M100
1M00
M100
1M00
M100
0M00
,
1000
0010
1010
1000
0001
0011
1000
0010
,
0010
0100
0001
1000
1100
1100
0101
0101
,
0001
0100
0110
0010
1000
1100
1000
0010
,
0100
0100
0001
1000
1010
1010
0011
0011
,
0001
0100
0110
0010
1000
1010
1000
0001
,
0010
0010
0001
0100
0101
0101
1100
1100
,
0100
1000
1010
0010
0001
0011
0010
1000
,
0001
0010
0010
1000
1010
1010
0011
1000
,
1010
0000
0000
1000
0010
0000
0000
0010
0001
0000
0010
1000
0100
0010
0001
0000
,
0011
0000
0000
0001
0010
0000
0000
0010
0100
0000
1000
0100
0010
0001
1000
0000
,
0110
0000
0000
0001
1000
0000
0000
1000
0100
0000
0010
0001
0100
0010
1000
0000
,
0110
0000
0000
0100
0001
0000
0000
0001
0010
0000
0001
0100
0010
1000
0100
0000
,
1100
0000
0000
1000
0010
0000
0000
0001
0010
0000
0100
0001
0010
1000
1000
0000
,
0011
0000
0000
0001
0100
0000
0000
1000
0100
0000
0010
1000
0100
0001
0001
0000
,
0100
1000
0100
0000
1000
0010
0001
0000
0010
1000
0010
0000
1000
0100
0001
0000
,
0001
0100
1000
0000
1000
0010
0001
0000
0011
0000
1010
0000
1100
0000
0101
0000
,
0022
0000
0000
0000
0000
0000
0000
0000
0000
0000
0000
0000
0000
0000
0000
0000
0033
00MM
00MM
00MM
00MM
0000
0000
0000
0000
0000
0000
0000
0000
0000
0000
0000
;

//---------------dance-single - Copied from Copied f----------------
#NOTES:
     dance-single:
     Copied from Copied f:
     Beginner:
     1:
     0.161,0.282,0.043,0.009,0.000:
0000
0000
0000
0000
,
0000
0000
0000
0000
,
0000
0000
0000
0000
,
0000
0000
0000
0000
,
1000
0000
0000
0000
,
0001
0000
0000
0000
,
0100
0000
0000
0000
,
0010
0000
0000
0000
,
1000
0000
0100
0000
,
0001
0000
0100
0000
,
1000
0000
0100
0000
,
0001
0000
0100
0000
,
1000
0000
0010
0000
,
0001
0000
0010
0000
,
1000
0000
0010
0000
,
0001
0000
0010
0000
,
1000
0000
0001
0000
,
0100
0100
0100
0000
,
0010
0000
1000
0000
,
0001
0001
0001
0000
,
1000
0000
0001
0000
,
0010
0010
0010
0000
,
0100
0000
1000
0000
,
0001
0001
0001
0000
,
1000
1000
1000
0000
,
0001
0000
0100
0000
,
0010
0010
0010
0000
,
1000
0001
1000
0000
,
0001
0001
0001
0000
,
0100
0000
0010
0000
,
1000
0000
0001
0000
,
0100
0000
0010
0000
,
1000
0000
0000
0000
,
0001
0000
1000
0000
,
0001
0000
0000
0000
,
0100
0000
0010
0000
,
0100
0000
0000
0000
,
0001
0000
1000
0000
,
0001
0000
0000
0000
,
1000
0000
0100
0000
,
1000
1000
1000
0000
,
0001
0000
0100
0000
,
0001
0001
0001
0000
,
0100
0010
0100
0000
,
0010
0010
0010
0000
,
1000
0000
0001
0000
,
0100
0000
0010
0000
,
1000
0000
0001
0000
,
1001
0000
0000
0000
,
0000
0000
0000
0000
,
1000
0000
0100
0000
,
1000
0000
0001
1000
,
0001
0000
0010
0000
,
0001
0000
1000
0001
,
1000
0000
0010
0000
,
1000
0000
0010
0100
,
0010
0000
0100
0000
,
0001
0000
1000
0001
,
0020
0000
0000
0000
,
0000
0000
0000
0000
,
0030
0000
0000
0000
,
0000
0000
0000
0000
,
0001
0010
0001
0000
,
1000
0001
1000
0000
,
0101
0000
1001
0000
,
1100
0000
0010
0001
,
1001
0000
0000
0000
;

//---------------dance-double - Copied from----------------
#NOTES:
     dance-double:
     Copied from:
     Hard:
     8:
     0.597,0.564,0.299,0.290,0.252:
00000001
00000010
00000100
00010000
00001000
02000000
00000000
03020000
,
00000000
00000000
00000000
00030000
10000000
10000000
00010000
00010000
,
10000000
01000000
00100000
00001000
00010000
00000020
00000000
00002030
,
00000000
00000000
00000000
00003000
00000001
00000001
00001000
00001000
,
00001001
00000000
00010100
00000000
00100000
00001000
00011000
00000000
,
10010000
00000000
00101000
00000000
00010000
00000100
00011000
00000000
,
00010010
00000000
00001001
00000000
00000010
00000100
00000110
00000000
,
00022000
00000000
00000000
00033000
00010000
00001000
01000000
00100000
,
10010000
00000000
00000000
10000000
00100000
00000000
00000000
00100000
01000000
00000000
00010000
00000000
00100000
00000000
00000000
00000000
,
00011000
00000000
00000000
00001000
00010000
00000000
00000000
00010000
00000100
00000000
00000010
00000000
00000001
00000000
00000000
00000000
,
00001001
00000000
00000000
00000001
00000100
00000000
00000000
00000100
00000010
00000000
00001000
00000000
00000100
00000000
00000000
00000000
,
00011000
00000000
00000000
00010000
00001000
00000000
00000000
00001000
01000000
00000000
00100000
00000000
10000000
00000000
00000000
00000000
,
10100000
00000000
00000000
00100000
10000000
00000000
00000000
10000000
00010000
00000000
00100000
00000000
00001000
00000000
00000000
00000000
,
00001001
00000000
00000000
00000001
00000100
00000000
00000000
00000100
00000010
00000000
00010000
00000000
00001000
00000000
00000000
00000000
,
00011000
00000000
00000000
01000000
00000100
00000000
00000000
00000100
00010000
00000000
00001000
00000000
01100000
00000000
00000000
00000000
,
00011000
00000000
00000000
00100000
00000010
00000000
00000000
00000010
00000100
00000000
00000001
00000000
00001001
00000000
00000000
00000000
,
00000110
00000000
00000000
00000010
00001000
00000000
00000000
00001000
00000100
00000000
00000000
00000100
00010000
00000000
00010000
00000000
,
00001000
01000000
00100000
10000000
01000000
01000000
10000000
00000000
,
00010000
00000000
00000000
00010000
00100000
00000000
00000000
00100000
00001000
00000000
00000000
00001000
00010000
00000000
00010000
00000000
,
00000100
00000010
00000001
00000100
00000001
00000001
00000010
00000000
,
00000001
00000000
00000000
00000001
00000100
00000000
00000000
00000100
00000010
00000000
00000000
00000010
00010000
00000000
00010000
00000000
,
00001000
00100000
01000000
00100000
00010000
00010000
10000000
00000000
,
10000000
00000000
00000000
10000000
00100000
00000000
00000000
00100000
01000000
00000000
00000000
01000000
00001000
00000000
00001000
00000000
,
00010000
00000100
00000010
00000001
00001000
00001000
00000010
00000000
,
00000001
00000000
00000000
00000001
00000100
00000000
00000000
00000010
00001000
00000000
00000000
00000100
00010000
00000000
00000000
00010000
,
00001000
00000000
00001000
00010000
00000000
00010000
00001000
00000000
01000000
00000000
00100000
00000000
10000000
00000000
01000000
00000000
,
10000000
00000000
00000000
10000000
00100000
00000000
00000000
01000000
00010000
00000000
00000000
00100000
00001000
00000000
00010000
00000000
,
00001000
00000000
00010000
00001000
00000000
00001000
00010000
00000000
00001000
00000000
00010000
00000000
00001000
00000000
00000000
00000000
,
00010000
00000000
00000000
00010000
00000100
00000000
00000000
00000100
00000010
00000000
00000000
00000001
00000100
00000000
00000010
00000000
,
00001000
00000000
00000100
00010000
00000000
00000000
00000100
00000000
00010000
00000000
00001000
00000000
00100000
00000000
01000000
00000000
,
00200000
02300000
03000200
00000320
,
00000032
00000000
00000000
00000000
00002003
00000000
00000000
00003000
,
00000001
00000010
00000100
00010000
00001000
02000000
00000000
03020000
,
00000000
00000000
00000000
00030000
10000000
10000000
00010000
00010000
,
10000000
01000000
00100000
00001000
00010000
00000020
00000000
00002030
,
00000000
00000000
00000000
00003000
00000001
00000001
00001000
00001000
,
00001001
00000000
00010100
00000000
00100000
00001000
00011000
00000000
,
10010000
00000000
00101000
00000000
00010000
00000100
00011000
00000000
,
00010010
00000000
00001001
00000000
00000010
00000100
00000110
00000000
,
00022000
00000000
00000000
00033000
00010000
00001000
01000000
00100000
,
10010000
00000000
00000000
10000000
01000000
00000000
00000000
00100000
00010000
00000000
00000000
00001000
00010000
00000000
00000000
00010000
,
00000100
00000000
00000100
00001000
00000000
00001000
00000010
00000000
00000100
00000000
00000001
00000000
00000010
00000000
00000100
00000000
,
00000010
00000000
00000000
00000010
00000001
00000000
00000000
00000001
00000100
00000000
00000000
00000010
00001000
00000000
00000100
00000000
,
00010000
00000000
00001000
00010000
00000000
00010000
00001000
00000000
00010000
00000000
00001000
00000000
00010000
00000000
00000000
00000000
,
00001000
00000000
00000000
00001000
01000000
00000000
00000000
01000000
00100000
00000000
00000000
10000000
01000000
00000000
00000000
01000000
,
00100000
00000000
00100000
00001000
00000000
00000000
00010000
00000000
00001000
00000000
00010000
00000000
00000100
00000000
00000010
00000000
,
00000002
00002003
00023000
20030000
,
32000000
00000000
00000000
00000000
00000000
00000000
00000000
00000000
03200000
00000000
00000000
00000000
00000000
00000000
00000000
00300000
,
00022000
00000000
00000000
00000000
,
00033000
00000000
00000000
00000000
,
00001000
01000000
10000000
01000000
00100000
20000000
00000000
30020000
,
00000000
00000000
00000000
00030000
01000000
01000000
00000100
00000100
,
00010000
00000100
00000001
00000100
00000010
00000002
00000000
00002003
,
00000000
00000000
00000000
00003000
00000010
00000010
00100000
00100000
,
00001000
00100000
10000000
00100000
01000000
20000000
00000000
30020000
,
00000000
00000000
00000000
00030000
00100000
00100000
00000010
00000010
,
00001000
00000100
00000001
00000100
00010000
00002000
00000000
00023000
,
00000000
00000000
00000000
00030000
00001000
00001000
10000000
10000000
,
10010000
00010000
10000000
01000000
00100000
01000000
10000000
00100000
,
01000000
00001000
01000000
00010000
00100000
00100000
00000010
00000010
,
00000100
00000001
00000010
00000100
00000010
00000001
00001000
00000100
,
00010000
00001000
01000000
00010000
00100000
00100000
00000010
00000010
,
00001000
00000100
00000010
00000100
00010000
00001000
01000000
00100000
,
00010000
00100000
01000000
00010000
10000000
10000000
00001000
00001000
,
00010000
00000100
00000010
00000001
00000010
00000100
00010000
00001000
,
01000000
01000000
00000100
00000100
00010000
00001000
01000000
00100000
,
10010000
00000000
00000000
00000000
;

//---------------dance-double - Copied from Copied f----------------
#NOTES:
     dance-double:
     Copied from Copied f:
     Challenge:
     9:
     0.688,0.770,0.581,0.179,0.359: // measure 1
00000001
00000100
00000010
00010000
00000100
00000001
00000000
00000200
,  // measure 2
00000000
00000000
00010000
00000000
00000010
00000000
00010000
00000300
,  // measure 3
00001000
01000000
00100000
00001000
00100000
10000000
00000000
00020000
,  // measure 4
00000000
00000000
00100000
00000000
00001000
00000000
00100000
00030000
,  // measure 5
00011000
00000000
00000110
00000000
00001001
00000100
00011000
00000000
,  // measure 6
00011000
00000000
01100000
00000000
10010000
00100000
00011000
00000000
,  // measure 7
01000100
00000000
00011000
00000000
00100010
00001000
00011000
00000000
,  // measure 8
02000200
00000000
00000000
03000300
00010000
00001000
00100000
00000010
,  // measure 9
00000110
00000000
00000000
00000100
00000001
00000000
00000000
00000001
00001000
00000000
00000100
00000000
00010000
00000000
00000000
00000000
,  // measure 10
00011000
00000000
00000000
00001000
01000000
00000000
00100000
00000000
10000000
01000000
00010000
00000000
00010000
01000000
10000000
00000000
,  // measure 11
10010000
00000000
00000000
00010000
00100000
00000000
00000000
00100000
00001000
00000000
00010000
00000000
00001000
00000000
00000000
00000000
,  // measure 12
00011000
00000000
00000000
00010000
00000100
00000000
00000010
00000000
00000001
00000100
00001000
00000000
00001000
00000100
00000001
00000000
,  // measure 13
00001001
00000000
00000000
00000001
00000010
00000000
00000000
00000010
00000100
00000000
00010000
00000000
00001000
00000000
00000000
00000000
,  // measure 14
00011000
00000000
00000000
00001000
01000000
00000000
00100000
00000000
10000000
01000000
00010000
00000000
00010000
01000000
10000000
00000000
,  // measure 15
10010000
00000000
00000000
00100000
10000000
00000000
00000000
10000000
01000000
00000000
00100000
00000000
00010000
00000000
00000000
00000000
,  // measure 16
00011000
00000000
00000000
00001000
00010000
00000000
00001000
00000000
00010000
00000100
00000001
00000000
00000001
00000100
00010000
00000000
,  // measure 17
00011000
00000000
00000000
00001000
00100000
00000000
00000000
00100000
01000000
00000000
00000000
01000000
10000000
00000000
10000000
00000000
,  // measure 18
00100000
00000000
01000000
00100000
01000000
00000000
00010000
00000000
00200000
00000000
00001000
00000000
00301000
00000000
00000000
00000000
,  // measure 19
00011000
00000000
00000000
00010000
00000100
00000000
00000000
00000100
00000010
00000000
00000000
00000010
00000001
00000000
00000001
00000000
,  // measure 20
00000100
00000000
00000010
00000100
00000010
00000000
00001000
00000000
00000200
00000000
00010000
00000000
00010300
00000000
00000000
00000000
,  // measure 21
00101000
00000000
00000000
00100000
00010000
00000000
00000000
00010000
01000000
00000000
00000000
01000000
00100000
00000000
00100000
00000000
,  // measure 22
10000000
00000000
00010000
10000000
00010000
00000000
10000000
00000000
02000000
00000000
00100000
00000000
03100000
00000000
01000000
00000000
,  // measure 23
10100000
00000000
00000000
10000000
01000000
00000000
00000000
01000000
00100000
00000000
00000000
00100000
00001000
00000000
00001000
00000000
,  // measure 24
00010000
00000000
00001000
00010000
00001000
00000000
00010000
00000000
00000200
00000000
00000010
00000000
00000310
00000000
00000000
00000000
,  // measure 25
00000011
00000000
00000000
00000001
00001000
00000000
00000000
00000100
00010000
00000000
00000000
00001000
00100000
00000000
00010000
10000000
,  // measure 26
00010000
00000000
10000000
01000000
00000000
01000000
00100000
00000000
00010000
00100000
00010000
00000000
00100000
00001000
00010000
00001000
,  // measure 27
00010000
00000000
00000000
00010000
00000100
00000000
00000000
00000010
00000001
00000000
00000000
00000100
00000010
00000000
00000010
00001000
,  // measure 28
00000010
00000000
00001000
00000100
00000000
00010000
00001000
00000000
00010000
00001000
00010000
00000000
00011000
00000000
00000000
00000000
,  // measure 29
01001000
00000000
00000000
01000000
00100000
00000000
00000000
10000000
01000000
00000000
00000000
00100000
00010000
00000000
00100000
00001000
,  // measure 30
00100000
00000000
00001000
00010000
00000000
00010000
00000100
00000000
00001000
00000001
00001000
00000000
00000001
00000000
00000100
00000001
,  // measure 31
00000100
00000001
00000010
00001000
00010000
00100000
10000000
01000000
,  // measure 32
01100000
00000000
00000000
00100000
00011000
00001000
01000000
00100000
,  // measure 33
10000000
00100000
01000000
00001000
00100000
10000000
00000000
00200000
,  // measure 34
00000000
00000000
00001000
00000000
01000000
00000000
00001000
00300000
,  // measure 35
00100000
00001000
00010000
00000100
00000001
00000100
00000000
00020000
,  // measure 36
00000000
00000000
00000010
00000000
00001000
00000000
00000010
00030000
,  // measure 37
00001000
01000000
00100000
10000000
00100000
00001000
00000000
00200000
,  // measure 38
00000000
00000000
10000000
00000000
01000000
00000000
00010000
00300000
,  // measure 39
10000000
01000000
00100000
00001000
01000000
10000000
00000000
02000000
,  // measure 40
00000000
00000000
10000000
00000000
00100000
00000000
00001000
03000000
,  // measure 41
00011000
00000000
00000000
00010000
00000100
00000000
00000000
00000010
00000001
00000000
00000000
00000100
00000010
00000000
00001000
00000100
,  // measure 42
00010000
00000000
00001000
00010000
00000000
00010000
00001000
00000000
01000000
00010000
01000000
00000000
00010000
10000000
00100000
10000000
,  // measure 43
00100000
00000000
00000000
00100000
10000000
00000000
00000000
01000000
00100000
00000000
00000000
00001000
00010000
00000000
00001000
00010000
,  // measure 44
00001000
00000000
00010000
00000100
00000000
00000100
00000010
00000000
00000001
00001000
00000001
00000000
00001000
00000000
00000000
00000000
,  // measure 45
00011000
00000000
00000000
00001000
01000000
00000000
00000000
00100000
10000000
00000000
00000000
01000000
00100000
00000000
01000000
10000000
,  // measure 46
01000000
00000000
00100000
00001000
00000000
00010000
00000100
00000000
00001000
00000001
00001000
00000000
00000010
00000000
00000100
00000010
,  // measure 47
00000100
00000001
00000010
00001000
00010000
00100000
10000000
01000000
,  // measure 48
01200000
00000000
00000000
01300000
01100000
01000000
10000000
00100000
,  // measure 49
00022000
00000000
00000000
00000000
,  // measure 50
00033000
00000000
00000000
00000000
,  // measure 51
00011000
00001000
01000000
01100000
00100000
10000000
10010000
01000000
,  // measure 52
10010000
01000000
10000000
00100000
00101000
00101000
00011000
00011000
,  // measure 53
00010100
00000100
00001000
00001001
00000001
00000010
00000001
00000100
,  // measure 54
00001001
00000100
00001001
00000100
00010100
00010100
00011000
00011000
,  // measure 55
00101000
00001000
00100000
00110000
00010000
01000000
01010000
10000000
,  // measure 56
10100000
01000000
10100000
01000000
01010000
01010000
00101000
00101000
,  // measure 57
00011000
00010000
00000100
00000110
00000010
00000001
00001001
00000100
,  // measure 58
00001001
00000100
00000010
00010000
00010100
00010100
00011000
00011000
,  // measure 59
00010000
00001000
00010000
00000100
00010000
01000000
00010000
00001000
,  // measure 60
00200000
00000000
10000000
00000000
01000000
00000000
00001000
00300000
,  // measure 61
00001000
00010000
00001000
00100000
00001000
00000010
00001000
00010000
,  // measure 62
00000200
00000000
00000001
00000000
00000010
00000000
00010000
00000300
,  // measure 63
00001000
01000000
10000000
01000000
00100000
01000000
00001000
01000000
,  // measure 64
00000200
00000000
00000001
00000000
00000010
00000000
00010000
00000300
,  // measure 65
00010000
00000100
00000001
00000100
00000010
00000100
00010000
00000100
,  // measure 66
02000000
00000000
03200000
00000000
10300000
01000000
00100000
00000010
,  // measure 67
00000200
00000000
00000000
00000300
;

//---------------dance-double - Copied from Copied f----------------
#NOTES:
     dance-double:
     Copied from Copied f:
     Easy:
     4:
     0.290,0.282,0.026,0.487,0.000:
10000000
01000000
00100000
00000000
,
00002000
00003000
00020000
00030000
,
00001000
00000100
00000010
00000000
,
00000002
00000003
00002000
00003000
,
00000001
00001000
00000000
00000100
,
00000100
00010000
00000000
00001000
,
00001000
00100000
00000000
01000000
,
20000000
30000000
00020000
00030000
,
10000000
00010000
10000000
00000000
,
00100000
01000000
00002000
00023000
,
00030100
00001000
00000001
00000000
,
00001000
00000100
00020000
00032000
,
00103000
00010000
10000000
00000000
,
00100000
01000000
00002000
00023000
,
00030100
00001000
00000001
00000000
,
00000010
00000100
00020000
00032000
,
00103000
01000000
00200000
00000000
,
01000000
01000000
01300000
00000000
,
10000000
00100000
02000000
00000000
,
00010000
00010000
03010000
00000000
,
00010000
00100000
00002000
00000000
,
00010000
00010000
00013000
00000000
,
00001000
00010000
00000200
00000000
,
00000010
00000010
00000310
00000000
,
00000001
00000100
00001000
00000000
,
00010000
00000000
00000000
00000000
00100000
00000000
00000000
00000000
02000000
00000000
00000000
03000000
02000000
00000000
00000000
03000000
,
01000000
10000000
00010000
00000000
,
00100000
01000000
01100000
00000000
,
10000000
01000000
00010000
00000000
,
00001000
00000000
00000000
00000000
00000010
00000000
00000000
00000000
00000200
00000000
00000000
00000300
00000200
00000000
00000000
00000300
,
00000100
00000001
00000010
00000100
,
00020000
00030000
00002000
00003000
,
00010000
00100000
01000000
00000000
,
20000000
30000000
00020000
00030000
,
10000000
01000000
00100000
00000000
,
00002000
00003000
00020000
00030000
,
00000100
00000010
00000001
00000000
,
00002000
00003000
00000002
00000003
,
00000010
00000100
00001000
00000000
,
00020000
00030000
00001000
00010000
,
00002000
00000000
02003000
00000000
,
23000000
00000000
32000000
00000000
,
03020000
00000000
00230000
00000000
,
00301000
00010000
00011000
00000000
,
00020000
00000000
00030200
00000000
,
00000302
00000000
00000203
00000000
,
00000310
00000001
00000100
00000010
,
00002000
00000000
00003002
00000000
,
00000003
00000000
00000000
00000000
,
00000000
00000000
00000000
00000000
,
00000001
00000010
00000100
00000000
,
00020000
00030000
00002000
00003000
,
00010000
00001000
01000000
00000000
,
00020000
00030000
20000000
30000000
,
01000000
00100000
00001000
00000000
,
00020000
00030000
00002000
00003000
,
00010000
00000100
00000010
00000000
,
00000002
00000003
00001000
00000001
,
00000200
00000000
00000000
00000000
,
00000000
00000000
00000000
00000300
,
00000010
00010000
00001000
00000000
,
02000000
03000000
00000200
00000300
,
00010000
00001000
00100000
00000000
,
00020000
00030000
20000000
30000000
,
00100000
01000000
00010000
00000000
,
00200000
00300000
00000020
00000130
,
00001001
00000000
00000000
00000000
;
