#TITLE:ESCAPE;
#SUBTITLE:;
#ARTIST:KEiNA;
#TITLETRANSLIT:;
#SUBTITLETRANSLIT:;
#ARTISTTRANSLIT:;
#CREDIT:;
#BANNER:Escape_bn.png;
#BACKGROUND:ESCAPE_bg.png;
#LYRICSPATH:;
#CDTITLE:CD_Title.png;
#MUSIC:ESCAPE.mp3;
#OFFSET:-0.170;
#SAMPLESTART:62.340;
#SAMPLELENGTH:12.100;
#SELECTABLE:YES;
#BPMS:0.000=160.000;
#STOPS:;
#BGCHANGES:;

//---------------dance-single - ----------------
#NOTES:
     dance-single:
     :
     Hard:
     9:
     0.688,0.756,0.276,0.498,0.311:
0000
0000
0000
0000
,
1000
0100
0010
0100
1000
0010
0100
2000
,
0000
0000
0000
0000
0000
0000
0000
0000
3000
0000
0000
0000
0001
0010
0001
0010
,
0001
0010
0100
0010
0001
0100
0010
0001
,
0200
0010
0310
0100
,
0110
1000
0100
0001
,
0010
1000
0100
0001
,
0010
0001
0000
0010
0100
0000
1000
0010
,
0200
0000
0000
0000
0320
0000
0000
0030
,
1000
0000
0010
0000
0100
1000
0001
1000
0100
0000
1000
0000
0010
0000
0100
0000
,
0001
0000
1000
0000
0010
1000
0001
1000
0010
0000
1000
0000
0001
0000
0010
0000
,
0001
0000
0100
0000
0010
1000
0001
1000
0010
0000
1000
0000
0100
0000
0010
0000
,
0002
0100
0100
0000
2003
0010
0010
0000
,
3010
0000
1000
0000
0100
0010
0001
0010
0100
0000
1000
0000
0010
0000
0100
0000
,
0001
0000
1000
0000
0010
0100
0001
0100
0010
0000
1000
0000
0001
0000
0100
0000
,
0010
0000
1000
0000
0001
0010
0100
0010
0001
0000
1000
0000
0010
0000
0100
0000
,
0020
1000
1000
0030
0200
0001
0001
0300
,
0010
2000
0000
3002
0000
0000
0000
0003
,
0000
0010
1000
0001
,
0010
0002
0000
2003
0000
0000
3000
0000
,
0010
1000
0100
0001
,
0010
0000
0100
0000
1000
0020
0000
0032
,
0000
0203
0000
2300
0000
3020
0000
0031
,
2000
0000
0200
0000
,
0002
0000
0000
3303
0010
0100
1000
0010
,
0100
0002
0000
2003
0000
0000
0000
3000
,
0000
0100
0001
1000
,
0100
2000
0000
3002
0000
0000
0003
0000
,
0100
0001
0010
1000
,
0100
0000
0010
0000
0001
0200
0000
2300
,
0000
3020
0000
0032
0000
0203
0000
1300
,
0002
0000
0020
0000
,
2000
0000
0000
3033
0100
1000
0001
0000
,
1001
0000
0001
0020
0000
0000
0130
1000
,
0002
0000
0000
0000
0000
0000
0000
0000
0103
0000
0000
0010
0000
0000
1000
0000
,
0002
0000
0000
2000
0000
0000
3003
0000
,
0100
0000
0000
1000
0000
0000
0010
0000
0100
0001
0100
0001
1000
0001
1000
0001
,
0010
0000
0000
0100
0000
0000
0110
0000
0000
0000
0000
0000
0000
0000
0100
0000
,
1000
0000
0000
0001
0000
0000
1001
0000
0000
0000
0000
0000
0000
0000
0010
0000
,
0100
0000
0000
0001
0000
0000
0011
0000
0000
0000
0000
0000
1000
0000
0010
0000
,
1010
0000
0000
1000
0000
0000
0100
0000
0010
0001
0010
0001
0100
0001
0100
0001
,
0010
0000
0000
0000
0000
0001
1000
0001
,
1001
0000
1000
0000
0010
0100
0010
0100
0001
0000
0010
0000
0100
0000
1000
0000
,
0010
0000
0100
0000
0001
1000
0001
1000
0010
0000
1000
0000
0100
0000
0010
0000
,
0001
1000
0010
1000
1100
0100
0010
0001
,
0011
0001
0200
2000
0300
0020
0000
3030
,
1010
0000
0010
0000
1000
0100
1000
0100
0010
0000
0001
0000
0100
0000
0010
0000
,
1000
0000
0001
0000
0010
0100
0010
0100
1000
0000
0010
0000
0100
0000
0001
0000
,
2001
0000
0000
0100
0000
0000
3001
0000
1002
0000
0000
0010
0000
0000
1003
0000
,
1001
0000
0000
1001
0000
0000
0110
0000
0000
0000
0010
0000
0100
0000
0010
0000
,
1010
0000
1000
0000
0001
0010
0100
0010
0001
0000
1000
0000
0010
0000
0100
0000
,
0001
0000
0010
0000
0100
1000
0001
1000
0100
0000
0010
0000
0001
0000
1000
0000
,
0010
0100
0001
0010
0011
0001
0100
0010
,
1010
1000
0200
0002
0300
0020
0000
0033
,
1010
0000
1000
0000
0010
0100
0001
0100
0010
0000
1000
0000
0010
0000
0100
0000
,
0001
0000
0010
0000
0100
1000
0001
1000
0100
0000
0010
0000
0001
0000
1000
0000
,
1020
0000
0000
1000
0000
0000
0130
0000
0021
0000
0000
0001
0000
0000
0130
0000
,
0110
0000
0000
0110
0000
0000
1001
0000
0000
0000
0001
0000
1000
0000
0001
0000
,
0110
0000
0010
0000
1000
0100
0010
0100
1000
0000
0010
0000
0100
0000
0001
0000
,
0010
0000
0001
0000
0100
0010
1000
0010
0100
0000
0001
0000
0010
0000
0001
0000
,
1000
0010
0110
1000
1001
0000
0010
0011
,
0000
0101
0000
2200
0000
0000
3300
1000
,
0010
0000
1000
0000
0001
0100
0010
0100
0001
0000
1000
0000
0010
0000
0100
0000
,
0100
0000
0010
0000
1000
0010
0100
0010
1000
0000
0001
0000
0010
0000
0010
0000
,
0001
0100
0001
0100
0010
1000
0010
1000
0100
0010
0001
0010
0100
1000
0010
0100
,
0002
0000
0000
0000
0000
0000
0000
0000
2003
0000
0000
0000
0000
0000
0000
3000
,
0110
0010
1000
0100
0010
0100
1000
0020
,
0000
0000
0000
0000
0000
0000
0000
0000
0030
0000
0000
0000
0100
0010
0100
0010
,
0100
0001
0010
0100
0100
0010
0001
0100
,
0020
0000
0000
0000
0000
0000
0000
0000
1030
0000
1000
0000
0001
0100
0010
1000
,
0002
0000
0000
0000
,
0203
0000
0010
1000
,
2300
0000
0000
0000
,
3002
0000
0000
0000
1003
0100
0001
1000
;

//---------------dance-single - Copied from----------------
#NOTES:
     dance-single:
     Copied from:
     Medium:
     6:
     0.452,0.460,0.044,0.356,0.058:
0000
0000
0000
0000
,
1000
0000
0100
0000
0010
0000
1000
0002
,
0000
0000
2003
0000
,
3001
0000
0010
0000
0100
0000
0001
1000
,
0200
0000
2300
0000
,
3010
1000
0001
0100
,
0010
1000
0001
0100
,
0010
1000
0000
0001
0100
0000
0010
1000
,
0002
0000
2003
0000
,
3010
0000
1000
0100
0010
0000
0001
0000
,
0100
0000
0001
0010
0100
0000
1000
0000
,
0010
0000
1000
0100
0010
0000
0100
0000
,
1000
0010
0100
0000
0010
0100
0001
0000
,
1000
0000
0001
0010
0100
0000
0010
0000
,
0001
0000
0010
0100
1000
0000
0010
0000
,
1000
0000
0100
0010
0001
0000
1000
0000
,
0010
0100
0001
0000
1000
0010
0100
0000
,
0001
1000
0000
0020
0000
0000
0000
0000
,
0030
0100
0001
1000
,
0010
1000
0000
0200
0000
0000
0000
0000
,
0010
0000
0001
0000
0010
0000
1000
0300
,
0001
0000
1000
0000
0001
0100
0000
0010
,
0000
1000
0000
0100
0000
0020
0000
0031
,
2000
0000
3200
0000
,
0302
0000
0000
0000
0103
1000
0010
0100
,
0001
1000
0000
0020
0000
0000
0000
0000
,
0000
0100
0001
0130
,
0010
1000
0000
0002
0000
0000
0000
0000
,
0010
0000
0100
0000
0010
0000
1000
0003
,
0001
0000
1000
0000
0010
0100
0000
0001
,
0000
0010
0000
0100
0000
1000
0000
0010
,
2000
0000
0000
0000
0020
3000
0000
0000
,
0002
0030
0000
0000
0013
1000
0001
0000
,
1001
0000
1000
0010
0000
0000
0010
0100
,
0002
0000
0000
0000
0000
0000
0000
0000
1003
0000
0000
0001
0000
0000
1000
0000
,
0002
0000
0000
1003
0000
0000
0000
0000
,
1000
0000
0000
0010
0000
0000
1000
0000
0001
0000
0000
0010
0000
0000
0001
0000
,
1000
0000
0000
1000
0000
0000
0002
0000
0000
0000
0000
0000
0103
0000
0000
0000
,
0010
0000
0000
0010
0000
0000
2000
0000
0000
0000
0000
0000
3001
0000
0000
0000
,
0100
0000
0000
0100
0000
0000
0010
0000
0000
0000
1000
0000
0001
0000
0000
0000
,
0010
0000
0000
0010
0000
0000
0001
0000
0000
0000
1000
0000
0001
0000
1000
0000
,
0020
0000
0000
0000
0030
0100
0010
0100
,
0001
0000
1000
0100
0010
0000
0100
0000
,
1000
0000
0001
0010
0100
0000
0010
0000
,
0001
0000
1000
0010
0100
0000
0010
0000
,
1000
0100
0010
0002
0000
1003
0000
0000
,
1001
0000
0001
0010
0100
0000
0010
0000
,
0001
0000
1000
0010
0100
0000
0100
0010
,
1000
0000
0000
0001
0000
0000
1000
0000
0001
0000
0000
0010
0000
0000
0001
0000
,
1000
0000
0000
1000
0000
0000
1001
0000
0000
0000
0010
0000
0100
0000
0010
0000
,
1000
0000
0001
0010
0100
0000
0010
0000
,
0001
0000
1000
0100
0010
0000
0100
0000
,
1000
0000
0001
0100
0010
0000
0100
0000
,
0001
0010
0100
2000
0000
3001
0000
0000
,
1001
0000
0010
0100
1000
0000
0001
0000
,
0010
0000
0100
0010
0001
0000
1000
0010
,
0100
0000
0000
0001
0000
0000
1000
0000
0010
0000
0000
1000
0000
0000
0001
0000
,
0010
0000
0000
0010
0000
0000
0011
0000
0000
0000
0001
0000
1000
0000
0001
0000
,
0020
0000
0031
0010
0100
0000
1000
0020
,
0000
0230
0000
0302
0000
0000
0003
0000
,
0000
0000
1000
0000
0010
0000
0100
0001
,
0000
0010
0000
0100
0000
0000
0000
1000
,
0020
0000
0100
0100
0100
0030
0010
0000
,
2000
0000
0001
0001
0001
3000
1000
0000
,
0001
0010
0100
1000
0010
0100
0001
1000
,
0002
0000
2003
0000
,
3001
0000
0010
0000
0100
0000
0001
2000
,
0000
0000
3002
0000
,
1003
0000
0100
0000
0010
0000
1000
0001
,
0200
0000
0320
0000
,
2030
0000
0000
0000
,
3200
0000
0010
0010
,
0302
0000
0000
0000
,
0023
0000
0000
0000
1000
0000
1030
0001
;

//---------------dance-single - Copied from Copied f----------------
#NOTES:
     dance-single:
     Copied from Copied f:
     Easy:
     3:
     0.316,0.427,0.009,0.427,0.000:
0000
0000
0000
0000
,
1000
0000
0100
0000
0010
0000
0000
2000
,
0000
0000
3000
0000
,
0001
0010
0100
0001
,
2000
0000
3002
0000
,
1003
0010
1000
0010
,
0100
0001
0100
0001
,
0010
0000
0000
0001
0000
0000
1000
0000
,
0020
0000
0230
0000
,
0310
1000
0100
0000
,
0010
0001
0100
0000
,
0010
1000
0100
0000
,
0001
1000
0100
0100
,
1000
0001
0010
0000
,
0001
1000
0100
0000
,
1000
0001
0010
0000
,
0001
1000
0100
0100
,
2000
0000
0000
3001
0000
0000
0000
0000
,
0000
0001
0100
0100
,
0002
0000
0000
1003
0000
0000
0000
0000
,
2000
3020
0230
0302
,
1003
1000
0010
0100
,
0001
0001
1000
0010
,
0200
0000
0320
0000
,
1030
0000
0001
1000
,
0002
0000
0000
0013
0000
0000
0000
0000
,
0000
1000
0010
0010
,
2000
0000
0000
3100
0000
0000
0000
0000
,
0020
0032
2003
3020
,
0130
0100
0010
1000
,
0001
0001
0010
0001
,
2000
0000
3002
0000
,
0013
0000
0001
1000
,
1002
0000
0000
0000
1000
0000
0000
0003
,
0200
0000
0000
0000
0010
0000
0010
0300
,
0002
0000
0000
0000
1000
0000
0000
0003
,
2000
0000
0010
3010
,
1000
0000
0000
1000
0000
0000
0001
0000
,
0010
0000
0000
0010
0000
0000
0001
0000
,
1000
0000
0000
0001
0000
0000
0100
0000
,
0020
0000
2030
0000
,
3001
0000
0000
1000
,
0001
0010
0100
0000
,
1000
0010
0100
0000
,
0001
0010
0100
0100
,
0010
0000
0002
0000
0000
1003
0000
0000
,
0010
1000
0100
0000
,
0010
0100
1000
0001
,
2000
0000
3200
0000
,
0320
0000
0031
1000
,
0001
0010
0100
0000
,
1000
0010
0100
0000
,
0010
0100
0001
0001
,
1000
0000
0020
0000
0000
0130
0000
0000
,
0001
0010
0100
0000
,
1000
0010
0100
0001
,
0020
0000
0230
0000
,
2300
0000
3010
0100
,
0002
0000
0010
0000
0100
0003
0000
0000
,
2000
0000
0100
0000
0010
3000
0000
0000
,
0020
0000
0100
0000
1000
0030
0000
0000
,
0200
0000
0001
0000
0010
0300
0001
0000
,
2000
0000
0000
0000
,
3000
0000
0000
0000
,
0020
0000
0000
0000
,
0030
0000
0000
0000
,
1000
0100
0010
2000
,
0000
0000
3000
0000
,
0001
0010
0100
0001
,
2000
0000
3002
0000
,
0023
0000
0000
0000
,
0032
0000
0000
0000
,
2003
0000
0000
0000
,
3020
0000
0000
0000
0000
0000
0030
0010
;

//---------------dance-single - Copied from Copied from Copied f----------------
#NOTES:
     dance-single:
     Copied from Copied from Copied f:
     Beginner:
     1:
     0.155,0.260,0.000,0.196,0.000: // measure 1
0000
0000
0000
0000
,  // measure 2
2000
0000
0000
0000
0000
0000
0000
3000
,  // measure 3
0000
0000
0000
0000
,  // measure 4
0002
0000
0000
0000
,  // measure 5
0003
0000
0000
0000
,  // measure 6
1000
0000
0010
0000
,  // measure 7
0100
0000
0001
0000
,  // measure 8
1000
0000
0001
0000
,  // measure 9
1000
0000
0000
0000
,  // measure 10
0001
0000
0100
0000
,  // measure 11
1000
0000
0100
0000
,  // measure 12
0001
0000
0010
0000
,  // measure 13
1000
0000
0010
0000
,  // measure 14
1000
0000
0100
0000
,  // measure 15
0001
0000
0100
0000
,  // measure 16
1000
0000
0010
0000
,  // measure 17
0001
0000
0010
0000
,  // measure 18
2000
0000
3000
0000
,  // measure 19
0000
0000
0001
0000
,  // measure 20
0002
0000
0003
0000
,  // measure 21
1000
0000
1000
0000
,  // measure 22
0001
0000
0100
0000
,  // measure 23
0010
0000
1000
0000
,  // measure 24
0002
0000
2003
0000
,  // measure 25
3001
0000
1000
1000
,  // measure 26
2000
0000
3000
0000
,  // measure 27
0000
0000
0010
0000
,  // measure 28
0020
0000
0030
0000
,  // measure 29
0100
0000
0100
0000
,  // measure 30
0010
0000
1000
0000
,  // measure 31
0001
0000
0010
0000
,  // measure 32
0002
0000
2003
0000
,  // measure 33
3001
0000
1000
0000
,  // measure 34
0010
0000
0000
0000
,  // measure 35
0100
0000
0000
0000
,  // measure 36
0001
0000
0000
0000
,  // measure 37
1000
0000
0000
0000
,  // measure 38
0010
0000
0000
0000
,  // measure 39
1000
0000
0000
0000
,  // measure 40
0002
0000
0000
0000
,  // measure 41
0000
0000
0000
0000
0000
0000
0000
0003
,  // measure 42
0000
0000
0000
1000
,  // measure 43
0020
0000
0000
0000
,  // measure 44
0000
0000
0000
0030
,  // measure 45
0000
0000
0100
0100
,  // measure 46
0100
0000
0010
0000
,  // measure 47
1000
0000
0001
0000
,  // measure 48
0010
0000
0001
0000
,  // measure 49
2000
0000
3002
0000
,  // measure 50
1003
0000
0010
0010
,  // measure 51
2000
0000
0000
0000
,  // measure 52
0000
0000
0000
3000
,  // measure 53
0000
0000
0001
0000
,  // measure 54
1000
0000
0001
0000
,  // measure 55
0100
0000
0010
0000
,  // measure 56
1000
0000
0001
0000
,  // measure 57
0200
0000
0320
0000
,  // measure 58
1030
0000
0001
0001
,  // measure 59
0002
0000
0000
0000
,  // measure 60
0000
0000
0000
0003
0000
0000
0000
0000
,  // measure 61
0000
1000
1000
0000
,  // measure 62
0001
0000
0100
0000
,  // measure 63
0020
0000
0000
0000
,  // measure 64
0030
0000
0000
0000
,  // measure 65
2000
0000
0000
0000
0000
0000
0000
3000
,  // measure 66
0000
0000
0000
0000
,  // measure 67
0002
0000
0000
0000
,  // measure 68
0003
0000
0000
0000
,  // measure 69
2000
0000
0000
0000
,  // measure 70
3000
0000
0000
0000
,  // measure 71
0010
0000
0000
0000
,  // measure 72
0100
0000
0000
0000
,  // measure 73
0001
0000
0000
0000
,  // measure 74
1000
0000
0000
0000
;
