#TITLE:Desert Hills;
#SUBTITLE:(From MarioKart DS);
#ARTIST:Nintendo;
#TITLETRANSLIT:;
#SUBTITLETRANSLIT:;
#ARTISTTRANSLIT:;
#CREDIT:;
#BANNER:Desert Hills.png;
#BACKGROUND:Desert Hills.jpg;
#LYRICSPATH:;
#CDTITLE:;
#MUSIC:Desert Hills.mp3;
#OFFSET:-0.260;
#SAMPLESTART:61.080;
#SAMPLELENGTH:16.600;
#SELECTABLE:YES;
#BPMS:0.000=130.000;
#STOPS:;
#BGCHANGES:;

//---------------dance-single - ----------------
#NOTES:
     dance-single:
     :
     Beginner:
     1:
     0.084,0.161,0.028,0.000,0.000:
0000
0000
0000
1000
,
0000
0000
0000
0001
,
0000
0000
0000
1000
,
0000
0000
0000
0001
,
0000
0000
0000
0100
,
0000
0000
0000
0010
,
0000
0000
0000
0100
,
0000
0000
0000
0010
,
0000
0000
0000
1000
,
1000
0000
0000
0100
,
0000
0000
0000
0010
,
0000
0000
0000
0001
,
0000
0000
0000
0100
,
0000
0000
0000
0010
,
0000
0000
0000
1000
,
0000
0000
0000
0001
,
0000
0000
0000
1000
,
1000
0000
0000
1000
,
0000
0000
0000
0001
,
0000
0000
0000
0001
,
0000
0000
0000
0100
,
0000
0000
0000
0100
,
0000
0000
0000
0010
,
0000
0000
0000
0010
,
0000
0000
0000
0000
,
1000
1000
0000
1000
,
0000
0000
0000
0000
,
0001
0001
0000
0001
,
0000
0000
0000
0000
,
0100
0100
0000
0100
,
0000
0000
0000
0000
,
0010
0010
0000
0010
,
0000
0000
0000
0110
,
0110
0000
0000
0001
,
0000
0000
0000
1000
,
0000
0000
0000
0001
,
0000
0000
0000
1000
,
0000
0000
0000
0010
,
0000
0000
0000
0100
,
0000
0000
0000
0010
,
0000
0000
0000
0100
,
0000
0000
0000
0001
,
0001
0000
0000
0010
,
0000
0000
0000
0100
,
0000
0000
0000
1000
,
0000
0000
0000
0010
,
0000
0000
0000
0100
,
0000
0000
0000
0001
,
0000
0000
0000
1000
,
0000
0000
0000
0001
,
0001
0000
0000
0001
,
0000
0000
0000
1000
,
0000
0000
0000
1000
,
0000
0000
0000
0010
,
0000
0000
0000
0010
,
0000
0000
0000
0100
,
0000
0000
0000
0100
,
0000
0000
0000
0000
,
0001
0001
0000
0001
,
0000
0000
0000
0000
,
1000
1000
0000
1000
,
0000
0000
0000
0000
,
0010
0010
0000
0010
,
0000
0000
0000
0000
,
0100
0100
0000
0100
,
0000
0000
0000
1001
,
1001
0000
0000
0000
;

//---------------dance-single - Copied from----------------
#NOTES:
     dance-single:
     Copied from:
     Easy:
     3:
     0.259,0.323,0.098,0.000,0.000:
0000
0000
1000
1000
,
0001
0010
0100
1000
,
0010
0100
0001
0000
,
1000
0100
0010
0001
,
0100
0010
1000
0000
,
0010
0100
0001
1000
,
0010
0100
0001
0000
,
0100
0010
1000
0001
,
0100
0010
1001
1001
,
1000
0010
0100
0001
,
0010
0100
1000
0000
,
0001
0100
0010
1000
,
0100
0010
0001
0000
,
1000
0001
0100
0001
,
1000
0010
1000
0000
,
0001
1000
0100
1000
,
0001
0100
0001
1000
,
0001
0001
0100
0010
,
1000
1000
0100
0000
,
1000
1000
0010
0100
,
0001
0001
0010
0001
,
1000
1000
0001
0100
,
0010
0010
1000
0000
,
0010
0010
1000
0001
,
1000
1000
0010
0100
,
0001
0001
0010
0010
,
0001
0100
0010
1000
,
0100
0100
1000
1000
,
0010
0100
0001
1000
,
0010
0010
0100
0100
,
0001
1000
0010
1000
,
1001
1001
0110
0110
,
1000
0001
0100
0010
,
1001
0000
0001
0001
,
1000
0100
0010
0001
,
0100
0010
1000
0000
,
0001
0010
0100
1000
,
0010
0100
0001
0000
,
0100
0010
1000
0001
,
0100
0010
1000
0000
,
0010
0100
0001
1000
,
0010
0100
1001
1001
,
0001
0100
0010
1000
,
0100
0010
0001
0000
,
1000
0010
0100
0001
,
0010
0100
1000
0000
,
0001
1000
0010
1000
,
0001
0100
0001
0000
,
1000
0001
0010
0001
,
1000
0010
1000
0001
,
1000
1000
0010
0100
,
0001
0001
0010
0000
,
0001
0001
0100
0010
,
1000
1000
0100
1000
,
0001
0001
1000
0010
,
0100
0100
0001
0000
,
0100
0100
0001
1000
,
0001
0001
0100
0010
,
1000
1000
0100
0100
,
1000
0010
0100
0001
,
0010
0010
0001
0001
,
0100
0010
1000
0001
,
0100
0100
0010
0010
,
1000
0001
0100
0001
,
1001
1001
0110
0110
,
0001
1000
0010
0100
,
1001
0000
0000
0000
;

//---------------dance-single - Copied from Copied f----------------
#NOTES:
     dance-single:
     Copied from Copied f:
     Medium:
     6:
     0.371,0.392,0.119,0.000,0.000:
1000
0100
0010
0001
0100
0000
1001
0000
,
0001
0010
0001
0000
0100
0000
0010
0000
,
1000
0100
1000
0000
0001
0000
0000
0000
,
0100
0000
0001
0010
0100
1000
0010
0000
,
1000
0100
0010
0001
0100
0000
0000
0000
,
0010
0000
1000
0100
1000
0000
0001
0000
,
0010
0001
0100
0000
0001
0000
0000
0000
,
1000
0000
0001
0010
0001
0000
0100
0000
,
0010
1000
0100
0010
0001
0000
0110
0000
,
0001
0000
1000
0100
1000
0000
0010
0000
,
0100
0001
0100
0000
0001
0000
0000
0000
,
1000
0000
0001
0010
0001
0000
0100
0000
,
0001
0010
0100
1000
0010
0000
0000
0000
,
1000
0000
0001
0010
0001
0000
0100
0000
,
0010
1000
0100
0000
1000
0000
0000
0000
,
0001
0000
1000
0100
1000
0000
0001
0000
,
0100
0010
1000
0001
0100
0000
0110
0000
,
1000
0000
1000
0100
0000
0010
0000
0001
,
0100
0000
0010
1000
0100
0000
1000
0000
,
0001
0000
0010
0001
0100
0000
0001
0000
,
1000
0000
0010
1000
0100
0000
1000
0000
,
0001
0000
0001
0010
0000
0100
0000
1000
,
0010
0000
0100
0001
0010
0000
0001
0000
,
1001
0000
1000
0010
0100
0000
0001
0000
,
0010
0000
0100
1000
0010
0100
0000
0000
,
0001
0010
0100
1000
0010
0100
0001
0000
,
1000
0100
0010
0001
0100
0000
0110
0000
,
1000
0100
0010
0001
0100
0010
1000
0000
,
0001
0010
0100
1000
0010
0000
1001
0000
,
0010
0100
0001
1000
0100
0010
0001
0000
,
1000
0010
0100
0001
0010
0000
1001
0000
,
1100
1000
0100
0010
0011
0001
0100
0000
,
0010
0000
1000
0000
0001
0100
0010
1000
,
0001
0010
0100
1000
0001
0000
1001
0000
,
1000
0100
1000
0000
0010
0000
0100
0000
,
0001
0010
0001
0000
1000
0000
0000
0000
,
0010
0000
1000
0100
0010
0001
0100
0000
,
0001
0010
0100
1000
0010
0000
0000
0000
,
0100
0000
0001
0010
0001
0000
1000
0000
,
0100
1000
0010
0000
1000
0000
0000
0000
,
0001
0000
1000
0100
1000
0000
0010
0000
,
0100
0001
0010
0100
1000
0000
0010
0000
,
1000
0000
0001
0010
0001
0000
0100
0000
,
0010
1000
0010
0000
1000
0000
0000
0000
,
0001
0000
1000
0100
1000
0000
0010
0000
,
1000
0100
0010
0001
0100
0000
0000
0000
,
0001
0000
1000
0100
1000
0000
0010
0000
,
0100
0001
0010
0000
0001
0000
0000
0000
,
1000
0000
0001
0010
0001
0000
1000
0000
,
0010
0100
0001
1000
0010
0000
0100
0000
,
0001
0000
0001
0010
0000
0100
0000
1000
,
0010
0000
0100
0001
0010
0000
0001
0000
,
1000
0000
0100
1000
0010
0000
1000
0000
,
0001
0000
0100
0001
0010
0000
0001
0000
,
1000
0000
1000
0100
0000
0010
0000
0001
,
0100
0000
0010
1000
0100
0000
1000
0000
,
1001
0000
0001
0100
0010
0000
1000
0000
,
0100
0000
0010
0001
0100
0010
0000
0000
,
1000
0100
0010
0001
0100
0010
1000
0000
,
0001
0010
0100
1000
0010
0000
0110
0000
,
0001
0010
0100
1000
0010
0100
0001
0000
,
1000
0100
0010
0001
0100
0000
1001
0000
,
0100
0010
1000
0001
0010
0100
1000
0000
,
0001
0100
0010
1000
0100
0000
1001
0000
,
0011
0001
0010
0100
1100
1000
0010
0000
,
0100
0000
0001
0000
1000
0010
0100
0001
,
1001
0000
0000
0000
;

//---------------dance-single - Copied from Copied f----------------
#NOTES:
     dance-single:
     Copied from Copied f:
     Hard:
     9:
     0.611,0.575,0.237,0.000,0.552:
1000
0100
1000
0100
1000
0000
0010
0000
0100
0000
0000
0000
0110
0000
0000
0000
,
0001
0010
0001
0000
1000
0000
0100
0000
1000
0000
0010
0100
0010
0000
1000
0000
,
0001
0000
0010
0000
0100
1000
0100
0000
1000
0000
0000
0000
0000
0000
0000
0000
,
0001
1000
0000
0000
0100
0000
0010
0000
0001
0000
0100
0010
0100
0000
0010
0000
,
1000
0100
1000
0000
0001
0010
0001
0000
1000
0100
1000
0100
0010
0001
0100
0000
,
0001
0010
0001
0000
0100
0000
0010
0000
1000
0000
0100
0010
0100
0000
0000
0000
,
0010
0000
0001
0000
0100
0010
0100
0000
0010
0000
0000
0000
0000
0000
0000
0000
,
1000
0100
1000
0000
0100
0000
0010
0000
0001
0000
0010
0001
0010
0000
0001
0000
,
1000
0000
0001
0010
0100
1000
0010
0100
0001
0000
0000
0000
1001
0000
0000
0000
,
1000
0010
0100
0000
0001
0000
0010
0000
0001
0000
0100
0010
1000
0000
0001
0000
,
0010
0000
0100
0000
1000
0010
0100
0000
0001
0000
0000
0000
0000
0000
0000
0000
,
0001
0100
0010
0000
1000
0000
0100
0000
0010
0000
0100
1000
0010
0000
0000
0000
,
1000
0100
1000
0000
0010
0001
0010
0000
0001
0010
0001
0010
0100
1000
0010
0000
,
0100
0001
0100
0000
0001
0000
1000
0000
0100
0000
0010
0001
0100
0000
0001
0000
,
1000
0000
0100
0000
1000
0010
0100
0000
0110
0000
0000
0000
0000
0000
0000
0000
,
0001
0100
0010
0000
1000
0000
0100
0000
1000
0000
0010
0100
0001
0000
1000
0000
,
0100
0000
1000
0010
0100
0001
0010
0100
1000
0000
0000
0000
1001
0000
0000
0000
,
0000
0000
0001
0000
0000
0000
0100
0010
1000
0000
0000
0100
0000
0000
0010
0000
,
0011
0000
0000
0001
0000
0000
0100
0000
0110
0000
0000
0000
0000
0000
0000
0000
,
1000
0000
0000
0000
0100
0000
0010
0000
0001
0000
0100
0010
1000
0000
0001
0000
,
0100
0000
0000
0000
0001
0000
1000
0000
0010
0100
0001
1000
0100
0010
0001
0100
,
0010
0000
1000
0000
0000
0000
0010
0100
0001
0000
0000
0010
0000
0000
0100
0000
,
1100
0000
0000
1000
0000
0000
0010
0000
0110
0000
0000
0000
0000
0000
0000
0000
,
1000
0000
0000
0000
0001
0000
0010
0000
0100
0000
1000
0010
0100
0000
0001
0000
,
0010
0000
0100
0000
0010
0001
0100
0000
0010
0000
1001
0000
0000
0000
0000
0000
,
1000
0100
0010
0100
1000
0000
0001
0010
0100
1000
0100
0010
0001
0000
0000
0000
,
1000
0010
0100
0001
0010
0000
0100
0000
1100
0000
0000
0000
1001
0000
0000
0000
,
0001
0010
0100
0010
0001
0000
1000
0100
0010
0001
0010
0100
1000
0000
0000
0000
,
0001
0100
0010
1000
0100
0000
0010
0000
0011
0000
0000
0000
1001
0000
0000
0000
,
0001
0100
1000
0100
0001
0000
1000
0100
0001
0100
1000
0010
0100
0000
0000
0000
,
0001
0010
1000
0010
0001
0000
0100
0000
0110
0000
0000
0000
1001
0000
0000
0000
,
1100
1000
0010
0100
0001
0000
0001
0010
0110
0100
1000
0010
0100
0000
0000
0000
,
0001
0000
0000
0000
0100
0000
0001
0000
0010
0100
1000
0010
0100
0000
0001
0000
,
0001
0010
0001
0010
0001
0000
0100
0000
0010
0000
0000
0000
0110
0000
0000
0000
,
1000
0100
1000
0000
0001
0000
0010
0000
0001
0000
0100
0010
0100
0000
0001
0000
,
1000
0000
0100
0000
0010
0001
0010
0000
0001
0000
0000
0000
0000
0000
0000
0000
,
1000
0001
0000
0000
0010
0000
0100
0000
1000
0000
0010
0100
0010
0000
0100
0000
,
0001
0010
0001
0000
1000
0100
1000
0000
0001
0010
0001
0010
0100
1000
0010
0000
,
1000
0100
1000
0000
0010
0000
0100
0000
0001
0000
0010
0100
0010
0000
0000
0000
,
0100
0000
1000
0000
0010
0100
0010
0000
0100
0000
0000
0000
0000
0000
0000
0000
,
0001
0010
0001
0000
0010
0000
0100
0000
1000
0000
0100
1000
0100
0000
1000
0000
,
0001
0000
1000
0100
0010
0001
0100
0010
1000
0000
0000
0000
1001
0000
0000
0000
,
0001
0100
0010
0000
1000
0000
0100
0000
1000
0000
0010
0100
0001
0000
1000
0000
,
0100
0000
0010
0000
0001
0100
0010
0000
1000
0000
0000
0000
0000
0000
0000
0000
,
1000
0010
0100
0000
0001
0000
0010
0000
0100
0000
0010
0001
0100
0000
0000
0000
,
0001
0010
0001
0000
0100
1000
0100
0000
1000
0100
1000
0100
0010
0001
0100
0000
,
0010
1000
0010
0000
1000
0000
0001
0000
0010
0000
0100
1000
0010
0000
1000
0000
,
0001
0000
0010
0000
0001
0100
0010
0000
0110
0000
0000
0000
0000
0000
0000
0000
,
1000
0010
0100
0000
0001
0000
0010
0000
0001
0000
0100
0010
1000
0000
0001
0000
,
0010
0000
0001
0100
0010
1000
0100
0010
0001
0000
0000
0000
1001
0000
0000
0000
,
0000
0000
1000
0000
0000
0000
0010
0100
0001
0000
0000
0010
0000
0000
0100
0000
,
1100
0000
0000
1000
0000
0000
0010
0000
0110
0000
0000
0000
0000
0000
0000
0000
,
0001
0000
0000
0000
0010
0000
0100
0000
1000
0000
0010
0100
0001
0000
1000
0000
,
0010
0000
0000
0000
1000
0000
0001
0000
0100
0010
1000
0001
0010
0100
1000
0010
,
0100
0000
0001
0000
0000
0000
0100
0010
1000
0000
0000
0100
0000
0000
0010
0000
,
0011
0000
0000
0001
0000
0000
0100
0000
0110
0000
0000
0000
0000
0000
0000
0000
,
0001
0000
0000
0000
1000
0000
0100
0000
0010
0000
0001
0100
0010
0000
1000
0000
,
0100
0000
0010
0000
0100
1000
0010
0000
0100
0000
1001
0000
0000
0000
0000
0000
,
0001
0010
0100
0010
0001
0000
1000
0100
0010
0001
0010
0100
1000
0000
0000
0000
,
0001
0100
0010
1000
0100
0000
0010
0000
0011
0000
0000
0000
1001
0000
0000
0000
,
1000
0100
0010
0100
1000
0000
0001
0010
0100
1000
0100
0010
0001
0000
0000
0000
,
1000
0010
0100
0001
0010
0000
0100
0000
1100
0000
0000
0000
1001
0000
0000
0000
,
1000
0010
0001
0010
1000
0000
0001
0010
1000
0010
0001
0100
0010
0000
0000
0000
,
1000
0100
0001
0100
1000
0000
0010
0000
0110
0000
0000
0000
1001
0000
0000
0000
,
0011
0001
0100
0010
1000
0000
1000
0100
0110
0010
0001
0100
0010
0000
0000
0000
,
1000
0000
0000
0000
0010
0000
0100
0000
0001
0010
0100
1000
0010
0000
1000
0000
;

//---------------dance-single - Copied from Copied f----------------
#NOTES:
     dance-single:
     Copied from Copied f:
     Challenge:
     10:
     0.774,0.715,0.189,0.000,0.915: // measure 1
0001
0000
0010
0000
0100
0000
1000
0000
0010
0000
0000
0000
0100
0000
0000
0000
0001
1000
0000
0000
0000
0000
0000
0000
0100
0010
0000
0000
0000
0000
0000
0000
,  // measure 2
1000
0000
0100
0000
1000
0000
0100
0000
0000
0000
0000
0000
0010
0000
0000
0000
0000
0000
0001
0000
0000
0000
0000
0000
0100
0000
0000
0000
0000
0000
0010
0000
0000
1000
0000
0000
0100
0000
0000
0000
0000
0000
0010
0000
0000
0000
0000
0000
,  // measure 3
0001
0000
0000
0000
0000
0000
0100
0000
0000
0000
0000
0000
0010
0000
1000
0000
0010
0000
1000
0000
0000
0000
0000
0000
0001
0000
0000
0000
0000
0000
0010
0000
0000
0001
0000
0000
0100
0000
0000
0000
0000
0000
0001
0000
0000
0000
0000
0000
,  // measure 4
1000
0001
0000
0000
0000
0000
0000
0000
0100
0000
0000
0000
0001
0000
0000
0000
0010
0000
0000
0000
0100
0000
1000
0000
0010
0000
0000
0000
0100
0000
0000
0000
,  // measure 5
0001
0010
0001
0010
0000
0000
0100
1000
0100
1000
0000
0000
0001
0100
0001
0100
0010
1000
0010
1000
0001
0100
0000
0000
,  // measure 6
0001
0000
1000
0000
0100
0000
1000
0000
0000
0000
0000
0000
0010
0000
0000
0000
0000
0000
0100
0000
0000
0000
0000
0000
0001
0000
0000
0000
0000
0000
0010
0000
0000
0001
0000
0000
0100
0000
0000
0000
0000
0000
0010
0000
0000
0000
0000
0000
,  // measure 7
1000
0000
0000
0000
0000
0000
0100
0000
0000
0000
0000
0000
1000
0000
0010
0000
0100
0000
0010
0000
0000
0000
0000
0000
0100
0000
0000
0000
0000
0000
0010
0000
0000
0100
0000
0000
0001
0000
0000
0000
0000
0000
1000
0000
0000
0000
0000
0000
,  // measure 8
0001
0000
0010
0000
0001
0000
1000
0000
0000
0000
0000
0000
0100
0000
0000
0000
0000
0000
0010
0000
0000
0000
0000
0000
0001
0000
0000
0000
0000
0000
0100
0000
0000
0010
0000
0000
1000
0000
0000
0000
0000
0000
0001
0000
0000
0000
0000
0000
,  // measure 9
0010
0000
0000
0000
0001
0000
0100
0000
0010
0000
1000
0000
0100
0000
0010
0000
0001
0100
0000
0000
0000
0000
0000
0000
0100
0010
0000
0000
0000
0000
0000
0000
,  // measure 10
1000
0000
0001
0000
0010
0000
0001
0000
0000
0000
0000
0000
0100
0000
0000
0000
0000
0000
0001
0000
0000
0000
0000
0000
0010
0000
0000
0000
0000
0000
0100
0000
0000
1000
0000
0000
0010
0000
0000
0000
0000
0000
0100
0000
0000
0000
0000
0000
,  // measure 11
0001
0000
0000
0000
0000
0000
1000
0000
0000
0000
0000
0000
0010
0000
0100
0000
0001
0000
0100
0000
0000
0000
0000
0000
0001
0000
0000
0000
0000
0000
1000
0000
0000
0010
0000
0000
0100
0000
0000
0000
0000
0000
0001
0000
0000
0000
0000
0000
,  // measure 12
0100
0000
0010
0000
1000
0000
0100
0000
0000
0000
0000
0000
0010
0000
0000
0000
0000
0000
0001
0000
0000
0000
0000
0000
0100
0000
0000
0000
0000
0000
0010
0000
0000
1000
0000
0000
0100
0000
0000
0000
0000
0000
0010
0000
0000
0000
0000
0000
,  // measure 13
0001
0100
0001
0100
0000
0000
0010
1000
0010
1000
0000
0000
0001
0100
0001
0100
0010
1000
0010
1000
0001
0100
0000
0000
,  // measure 14
0001
0100
0010
1000
0000
0000
0100
0000
0000
0010
0000
0000
0001
0000
0000
1000
0010
0100
0001
0000
0000
0010
0000
0000
,  // measure 15
0100
0000
1000
0000
0010
0100
0001
0000
1000
0000
0100
1000
0010
0000
0100
0000
,  // measure 16
0010
0000
1000
0000
0001
0000
0100
0000
0000
0000
0000
0000
0010
0000
0000
0000
0000
0000
1000
0000
0000
0000
0000
0000
0100
0000
0000
0000
0000
0000
0010
0000
0000
0001
0000
0000
0100
0000
0000
0000
0000
0000
0001
0000
0000
0000
0000
0000
,  // measure 17
0010
0000
0000
0000
0001
0000
0100
0000
0010
0000
1000
0000
0100
0000
0010
0000
0001
0100
0000
0000
0000
0000
0000
0000
1000
0010
0000
0000
0000
0000
0000
0000
,  // measure 18
1000
0000
0001
0010
0000
0100
1000
0010
0100
0000
0001
0010
0000
0100
1000
0001
,  // measure 19
0100
0000
0010
1000
0000
0100
0010
0000
1000
0000
0001
0100
0010
0000
0110
0000
,  // measure 20
1001
0000
1000
0010
0100
0000
0001
0000
0010
0100
1000
0010
0100
0000
0001
0000
,  // measure 21
1001
0000
1000
0001
0100
0000
0001
0000
1000
0010
0100
0001
0010
0100
1000
0010
,  // measure 22
0100
0000
0001
1000
0100
0000
0010
0001
0100
0000
0001
0010
0000
0100
1000
0000
,  // measure 23
0110
0000
1000
0010
0100
0000
0001
0010
0100
0000
0010
0000
0001
0000
0100
0000
,  // measure 24
0110
0000
0000
1000
0000
0000
0010
0000
0000
0100
0000
0000
0001
0000
0000
1000
0010
0100
0001
0000
0000
0100
0000
0000
,  // measure 25
0010
0000
1000
0000
0001
0100
0010
0000
0000
0000
0110
0000
0000
0000
0000
0000
,  // measure 26
1000
0100
0010
0001
0100
0000
0010
1000
0100
0001
0100
1000
0010
0000
0000
0000
,  // measure 27
0100
0000
0000
0001
0000
0000
0010
0000
0000
0100
0000
0000
1000
0000
0000
0000
0000
0000
0010
0000
0000
0000
0000
0000
0100
0000
0010
0000
0100
0000
0001
0000
0000
0000
0000
0000
1000
0000
0000
0000
0000
0000
0000
0000
0000
0000
0000
0000
,  // measure 28
0001
0010
0100
1000
0010
0000
0100
0001
0010
1000
0010
0001
0100
0000
0000
0000
,  // measure 29
0010
0000
0000
1000
0000
0000
0100
0000
0000
0010
0000
0000
0001
0000
0000
0000
0000
0000
0100
0000
0000
0000
0000
0000
0010
0000
1000
0000
0010
0000
0100
0000
0000
0000
0000
0000
0001
0000
0000
0000
0000
0000
0000
0000
0000
0000
0000
0000
,  // measure 30
1010
0010
0100
0001
1000
0000
0001
0100
0101
0001
1000
0010
0100
0000
0000
0000
,  // measure 31
0010
0000
0000
1000
0000
0000
0100
0000
0000
0010
0000
0000
0001
0000
0000
0000
0000
0000
0100
0000
0000
0000
0000
0000
0010
0000
1000
0000
0001
0000
1000
0000
0000
0000
0000
0000
0001
0000
0000
0000
0000
0000
0000
0000
0000
0000
0000
0000
,  // measure 32
1100
1000
0010
0100
0101
0000
0001
0100
0101
0001
1000
0100
1100
0000
0000
0000
,  // measure 33
1001
0000
0010
0100
0001
0000
0010
0100
1000
0000
0010
0100
0001
0010
0100
0000
,  // measure 34
1000
0000
0100
0000
0010
0000
0001
0000
0100
0000
0000
0000
0010
0000
0000
0000
1000
0001
0000
0000
0000
0000
0000
0000
0010
0100
0000
0000
0000
0000
0000
0000
,  // measure 35
0001
0000
0010
0000
0001
0000
0010
0000
0000
0000
0000
0000
0100
0000
0000
0000
0000
0000
1000
0000
0000
0000
0000
0000
0010
0000
0000
0000
0000
0000
0100
0000
0000
0001
0000
0000
0010
0000
0000
0000
0000
0000
0100
0000
0000
0000
0000
0000
,  // measure 36
1000
0000
0000
0000
0000
0000
0010
0000
0000
0000
0000
0000
0100
0000
0001
0000
0100
0000
0001
0000
0000
0000
0000
0000
1000
0000
0000
0000
0000
0000
0100
0000
0000
1000
0000
0000
0010
0000
0000
0000
0000
0000
1000
0000
0000
0000
0000
0000
,  // measure 37
0001
1000
0000
0000
0000
0000
0000
0000
0010
0000
0000
0000
1000
0000
0000
0000
0100
0000
0000
0000
0010
0000
0001
0000
0100
0000
0000
0000
0010
0000
0000
0000
,  // measure 38
1000
0100
1000
0100
0000
0000
0010
0001
0010
0001
0000
0000
1000
0010
1000
0010
0100
0001
0100
0001
1000
0010
0000
0000
,  // measure 39
1000
0000
0001
0000
0010
0000
0001
0000
0000
0000
0000
0000
0100
0000
0000
0000
0000
0000
0010
0000
0000
0000
0000
0000
1000
0000
0000
0000
0000
0000
0100
0000
0000
1000
0000
0000
0010
0000
0000
0000
0000
0000
0100
0000
0000
0000
0000
0000
,  // measure 40
0001
0000
0000
0000
0000
0000
0010
0000
0000
0000
0000
0000
0001
0000
0100
0000
0010
0000
0100
0000
0000
0000
0000
0000
0010
0000
0000
0000
0000
0000
0100
0000
0000
0010
0000
0000
1000
0000
0000
0000
0000
0000
0001
0000
0000
0000
0000
0000
,  // measure 41
1000
0000
0100
0000
1000
0000
0001
0000
0000
0000
0000
0000
0010
0000
0000
0000
0000
0000
0100
0000
0000
0000
0000
0000
1000
0000
0000
0000
0000
0000
0010
0000
0000
0100
0000
0000
0001
0000
0000
0000
0000
0000
1000
0000
0000
0000
0000
0000
,  // measure 42
0100
0000
0000
0000
1000
0000
0010
0000
0100
0000
0001
0000
0010
0000
0100
0000
1000
0010
0000
0000
0000
0000
0000
0000
0010
0100
0000
0000
0000
0000
0000
0000
,  // measure 43
0001
0000
1000
0000
0100
0000
1000
0000
0000
0000
0000
0000
0010
0000
0000
0000
0000
0000
1000
0000
0000
0000
0000
0000
0100
0000
0000
0000
0000
0000
0010
0000
0000
0001
0000
0000
0100
0000
0000
0000
0000
0000
0010
0000
0000
0000
0000
0000
,  // measure 44
1000
0000
0000
0000
0000
0000
0001
0000
0000
0000
0000
0000
0100
0000
0010
0000
1000
0000
0010
0000
0000
0000
0000
0000
1000
0000
0000
0000
0000
0000
0001
0000
0000
0100
0000
0000
0010
0000
0000
0000
0000
0000
1000
0000
0000
0000
0000
0000
,  // measure 45
0010
0000
0100
0000
0001
0000
0010
0000
0000
0000
0000
0000
0100
0000
0000
0000
0000
0000
1000
0000
0000
0000
0000
0000
0010
0000
0000
0000
0000
0000
0100
0000
0000
0001
0000
0000
0010
0000
0000
0000
0000
0000
0100
0000
0000
0000
0000
0000
,  // measure 46
1000
0010
1000
0010
0000
0000
0100
0001
0100
0001
0000
0000
1000
0010
1000
0010
0100
0001
0100
0001
1000
0010
0000
0000
,  // measure 47
1000
0010
0100
0001
0000
0000
0010
0000
0000
0100
0000
0000
1000
0000
0000
0001
0100
0010
1000
0000
0000
0100
0000
0000
,  // measure 48
0010
0000
0001
0000
0100
0010
1000
0000
0001
0000
0010
0001
0100
0000
0010
0000
,  // measure 49
0100
0000
0001
0000
1000
0000
0010
0000
0000
0000
0000
0000
0100
0000
0000
0000
0000
0000
0001
0000
0000
0000
0000
0000
0010
0000
0000
0000
0000
0000
0100
0000
0000
1000
0000
0000
0010
0000
0000
0000
0000
0000
1000
0000
0000
0000
0000
0000
,  // measure 50
0100
0000
0000
0000
1000
0000
0010
0000
0100
0000
0001
0000
0010
0000
0100
0000
1000
0010
0000
0000
0000
0000
0000
0000
0001
0100
0000
0000
0000
0000
0000
0000
,  // measure 51
0001
0000
1000
0100
0000
0010
0001
0100
0010
0000
1000
0100
0000
0010
0001
1000
,  // measure 52
0010
0000
0100
0001
0000
0010
0100
0000
0001
0000
1000
0010
0100
0000
0110
0000
,  // measure 53
1001
0000
0001
0100
0010
0000
1000
0000
0100
0010
0001
0100
0010
0000
1000
0000
,  // measure 54
1001
0000
0001
1000
0010
0000
1000
0000
0001
0100
0010
1000
0100
0010
0001
0100
,  // measure 55
0010
0000
1000
0001
0010
0000
0100
1000
0010
0000
1000
0100
0000
0010
0001
0000
,  // measure 56
0110
0000
0001
0100
0010
0000
1000
0100
0010
0000
0100
0000
1000
0000
0010
0000
,  // measure 57
0110
0000
0000
0001
0000
0000
0100
0000
0000
0010
0000
0000
1000
0000
0000
0001
0100
0010
1000
0000
0000
0010
0000
0000
,  // measure 58
0100
0000
0001
0000
1000
0010
0100
0000
0000
0000
0110
0000
0000
0000
0000
0000
,  // measure 59
0001
0010
0100
1000
0010
0000
0100
0001
0010
1000
0010
0001
0100
0000
0000
0000
,  // measure 60
0010
0000
0000
1000
0000
0000
0100
0000
0000
0010
0000
0000
0001
0000
0000
0000
0000
0000
0100
0000
0000
0000
0000
0000
0010
0000
0100
0000
0010
0000
1000
0000
0000
0000
0000
0000
0001
0000
0000
0000
0000
0000
0000
0000
0000
0000
0000
0000
,  // measure 61
1000
0100
0010
0001
0100
0000
0010
1000
0100
0001
0100
1000
0010
0000
0000
0000
,  // measure 62
0100
0000
0000
0001
0000
0000
0010
0000
0000
0100
0000
0000
1000
0000
0000
0000
0000
0000
0010
0000
0000
0000
0000
0000
0100
0000
0001
0000
0100
0000
0010
0000
0000
0000
0000
0000
1000
0000
0000
0000
0000
0000
0000
0000
0000
0000
0000
0000
,  // measure 63
0101
0100
0010
1000
0001
0000
1000
0010
1010
1000
0001
0100
0010
0000
0000
0000
,  // measure 64
0100
0000
0000
0001
0000
0000
0010
0000
0000
0100
0000
0000
1000
0000
0000
0000
0000
0000
0010
0000
0000
0000
0000
0000
0100
0000
0001
0000
1000
0000
0001
0000
0000
0000
0000
0000
1000
0000
0000
0000
0000
0000
0000
0000
0000
0000
0000
0000
,  // measure 65
0011
0001
0100
0010
1010
0000
1000
0010
1010
1000
0001
0010
0011
0000
0000
0000
,  // measure 66
1001
0000
0100
0010
1000
0000
0100
0010
0001
0000
0100
0010
1000
0100
0010
0000
,  // measure 67
1001
0000
0000
0000
;
