#TITLE:Star Gate Heaven;
#SUBTITLE:(Full Version);
#ARTIST:System SF feat. Donna Burke;
#TITLETRANSLIT:;
#SUBTITLETRANSLIT:;
#ARTISTTRANSLIT:;
#CREDIT:;
#BANNER:Star Gate Heaven.png;
#BACKGROUND:Star Gate Heaven-bg.png;
#LYRICSPATH:;
#CDTITLE:DanceDanceRevolutionSuperNOVA.png;
#MUSIC:Star Gate Heaven (Extended Mix).mp3;
#OFFSET:-0.460;
#SAMPLESTART:218.800;
#SAMPLELENGTH:13.500;
#SELECTABLE:YES;
#BPMS:0.000=72.500,32.000=145.000,368.063=72.500,382.875=145.000;
#STOPS:368.000=12.480
;
#BGCHANGES:;

//---------------dance-single - ----------------
#NOTES:
     dance-single:
     :
     Beginner:
     2:
     0.174,0.259,0.027,0.162,0.008:
1000
0000
0000
0000
0000
0000
0000
0000
0000
0000
0000
0000
0000
0000
0000
0000
0000
0000
0000
0000
0000
0000
0000
0000
0000
0001
0000
0000
0000
0000
0000
0000
,
0000
0001
0000
0000
0000
0000
0000
0000
0000
0000
0000
0000
0000
0000
0000
0000
1000
0000
0000
0000
0000
0000
0000
0000
1000
0000
0000
0000
0000
0000
0000
0000
,
0001
0000
0000
0000
0000
0000
0000
0000
0000
0000
0000
0000
0000
0000
0000
0000
0000
0100
0000
0000
0000
0000
0000
0000
0000
0000
0000
0000
0000
0000
0000
0000
,
0000
0010
0000
0000
0000
0000
0000
0000
0000
0000
0000
0000
0000
0000
0000
0000
0000
0100
0000
0000
0000
0000
0000
0000
0000
0000
0000
0000
0000
0000
0000
0000
,
0010
0000
0000
1000
,
1000
0000
0001
0001
,
0001
0000
0000
0100
,
0010
0000
1000
0001
,
1000
0000
1000
0000
,
0001
0000
0001
0000
,
1000
0000
1000
0000
,
0001
0000
0001
0000
,
0100
0000
0100
0000
,
0010
0000
0010
0000
,
0100
0000
0100
0000
,
0010
0000
0010
0000
,
1000
0000
0001
0000
,
1000
0000
0001
0000
,
0100
0000
0010
0000
,
0100
0000
0010
0000
,
1000
0000
0000
0000
,
0000
0000
0000
0000
,
0001
0000
0000
0000
,
0000
0000
0000
0000
,
1000
0000
1000
0000
,
0001
0000
0001
0000
,
0100
0000
0100
0000
,
0010
0000
0010
0000
,
1000
0000
0100
0000
,
1000
0000
0100
0000
,
0010
0000
0001
0000
,
0010
0000
0001
0001
,
0001
0000
0100
0000
,
0010
0000
0100
0000
,
0001
0000
1000
0000
,
0001
0000
1000
1000
,
1000
0000
0010
0000
,
0100
0000
0010
0000
,
0100
0000
0001
0000
,
1000
0000
0001
0000
,
1000
1000
1000
0000
,
0001
0001
0001
0000
,
0100
0100
0100
0000
,
0010
0010
0010
0000
,
1000
1000
1000
0000
,
0001
0001
0001
0000
,
0100
0100
0100
0000
,
0010
0010
0010
0010
,
0020
0000
0030
0000
,
2000
0000
3000
0000
,
0002
0000
0003
0000
,
0200
0000
0300
0000
,
0020
0000
0030
0000
,
0020
0000
0030
0000
,
0200
0000
0300
0000
,
0100
0100
0010
0100
,
0110
0000
0000
0000
,
0000
0000
0000
0000
,
1001
0000
0000
0000
,
0001
0001
1000
1000
,
1001
0000
0001
0000
,
1000
0000
0001
0000
,
0100
0000
0010
0000
,
0100
0000
0010
0000
,
1000
0000
0100
0000
,
1000
0000
0100
0000
,
0010
0000
0001
0000
,
0010
0000
0001
0000
,
2000
0000
0001
0000
,
0001
0000
0001
0000
,
3002
0000
0100
0000
,
0100
0000
0100
0000
,
0203
0000
0010
0000
,
0010
0000
0010
0000
,
0320
0000
1000
0000
,
1000
0000
1000
0000
,
1030
0000
1000
0000
,
0001
0000
0001
0001
,
1000
0000
0010
0000
,
0100
0000
0010
0010
,
0100
0000
0010
0000
,
0100
0000
0010
0010
,
1000
0000
0001
0000
,
1000
0000
0001
0001
,
0100
0000
0001
0000
,
0100
0000
0001
0001
,
0010
0000
0100
0000
,
0010
0000
0100
0100
,
1000
0000
0010
0000
,
1000
0000
0010
0010
,
0100
0000
0001
0000
,
1000
0000
0001
0001
,
2000
3000
0000
0000
0000
0000
0000
0000
0000
0000
0000
0000
0000
0000
0000
0000
0001
0000
0000
0000
0000
0000
0000
0000
0000
0000
0000
0000
0000
0000
0000
0000
1000
0000
0000
0000
0000
0000
0000
0000
0000
0000
0000
0000
0000
0000
0000
0000
0001
0000
0000
0000
0000
0000
0000
0000
0000
0000
0000
0000
0000
0000
0000
0000
,
0100
0010
0100
0010
,
1000
0001
0100
0010
,
1000
0100
0010
0001
,
0000
1000
0000
0001
,
0000
0001
0000
1000
,
0000
1000
0000
0010
,
0000
0010
0000
0100
,
0000
0100
0000
0002
,
0000
0103
0000
2000
,
0000
3100
0000
0002
,
0000
0100
0000
1003
,
0000
0000
0000
1000
,
0000
1000
0000
0010
,
0000
0010
0000
0100
,
0000
0100
0000
0001
,
0000
0001
0000
2000
,
0000
3100
0000
0002
,
0000
0103
0000
2000
,
0000
0100
0000
3001
,
0000
0000
0000
0002
,
0000
2003
0000
3002
,
0000
2003
0000
3001
,
0000
0000
0000
1000
,
0000
0000
0000
0020
,
0000
0230
0000
0320
,
0000
0230
0000
0320
,
0000
0000
0000
0130
,
0000
0100
0000
0002
,
0000
0023
0000
0230
,
0000
2300
0000
3010
,
0000
0000
0000
0110
,
0000
0000
0000
2000
,
0000
3200
0000
0320
,
0000
0032
0000
0203
,
0000
0000
0000
0310
,
0000
0110
0000
1000
,
0000
0100
0000
0001
,
0000
0100
0000
1000
,
0000
0000
0000
0001
,
0000
0000
0000
0001
,
0000
0100
0000
1000
,
0000
0100
0000
0001
,
0000
0000
0000
1001
,
0000
0000
0000
1000
,
0000
0010
0000
0001
,
0000
0010
0000
1000
,
0000
0000
0000
0001
,
0000
0000
0000
0001
,
0000
0010
0000
1000
,
0000
0010
0000
0001
,
0000
0000
0000
1001
,
0000
0000
0000
2000
,
0000
3200
0000
0320
,
0000
0032
0000
0203
,
0000
0000
0000
0320
,
0000
0000
0000
0230
,
0000
0302
0000
0023
,
0000
0230
0000
2300
,
0000
0000
0000
3002
,
0000
0000
0000
1003
,
0000
0000
0000
0000
0000
1001
0000
0000
;

//---------------dance-single - Copied from----------------
#NOTES:
     dance-single:
     Copied from:
     Easy:
     4:
     0.344,0.363,0.368,0.290,0.008:
0001
0000
0000
0000
0000
0000
0000
0000
0000
0000
0000
0000
0000
0000
0000
0000
0000
0000
0000
0000
0000
0000
0000
0000
0000
1000
0000
0000
0000
0000
0000
0000
,
0000
1000
0000
0000
0000
0000
0000
0000
0000
0000
0000
0000
0000
0000
0000
0000
0001
0000
0000
0000
0000
0000
0000
0000
0001
0000
0000
0000
0000
0000
0000
0000
,
1000
0000
0000
0000
0000
0000
0000
0000
0000
0000
0000
0000
0000
0000
0000
0000
0000
0010
0000
0000
0000
0000
0000
0000
0000
0000
0000
0000
0000
0000
0000
0000
,
0000
0100
0000
0000
0000
0000
0000
0000
0000
0000
0000
0000
0000
0000
0000
0000
0000
0010
0000
0000
0000
0000
0000
0000
0000
0000
0000
0000
0000
0000
0000
0000
,
0100
0000
0000
0001
,
0001
0000
1000
1000
,
1000
0000
0000
0010
,
0100
0000
0001
1000
,
0001
0001
0001
0001
,
1000
1000
1000
1000
,
0010
0010
0010
0010
,
0100
0100
0100
0100
,
0001
0100
0001
0100
,
0010
1000
0010
1000
,
0100
0010
0100
0010
,
0001
1000
0001
1000
,
0010
0100
0001
1000
,
0100
0010
0001
0100
,
0010
1000
0001
0010
,
0100
1000
0001
0100
,
0001
0001
0001
0001
,
0001
0001
0001
0001
,
1000
1000
1000
1000
,
1000
1000
1000
1000
,
0001
0101
0001
1100
,
1000
1010
1000
0011
,
0001
1010
0001
1100
,
1000
0101
1000
0011
,
0100
0011
0100
1010
,
0010
0101
0010
1100
,
0001
0101
1000
1100
,
1001
0000
0010
0100
,
0010
0110
1000
1001
,
0100
0110
0001
1001
,
0100
1100
0010
0101
,
0001
0011
0100
1010
,
1000
0101
0001
1100
,
0010
1100
0010
0101
,
1000
1100
0100
0101
,
0001
0011
0010
1010
,
1001
0001
0001
0000
,
1001
1000
1000
0000
,
0110
0010
0010
0000
,
0110
0100
0100
0000
,
0011
1000
0100
0000
,
1010
0001
0100
0000
,
0011
1000
0010
0000
,
1010
0001
0100
0001
,
0011
1000
1000
1000
,
0110
0001
0001
0001
,
1001
0100
0100
0100
,
1001
0010
0010
0010
,
1010
0001
0100
0001
,
0101
1000
0010
1000
,
1100
0001
1000
0100
,
0101
1000
0010
0100
,
0210
0000
0000
0000
,
0000
0000
0000
0000
,
0000
0000
0000
0000
,
0320
0000
0100
0000
0100
0000
0100
0030
,
1010
1000
0001
0100
,
0101
0001
1000
0100
,
1100
1000
0010
0100
,
0101
0001
1000
0100
,
1100
1000
0001
0100
,
0101
1000
0010
0100
,
0101
0001
1000
0010
,
1010
1000
0001
0010
,
0011
1010
1000
1010
,
0001
0101
1100
0101
,
0000
1010
1000
0100
,
0101
1100
1000
1010
,
0001
0101
1000
1100
,
1000
1010
0011
1010
,
0000
1000
0001
0101
,
1100
0101
0011
1010
,
2000
3001
0002
1003
,
0010
1000
0100
0010
,
0002
0103
0200
0310
,
1000
0100
0010
0001
,
0200
0310
0020
1030
,
0100
0010
0001
0100
,
0020
1030
0020
0031
,
0010
1000
0100
1000
,
2010
3010
0012
0013
,
0001
0100
0010
1000
,
2100
3100
0102
0103
,
0001
0010
0100
1000
,
0201
0301
2001
3001
,
1000
0010
0100
0001
,
2001
3001
1020
1030
,
0010
1000
0100
0010
,
0002
0003
0000
0000
0000
0000
0000
0000
0000
0000
0000
0000
0000
0000
0000
0000
0010
0000
0000
0000
0000
0000
0000
0000
0000
0000
0000
0000
0000
0000
0000
0000
0100
0000
0000
0000
0000
0000
0000
0000
0000
0000
0000
0000
0000
0000
0000
0000
1000
0000
0000
0000
0000
0000
0000
0000
0000
0000
0000
0000
0000
0000
0000
0000
,
0010
0100
0001
1000
,
0100
0010
0001
0100
,
0010
1000
0001
1001
,
0000
0000
0000
2000
,
0000
3002
0000
2003
,
0000
3010
0100
0002
,
0000
0023
0000
0230
,
0000
1300
0010
0200
,
0000
0320
0000
0230
,
0000
0301
0010
0200
,
0000
2300
0000
3200
,
0000
0300
0000
0020
,
0000
0032
0000
0023
,
0000
0130
1000
0020
,
0000
0230
0000
0320
,
0000
1030
0100
0020
,
0000
0032
0000
0023
,
0000
0130
1000
0020
,
0000
0230
0000
0320
,
0000
0030
0000
2000
,
0000
3200
0000
0320
,
0000
0032
0000
1003
,
0100
1100
0000
0001
,
0100
0110
0010
2000
,
0000
3020
0000
0230
,
0000
0302
0000
0013
,
0100
0110
0000
0010
,
0001
1001
1100
0002
,
0000
0023
0000
0230
,
0000
2300
0000
3010
,
1000
1100
0000
0001
,
0010
0011
1000
0200
,
0000
0320
0000
0032
,
0000
0203
0000
0310
,
1000
1010
0000
0001
,
0010
0011
1000
0200
,
0310
0020
0031
0002
,
0103
0200
0310
1000
,
0001
1001
0000
0010
,
0100
0110
0010
2000
,
3100
0200
1300
2000
,
3010
0020
0130
0001
,
1000
1001
0000
0010
,
0100
0110
1001
0002
,
0103
2000
3100
0002
,
0103
2000
3100
0020
,
0031
0101
0000
0020
,
1030
1010
1001
0002
,
0013
2000
3010
0002
,
0013
2000
3010
0002
,
0103
0101
1000
1001
,
0000
0000
0000
2000
,
0000
3200
0000
0320
,
0000
0032
0000
0103
,
0010
0110
0000
1000
,
0001
1001
1000
0020
,
0100
0230
0000
0302
,
0010
0023
0130
1000
,
0010
1010
0000
1000
,
0001
0011
0011
1000
,
0010
0000
0100
0000
0001
1000
0000
0000
;

//---------------dance-single - Copied from Copied f----------------
#NOTES:
     dance-single:
     Copied from Copied f:
     Medium:
     6:
     0.400,0.466,0.287,0.179,0.062:
0020
0000
0000
0000
0000
0000
0000
0000
0000
0000
0000
0000
0000
0000
0000
0000
0000
0000
0000
0000
0000
0000
0000
0000
0000
0130
0000
0000
0000
0000
0000
0000
,
0000
0002
0000
0000
0000
0000
0000
0000
0000
0000
0000
0000
0000
0000
0000
0000
1003
0000
0000
0000
0000
0000
0000
0000
0010
0000
0000
0000
0000
0000
0000
0000
,
0200
0000
0000
0000
0000
0000
0000
0000
0000
0000
0000
0000
0000
0000
0000
0000
0000
0320
0000
0000
0000
0000
0000
0000
0000
0000
0000
0000
0000
0000
0000
0000
,
0000
0032
0000
0000
0000
0000
0000
0000
0000
0000
0000
0000
0000
0000
0000
0000
0000
0203
0000
0000
0000
0000
0000
0000
0000
0000
0000
0000
0000
0000
0000
0000
,
0320
0000
0000
1030
,
0200
0000
0310
0001
,
0200
0000
0000
0310
,
2000
0000
3001
0100
,
0010
0100
0010
0100
,
0001
0010
0001
0010
,
0100
0010
0100
0010
,
1000
0010
1000
0010
,
0001
0100
0001
0100
,
0010
0100
0010
0100
,
1000
0100
1000
0100
,
1000
0010
0100
0001
,
0010
0100
1000
0010
,
0100
0001
1000
0100
,
0010
0001
0100
0010
,
1000
0001
0010
1000
,
0100
0100
0100
0100
,
0100
0000
0000
0000
0100
0000
0000
0000
0100
0000
0000
0000
0100
0000
0000
0001
,
0010
0010
0010
0010
,
0010
0010
0010
0010
,
1000
1100
0010
0101
,
0010
0011
0100
1010
,
0100
1100
0100
0101
,
0010
0011
0010
1010
,
1000
1001
0010
0011
,
0001
1001
0100
1100
,
0010
1100
0010
0101
,
0001
1000
0100
0000
1000
0000
0010
0100
,
0001
0010
0001
0000
1000
0010
1000
0000
,
0001
0100
0001
0000
1000
0100
1000
0000
,
0010
0100
0001
0000
0010
0100
1000
0000
,
0010
0100
0001
0000
1000
0100
0010
0000
,
0001
0000
0100
0000
0010
1000
1010
0000
,
1000
0000
0100
0000
0010
0001
0101
0000
,
0001
0000
0100
0000
0010
1000
1100
0000
,
1001
0000
0000
0000
0001
0010
0100
1000
,
0010
0000
0000
0000
0010
0000
0000
0010
0000
0000
0000
0000
0000
0000
0001
0000
,
0100
0000
0000
0000
0100
0000
0000
0100
0000
0100
0000
0000
0000
0000
0100
0000
,
0001
0000
0000
0000
0001
0000
0000
0001
0000
0000
0000
0000
0000
0000
0001
0000
,
1000
0000
0000
0000
1000
0000
0000
0000
0000
1000
0000
1000
0000
1000
0000
0000
,
0001
0000
0000
0000
0100
0000
0000
0010
0000
0000
0000
0000
0000
0000
1000
0000
,
0010
0000
0000
0000
0100
0000
0000
0001
0000
0001
0000
0000
0000
0000
0010
0000
,
0001
0000
0000
0000
0100
0000
0000
0010
0000
0000
0000
0000
0000
0000
1000
0000
,
0100
0000
0000
0000
0010
0000
0000
0000
0000
0001
0000
0100
0000
0001
0000
0000
,
1001
0000
1000
0000
0010
0100
0001
0000
,
0110
0000
1000
0000
0001
0100
0010
0000
,
1010
0000
1000
0000
0010
0100
0001
0000
,
0101
0000
0001
0000
0100
0010
1000
0000
,
1100
0000
0100
0000
0010
0001
0100
0000
,
0101
0000
0100
0000
0010
1000
0100
0000
,
0011
0000
0010
0000
0100
1000
0010
0000
,
1010
0000
0010
0000
0100
0010
1000
0100
,
0010
0000
0000
0010
0000
0010
0000
0010
0000
0010
0000
0000
0010
0000
0000
0000
,
0010
0000
0000
0010
0000
0010
0000
0010
0000
0010
0000
0000
0010
0000
0000
0000
,
0010
0000
0010
0000
0000
0010
0000
0010
0000
0010
0000
0000
0010
0000
0000
0000
,
0010
0100
0001
1000
0100
0010
0001
0100
,
0010
0000
0110
0000
1000
0001
0100
0000
,
0001
0000
1001
0000
1000
0010
0100
0000
,
0001
0000
0101
0000
1000
0010
0100
0000
,
0010
0000
1010
0000
1000
0010
0100
0000
,
0001
0010
0100
0000
1000
0000
1100
0000
,
0010
0001
0100
0000
0001
0000
0011
0000
,
0100
1000
0010
0000
0100
0000
0101
0000
,
0010
1000
0100
0000
1000
0000
1100
0000
,
1000
0010
0100
0000
0001
0100
0010
0000
,
1000
0100
0010
0000
0001
0100
0010
0100
,
0000
0010
1000
0000
0010
0100
0001
0000
,
1000
0100
0010
0001
0100
0001
0100
0000
,
0001
0100
0010
0000
1000
0100
0010
0000
,
0001
0100
0010
0000
0100
0001
0010
0100
,
0000
1000
0010
0000
0100
0001
0010
0000
,
0001
0010
0100
1000
0010
1000
0010
1000
,
0100
0110
0010
0011
,
0001
0000
0101
0000
0100
0000
0110
0010
,
1000
1100
0100
0110
,
0010
0000
0011
0000
0001
0000
0101
0100
,
0001
0011
0010
1010
,
1000
0000
1100
0000
0100
0000
0101
0001
,
1000
1100
0001
0101
,
0100
0110
0001
1001
,
1000
1010
0010
0011
,
0001
0000
0101
0000
0100
0000
1100
1000
,
0001
0011
0010
1010
,
1000
0000
1100
0000
0100
0000
0101
0001
,
0010
0011
0001
0101
,
0100
0000
1100
0000
1000
0000
1010
0010
,
1000
1100
0001
0110
,
1001
0000
0000
0000
,
0002
0003
0000
0000
0000
0000
0000
0000
0000
0000
0000
0000
0000
0000
0000
0000
2000
0000
0000
0000
0000
0000
0000
0000
0000
0000
0000
0000
0000
0000
0000
0000
3010
0000
0000
0000
0000
0000
0000
0000
0100
0000
0000
0000
0000
0000
0000
0000
0002
0000
0000
0000
0000
0000
0000
0000
0000
0000
0000
0000
0000
0000
0000
0000
,
0013
0100
2000
0000
3010
0100
0001
0010
,
0100
1000
0020
0000
0230
0000
0301
0010
,
0100
1000
0020
0130
2000
3001
1001
0000
,
0000
0000
0000
0002
,
0013
0001
0200
0000
0310
1000
0200
0000
,
0310
0001
0100
0000
0010
0000
0110
0000
,
0000
0000
1000
0000
0001
0000
0010
0100
,
1000
0000
0010
0100
0001
1000
0200
0000
,
0310
0000
0001
0010
0100
0000
2000
0000
,
3010
0000
0100
0001
0010
0000
0200
0000
,
1300
0020
0130
1001
,
0000
0000
0000
0002
,
0103
0000
0010
1000
0100
0000
0020
0000
,
0031
0000
0100
0010
1000
0000
0110
0000
,
0000
0000
0001
0000
1000
0000
0010
0100
,
0001
0000
1000
0010
0100
0001
0020
0000
,
0130
0000
1000
0010
0100
0000
0002
0000
,
0013
0000
0100
1000
0010
0000
0200
0000
,
0301
0020
0130
0110
,
0000
0000
0000
2000
,
0100
3200
0010
0320
,
0001
0000
0000
0000
0032
0000
0000
0000
0100
0000
0000
0000
0013
0000
0000
0001
,
0000
0000
1000
0000
0000
0000
0000
0000
0000
0000
0001
0000
1000
0000
0000
0100
,
0000
1000
0000
0000
0010
0000
0200
0000
,
0001
0302
0010
0023
,
0100
0000
0230
0000
1000
0000
1300
0010
,
0100
0000
0110
0000
0000
0000
0001
1000
,
0100
0000
0000
0000
0100
0000
0000
0010
0000
0000
0000
0000
0002
0000
0000
0000
,
0100
0203
0010
0320
,
1000
0000
0000
0000
2030
0000
0000
0000
0100
0000
0000
0000
3100
0000
0000
1000
,
0000
0000
0001
0000
0000
0000
0000
0000
0000
0000
0010
0000
0001
0000
0000
1000
,
0000
0001
0000
0000
0000
0000
0200
0000
,
0001
0302
0010
0023
,
0100
0000
0230
0000
1000
0000
1300
0010
,
0100
0000
0110
0000
0000
0000
0010
0100
,
0010
0000
0000
0000
1000
0000
0000
0001
0000
0000
0000
0000
0010
0000
0001
0000
,
0200
0000
0010
0000
1300
0000
0010
1000
,
0200
0000
1000
0000
0310
0000
0010
0001
,
0100
0000
0020
0000
1030
0000
1000
0100
,
0020
0000
0031
0000
0100
0000
0010
0001
,
0200
0000
1000
0000
0310
0000
0100
0001
,
0020
0000
1000
0000
0130
0000
0010
0001
,
0100
0000
0010
1000
0100
0000
1001
0000
,
0000
0000
0000
0001
,
0011
0010
1010
1000
,
1100
0000
0100
0000
0101
0000
0001
1000
,
0100
0000
1100
0000
0100
0000
1000
0010
,
0100
0101
0001
0011
,
0001
0101
0100
1100
,
1000
0000
1010
0000
0011
0000
0001
1000
,
0100
1000
0010
0110
,
0000
0000
0000
0010
,
1000
0010
1000
0100
,
0001
0100
0001
0010
,
0001
0010
0001
0100
,
1000
0100
1000
0010
,
0100
0001
0010
1000
,
0010
0001
0100
1000
,
0100
0001
0010
0100
,
1000
0010
0100
0001
,
1000
0000
0010
0100
0001
1000
0000
0000
;

//---------------dance-single - Copied from Copied from Copied f----------------
#NOTES:
     dance-single:
     Copied from Copied from Copied f:
     Hard:
     9:
     0.590,0.622,0.148,0.175,0.707: // measure 1
0200
0000
0000
0000
0000
0000
0000
0000
0000
0000
0000
0000
0000
0000
0000
0000
0000
0000
0000
0000
0000
0000
0000
0000
0000
0310
0000
0000
0000
0000
0000
0000
,  // measure 2
0000
2000
0000
0000
0000
0000
0000
0000
0000
0000
0000
0000
0000
0000
0000
0000
3001
0000
0000
0000
0000
0000
0000
0000
0100
0000
0000
0000
0000
0000
0000
0000
,  // measure 3
0020
0000
0000
0000
0000
0000
0000
0000
0000
0000
0000
0000
0000
0000
0000
0000
0000
0230
0000
0000
0000
0000
0000
0000
0000
0000
0000
0000
0000
0000
0000
0000
,  // measure 4
0000
2300
0000
0000
0000
0000
0000
0000
0000
0000
0000
0000
0000
0000
0000
0000
0000
3020
0000
0000
0000
0000
0000
0000
0000
0000
0000
0000
0000
0000
0000
0000
,  // measure 5
0230
0000
0000
0301
,  // measure 6
0020
0000
0130
1000
,  // measure 7
0020
0000
0000
0130
,  // measure 8
0002
0000
1003
0010
,  // measure 9
0100
0010
0100
0000
0100
0010
0100
0000
,  // measure 10
0001
1000
0001
0100
0010
1000
0001
0000
,  // measure 11
1000
0100
1000
0000
1000
0100
1000
0000
,  // measure 12
1000
0010
0100
0001
0010
0100
1000
0000
,  // measure 13
0001
0010
0001
0000
0001
0010
0001
0000
,  // measure 14
0100
0010
1000
0001
0010
0100
1000
0000
,  // measure 15
0010
0100
0010
0000
0010
0100
0010
0000
,  // measure 16
0100
0010
1000
0100
0010
0001
0100
0000
,  // measure 17
0001
1000
0100
0000
0001
1000
0100
0000
,  // measure 18
1000
0010
0100
0001
0010
0100
1000
0000
,  // measure 19
0010
1000
0001
0000
0010
1000
0001
0000
,  // measure 20
0100
0001
0010
0100
1000
0010
0100
0001
,  // measure 21
1000
0001
1000
0001
,  // measure 22
1000
0000
0000
0000
0001
0000
0000
0000
1000
0000
0000
0000
0001
0000
0000
1000
,  // measure 23
0010
0100
0010
0100
,  // measure 24
0010
0100
0010
0100
,  // measure 25
0010
0000
1000
0001
0000
0000
0100
0000
0010
0000
1000
0001
0000
0000
0100
0000
,  // measure 26
0001
0000
1000
0100
0000
0000
1000
0000
0001
0000
1000
0100
0000
0000
1000
0000
,  // measure 27
0010
0000
0100
0001
0000
0000
0010
0000
0100
0000
1000
0010
0000
0000
0100
0000
,  // measure 28
0001
0000
1000
0100
0000
0000
1000
0000
0001
0000
1000
0010
0000
0000
0100
0000
,  // measure 29
0001
0000
1000
0100
0000
0100
0000
0000
1000
0000
0001
0010
0000
0010
0000
0000
,  // measure 30
0001
0000
1000
0100
0000
0010
0000
0000
0001
0000
0100
0010
0000
1000
0000
0000
,  // measure 31
0001
0000
1000
0100
0000
1000
0000
0000
1000
0000
0001
0010
0000
0001
0000
0000
,  // measure 32
0001
1000
0001
0000
1000
0010
0000
0100
0000
0010
0100
0000
0010
1000
0001
0000
,  // measure 33
1000
0000
0100
0000
1000
0001
0000
0010
0000
0100
1000
0000
0010
1000
0000
0000
,  // measure 34
0001
0000
0100
0000
0001
1000
0000
0100
0000
0010
0001
0000
0100
0001
0000
0000
,  // measure 35
0100
0000
0010
0000
1000
0001
0000
0010
0000
0100
1000
0000
0001
0100
0000
0000
,  // measure 36
0010
0000
1000
0000
0001
0100
0000
0010
0000
1000
0000
0001
0100
0001
0100
0000
,  // measure 37
0010
1000
0001
0000
1000
0001
0000
0100
0000
0010
1000
0000
0001
1000
0000
0000
,  // measure 38
0010
1000
0001
0000
1000
0001
0000
0100
0000
0010
1000
0000
0001
1000
0000
0000
,  // measure 39
0001
0100
0010
0000
1000
0001
0000
0100
0000
0010
0100
0000
0001
1000
0000
0000
,  // measure 40
0010
1000
0100
0000
0010
0100
0000
0010
0000
0001
0100
0000
0010
0100
0000
0010
,  // measure 41
0010
0000
0000
0000
0010
0000
0000
0110
0000
0000
0000
0000
0000
0000
1000
0000
,  // measure 42
0100
0000
0010
0000
0001
0000
0000
0101
0000
0101
0000
0000
0000
0000
0100
0000
,  // measure 43
0001
0000
0000
0000
1000
0000
0000
1001
0000
0000
0000
0000
0000
0000
0001
0000
,  // measure 44
0010
0000
0000
0000
0010
0000
0000
0000
0000
0110
0000
1001
0000
0110
0000
0000
,  // measure 45
1000
0000
0000
0000
0010
0000
0000
0110
0000
0000
0000
0000
0000
0000
0100
0000
,  // measure 46
0001
0000
0010
0000
0100
0000
0000
1100
0000
1001
0000
0000
0000
0000
0010
0000
,  // measure 47
1000
0000
0000
0000
0100
0000
0000
0110
0000
0000
0000
0000
0000
0000
0001
0000
,  // measure 48
0010
0000
0100
0000
1000
0000
0010
0000
0000
1010
0000
1001
0000
0101
0000
0000
,  // measure 49
1000
0001
1000
0000
1000
0000
0000
0000
0010
0000
0000
0000
0100
0000
0001
0000
,  // measure 50
1000
0001
1000
0000
0010
0000
0000
0000
0100
0000
0000
0000
0001
0000
1000
0000
,  // measure 51
0001
1000
0001
0000
0100
0000
0000
0000
0010
0000
0000
0000
1000
0000
0001
0000
,  // measure 52
1000
0001
1000
0000
0010
0000
0000
0000
0100
0000
0000
0000
0001
0000
1000
0000
,  // measure 53
0100
0010
0100
0000
0010
0000
0000
0000
0001
0000
0000
0000
0100
0000
0010
0000
,  // measure 54
0100
0010
0100
0000
0010
0000
0000
0000
0100
0000
0000
0000
0001
0000
1000
0000
,  // measure 55
0010
0100
0010
0000
0100
0000
0000
0000
0001
0000
0000
0000
1000
0000
0010
0000
,  // measure 56
0100
0010
0000
0010
0100
0000
0001
0000
1000
0001
1000
0000
0010
0100
0010
0100
,  // measure 57
0001
0000
0000
0001
0000
0001
0000
0001
0000
0001
0000
0000
0001
0000
0000
0000
,  // measure 58
0001
0000
0000
0001
0000
0001
0000
0001
0000
0001
0001
0000
0001
0000
0000
0000
,  // measure 59
0001
0000
0001
0000
0000
0001
0000
0001
0000
0001
0000
0000
0001
0000
0000
0000
,  // measure 60
0001
0000
0010
0000
0100
0000
1000
0000
0010
0100
0010
0100
0001
1000
0001
1000
,  // measure 61
0100
0000
0100
0010
0000
0000
0001
0000
0100
0000
0100
0010
0000
0000
0010
0000
,  // measure 62
1000
0000
0001
1000
0000
1000
0001
0000
0100
0010
0000
0100
0000
0010
0100
0000
,  // measure 63
0001
0000
0001
1000
0000
0000
1000
0000
0010
0000
0010
0100
0000
0000
0100
0000
,  // measure 64
0001
0010
0000
0001
0000
0010
0001
0000
1000
0010
0000
1000
0000
0010
1000
0000
,  // measure 65
0010
0100
0010
0100
0000
0001
1000
0000
0100
1000
0000
0100
0000
0010
0001
0000
,  // measure 66
1000
0001
0000
1000
0000
0001
1000
0000
0010
0100
0000
0010
0000
0000
0100
0000
,  // measure 67
0010
0000
1000
0100
0000
0000
0010
0000
0001
0000
0100
0010
0000
0000
1000
0000
,  // measure 68
0001
0000
1000
0100
0000
0100
0010
0000
0001
0100
0000
0010
0000
0000
0110
0000
,  // measure 69
0100
0001
0000
0001
0100
0001
0000
1000
0100
1000
0000
0010
0000
0010
0100
0000
,  // measure 70
0001
1000
0000
0100
0000
1000
0000
0010
0100
0001
0000
0010
0000
0011
0000
0000
,  // measure 71
0000
0000
0000
0001
0100
0001
0000
1000
0100
1000
0000
0010
0100
0000
0110
0000
,  // measure 72
0010
1000
0001
1000
0001
0100
0010
0000
1000
0001
0000
0100
0000
0110
0000
0000
,  // measure 73
0010
1000
0000
1000
0010
1000
0000
0001
0010
0001
0000
1000
0100
1000
0000
0010
,  // measure 74
0100
0001
0000
0010
0100
1000
0000
0010
0100
0001
0000
1000
0000
1001
0000
0000
,  // measure 75
0000
0000
0000
0001
0010
0001
0000
1000
0010
1000
0000
0010
0100
0000
0110
0000
,  // measure 76
0010
1000
0001
1000
0001
0100
0010
0000
0010
0100
0000
0010
1000
0001
1000
0000
,  // measure 77
0001
0100
0000
0001
0000
0000
0100
0000
0001
0100
0000
0001
0000
0000
0100
0000
,  // measure 78
0010
1000
0000
0010
0000
1000
0010
0000
0100
0001
0000
0100
0000
0001
0100
0000
,  // measure 79
0001
1000
0000
0100
0000
0000
1000
0000
0001
1000
0000
0100
0000
0000
1000
0000
,  // measure 80
0001
0100
0000
0100
0001
0000
1000
0000
0010
0100
0010
0100
0001
1000
0001
0000
,  // measure 81
1000
0010
0000
1000
0000
0000
0010
0000
1000
0010
0000
1000
0010
0000
0010
0000
,  // measure 82
1000
0001
0000
0001
1000
0000
0010
0000
0100
0010
0000
0100
0000
0010
0100
0000
,  // measure 83
0001
1000
0000
0100
0000
0000
1000
0000
0001
1000
0000
0100
0000
0000
1000
0000
,  // measure 84
0001
0010
0000
0010
0001
0000
1000
0100
0000
0100
1000
0000
0010
0100
0010
0100
,  // measure 85
0001
0100
0000
0001
0000
0000
0100
0000
0001
0100
0000
0001
0000
0000
0100
0000
,  // measure 86
0010
1000
0000
0010
0000
1000
0010
0000
0100
0001
0000
0100
0000
0001
0100
0000
,  // measure 87
0001
1000
0000
0100
0000
0000
1000
0000
0001
1000
0000
0100
0000
0000
1000
0000
,  // measure 88
0001
0100
0000
0100
0001
0000
1000
0000
0010
0100
0010
0100
0001
1000
0001
0000
,  // measure 89
1000
0010
0000
1000
0000
0000
0010
0000
1000
0010
0000
1000
0010
0000
0010
0000
,  // measure 90
1000
0001
0000
0001
1000
0000
0010
0000
0100
0010
0000
0100
0000
0010
0100
0000
,  // measure 91
0001
1000
0000
0100
0000
0000
1000
0000
0001
1000
0000
0100
0000
0000
1000
0000
,  // measure 92
0001
0010
0000
0010
0001
0000
1000
0001
0000
0001
1000
0000
0010
0100
0010
0100
,  // measure 93
0002
0003
0000
0000
0000
0000
0000
0000
0000
0000
0000
0000
0000
0000
0000
0000
0002
0000
0000
0000
0000
0000
0000
0000
0000
0000
0000
0000
0000
0000
0000
0000
0103
0000
0000
0000
0000
0000
0000
0000
0010
0000
0000
0000
0000
0000
0000
0000
2000
0000
0000
0000
0000
0000
0000
0000
0000
0000
0000
0000
0000
0000
0000
0000
,  // measure 94
3100
0010
0002
0000
0103
0010
1000
0100
,  // measure 95
0010
0001
0200
0000
0320
0000
1030
0100
,  // measure 96
0010
0001
0200
0310
0002
1003
1001
0000
,  // measure 97
0000
0000
0000
1002
,  // measure 98
1003
0000
0010
0000
0200
0000
0000
0000
0310
0000
1000
0000
0001
0000
0000
1000
,  // measure 99
0000
0000
0001
0000
0200
0000
0000
0010
0000
0000
1000
0000
0302
0000
0000
0000
,  // measure 100
0000
0000
0003
0000
1001
0000
0000
1000
0000
0000
0100
0000
0110
0000
0000
0010
,  // measure 101
0000
0000
0001
0000
1001
0000
0000
0001
0000
0000
0100
0000
0210
0000
0000
0000
,  // measure 102
0310
0000
1000
0000
0002
0000
0000
0000
0103
0000
0010
0000
1000
0000
0000
1000
,  // measure 103
0000
0000
1000
0000
0001
0000
0000
0001
0000
0000
0001
0000
0200
0000
0000
0000
,  // measure 104
0310
1000
0002
0000
0013
0100
2000
0000
,  // measure 105
0000
3000
0000
2001
,  // measure 106
3001
0000
0100
0000
0020
0000
0000
0000
0130
0000
0001
0000
1000
0000
0000
0001
,  // measure 107
0000
0000
1000
0000
0020
0000
0000
0100
0000
0000
0001
0000
2030
0000
0000
0000
,  // measure 108
0000
0000
3001
0000
1001
0000
0000
0001
0000
0000
0010
0000
0110
0000
0000
0100
,  // measure 109
0000
0000
1000
0000
1001
0000
0000
1000
0000
0000
0010
0000
0120
0000
0000
0000
,  // measure 110
0130
0000
0001
0000
2000
0000
0000
0000
3010
0000
0100
0000
0001
0000
0000
0001
,  // measure 111
0000
0000
0001
0000
1000
0000
0000
1000
0000
0000
1000
0000
0020
0000
0000
0100
,  // measure 112
0000
0000
0001
0000
2030
0000
0000
0100
0000
0000
0001
0000
3020
0000
0000
0000
,  // measure 113
0000
0030
0000
0120
,  // measure 114
0000
0002
0030
0200
,  // measure 115
0003
0000
0000
0000
2000
0000
0000
0000
0300
0000
0000
0000
3001
1000
0000
0001
,  // measure 116
0000
1000
0001
0000
0100
0010
0000
0100
0000
0010
0100
0000
0001
1000
0000
0100
,  // measure 117
0000
1000
0001
0000
0010
0100
0000
0100
0010
0000
0001
0000
0210
0000
0000
0000
,  // measure 118
0000
2000
0300
0020
,  // measure 119
3000
0000
0000
0000
0002
0000
0000
0000
0030
0000
0000
0000
1003
0001
0000
1000
,  // measure 120
0000
0001
1000
0000
0010
0100
0000
0010
0000
0100
0010
0000
1000
0001
0000
1001
,  // measure 121
0000
0000
0100
0000
0100
0010
0000
0110
0000
0000
0000
0000
0210
0000
0000
0000
,  // measure 122
1000
2000
0310
0020
,  // measure 123
3001
0000
0000
0000
0002
0000
0000
0000
1030
0000
0000
0000
1003
0001
0000
1000
,  // measure 124
0000
0001
1000
0000
0010
0100
0000
0010
0000
0100
0010
0000
1000
0001
0000
0010
,  // measure 125
0000
0001
1000
0000
0100
0010
0000
0010
0100
0000
1000
0000
0120
0000
0000
0000
,  // measure 126
0001
0002
0130
0200
,  // measure 127
1003
0000
0000
0000
2000
0000
0000
0000
0301
0000
0000
0000
3001
1000
0000
0001
,  // measure 128
0000
1000
0001
0000
0100
0010
0000
0100
0000
0010
0100
0000
0001
1000
0000
1001
,  // measure 129
0000
0000
0100
0000
0100
0010
0000
0110
0000
0000
0000
0000
1000
0001
0000
1000
,  // measure 130
0000
0001
1000
0000
0010
0100
0000
0010
0000
0100
0010
0000
1000
0001
0000
0100
,  // measure 131
0000
0001
1000
0000
0010
0100
0000
0010
0000
0100
0010
0000
1000
0100
1000
0100
,  // measure 132
0000
1000
0001
0000
0001
0100
0001
0100
0000
0001
1000
0000
1000
0010
1000
0010
,  // measure 133
0000
1000
0001
0000
0010
0001
0000
1001
0000
0001
1000
0000
0010
0100
0000
0010
,  // measure 134
0000
0100
0010
0000
1000
0001
0000
1000
0000
0001
1000
0000
0001
1000
0000
0100
,  // measure 135
0000
1000
0001
0000
1000
0001
0000
0010
0000
0011
0000
0000
0001
0100
0001
0100
,  // measure 136
0000
0010
1000
0000
0100
0010
0100
0010
0000
0001
0100
0000
0010
1000
0000
1001
,  // measure 137
0000
0000
1000
0000
0010
0100
0000
0110
0000
0000
0000
0000
0001
0000
1000
0000
,  // measure 138
0100
0000
0001
1000
0100
0000
1000
0010
,  // measure 139
0100
0000
0001
0000
0010
0000
0100
0000
1000
0000
0000
0000
0001
0010
0100
1000
,  // measure 140
0000
0001
1000
0000
1000
0100
0010
0001
0000
1000
0001
0000
0010
0100
0001
1000
,  // measure 141
0000
0010
0100
0000
0001
1000
0000
0100
0000
0010
0000
0000
1000
0000
0001
0000
,  // measure 142
0010
0000
1000
0001
0010
0000
1000
0001
,  // measure 143
0010
0000
0100
0000
1000
0000
0010
0000
0100
0000
0000
0000
0001
1000
0010
0100
,  // measure 144
0000
0001
1000
0000
0001
1000
0010
0100
0000
0001
1000
0000
0010
0100
0000
0010
,  // measure 145
0000
0000
0100
0000
0001
1000
0000
1001
0000
0000
0000
0000
0010
0000
0000
0000
,  // measure 146
1000
0010
1000
0100
,  // measure 147
0001
0000
0000
0000
0100
0000
0000
0000
0001
0000
0000
0000
0010
0001
0010
0001
,  // measure 148
0000
0010
0001
0000
1000
0010
1000
0010
0000
1000
0010
0000
1000
0001
1000
0001
,  // measure 149
0000
1000
0001
0000
0010
0100
0000
0010
0000
0010
0000
0000
1000
0000
0000
0000
,  // measure 150
0100
1000
0100
0001
,  // measure 151
0100
0000
0000
0000
0001
0000
0000
0000
0100
0000
0000
0000
0001
1000
0001
1000
,  // measure 152
0000
1000
0001
0000
0100
0010
0100
0010
0000
0010
0100
0000
0010
0000
1000
0000
,  // measure 153
0100
0000
0010
0000
0001
0000
0100
0000
0010
0000
1000
0000
0001
0100
0001
0000
,  // measure 154
1000
0100
1000
0000
0010
0100
0001
1000
0100
0010
0001
0100
0000
0000
0000
0000
;
