#TITLE:We Are The Children Of Rock;
#SUBTITLE:;
#ARTIST:J. Storm;
#TITLETRANSLIT:;
#SUBTITLETRANSLIT:;
#ARTISTTRANSLIT:;
#CREDIT:;
#BANNER:We Are The Children Of Rock-bn.png;
#BACKGROUND:We Are The Children Of Rock-bg.png;
#LYRICSPATH:;
#CDTITLE:Euromach 15.png;
#MUSIC:We Are The Children Of Rock.ogg;
#OFFSET:-7.680;
#SAMPLESTART:43.650;
#SAMPLELENGTH:12.000;
#SELECTABLE:YES;
#BPMS:0.000=160.000;
#STOPS:;
#BGCHANGES:;

//---------------dance-single - ----------------
#NOTES:
     dance-single:
     :
     Hard:
     8:
     0.583,0.602,0.308,0.378,0.070:
1000
1000
2001
0000
3001
0000
0100
0100
,
0100
0001
0200
0000
0301
0000
1000
0001
,
0100
0100
0120
0000
1030
0000
0100
0001
,
0100
0010
0002
0000
1003
0001
0200
0000
,
0310
0010
1020
0000
0130
0000
0100
0001
,
0010
0010
1020
0000
0130
0000
0100
0010
,
0001
1000
0201
0000
0310
0000
0001
0100
,
0010
0001
0200
0000
0301
0100
0020
0000
,
1030
0000
0000
0100
0000
0000
0100
0000
0001
0000
0000
0100
0000
0000
1000
0000
,
0010
0000
0000
1000
0000
0000
0010
0000
1000
0000
0000
0001
0000
0000
0001
0000
,
0100
0000
0000
0001
0000
0000
0010
0000
0100
0000
0000
1000
0000
0000
0010
0000
,
0100
0000
0000
0001
0000
0000
0100
0000
1000
0000
0000
1000
0000
0000
0100
0000
,
0010
0001
0010
0000
0110
0000
1000
0100
,
0010
0001
0200
0000
0310
0000
0001
0010
,
0001
0000
1000
0100
0010
0000
0100
0010
,
0001
0100
0000
0002
0000
0000
1003
0000
,
2001
0000
3010
0000
0100
0001
0100
0000
,
0010
0100
0010
0000
0001
0100
0001
0000
,
0002
0100
0100
0103
,
0010
1000
0010
1000
0010
1000
0010
0000
,
0200
0001
0010
0301
,
0100
1000
0001
0000
0010
0100
0001
0000
,
0100
0010
0001
0000
0010
0100
0010
0100
,
0002
0000
0000
0003
,
1001
0000
0010
0100
0001
0000
0100
1000
,
0010
0000
0100
0000
0001
0010
0100
0010
,
0100
0000
0101
0000
0001
0100
1000
0010
,
0100
0010
1000
0010
0100
0001
0010
0100
,
0002
0000
1000
0000
0010
0000
0103
1000
,
0001
0000
0100
1000
0010
0000
0010
0100
,
0001
0000
0010
0000
0100
1000
0001
1000
,
0010
0100
0001
0100
0010
0100
0001
0100
,
0200
0001
0010
0301
,
1001
0000
0010
0100
0001
0000
0100
0000
,
1010
0000
1001
0000
0010
0100
0001
0010
,
0001
0100
0010
0100
0001
0100
0010
0100
,
0002
1000
0010
0103
,
1001
0000
0100
1000
0100
0000
0010
2000
,
0002
0000
3003
0220
,
0000
0000
0000
0330
,
1001
0000
0000
0101
0000
0000
1010
0000
0000
0101
0000
0000
0010
0000
0100
0000
,
0010
0000
0000
1001
0000
0000
0100
0000
0000
1001
0000
0000
0100
0000
0001
0000
,
0101
0000
0000
0010
0000
0000
1001
0000
0000
0100
0000
0000
1001
0000
0010
0000
,
0011
0011
1100
1100
,
0001
0010
0001
0010
0001
0010
0001
0010
,
0100
0010
0100
0010
0100
0010
0100
0010
,
0100
1000
0100
1000
0100
1000
0100
1000
,
0001
1000
0002
0000
0003
0000
1000
0000
,
0120
0000
0031
1000
0100
0000
1000
0010
,
0002
0000
1003
0000
0100
0001
1000
0001
,
1000
0000
1100
0000
0100
1000
0010
0001
,
1000
0001
0010
0001
1000
0100
0001
1000
,
0200
0000
0010
0000
0001
0000
1300
0010
,
0100
0000
1000
0010
0001
0000
0001
1000
,
0200
0000
0301
0000
1000
0010
0100
0000
,
2001
0100
0010
3100
,
0001
0001
0002
0000
0103
0100
0200
0000
,
0310
0010
0020
0000
0031
0001
0002
0000
,
1003
1000
2000
0000
3001
0001
0002
0000
,
0103
0100
0200
0000
1300
1000
1000
0000
,
2002
0000
3003
0000
;

//---------------dance-single - ----------------
#NOTES:
     dance-single:
     :
     Medium:
     6:
     0.432,0.390,0.100,0.328,0.000: // measure 1
1000
1000
2000
0000
0000
3000
0001
0000
,  // measure 2
0010
0010
0020
0000
0030
0000
1000
0000
,  // measure 3
0001
0001
0002
0000
0000
0003
1000
0000
,  // measure 4
0100
1000
1001
1001
,  // measure 5
0010
0010
0020
0000
0030
0000
1000
0000
,  // measure 6
0001
1000
0002
0000
0000
0003
0000
0000
,  // measure 7
0100
0100
0200
0000
0000
0300
0010
0000
,  // measure 8
1000
0001
1000
0000
0010
1000
0010
0000
,  // measure 9
1000
0000
0001
0000
0010
0000
0100
0001
,  // measure 10
0100
0000
0100
0000
1000
0000
0010
1000
,  // measure 11
0010
0000
0001
0000
0100
0000
1000
0001
,  // measure 12
1000
0000
0001
0000
0010
0001
0010
0001
,  // measure 13
0010
0000
0001
0100
0001
0000
0100
1000
,  // measure 14
0100
0000
0010
0000
0100
0000
0001
0100
,  // measure 15
0001
0000
0010
0000
0100
0000
0001
0100
,  // measure 16
1000
0001
2000
0000
,  // measure 17
3001
0001
0001
0001
,  // measure 18
0002
0000
0000
0000
,  // measure 19
0000
0000
0000
0000
,  // measure 20
1003
1000
1000
1000
,  // measure 21
1001
0000
0010
0000
0100
0000
0001
0100
,  // measure 22
0001
0000
0100
0000
1000
0010
1000
0010
,  // measure 23
2000
0000
0000
0000
3000
0000
1000
0001
,  // measure 24
0000
0020
0000
0030
,  // measure 25
1001
0100
1000
0001
,  // measure 26
2000
0001
3001
0002
,  // measure 27
0100
0000
0103
0000
0010
0100
0010
0000
,  // measure 28
0001
0100
0001
0000
0100
1000
0010
1000
,  // measure 29
0001
0002
0100
0010
,  // measure 30
0103
0000
1001
0000
0100
0000
1000
0010
,  // measure 31
2000
0000
3010
0000
0100
0000
0001
0100
,  // measure 32
0001
0000
0100
0000
0010
0100
0010
0100
,  // measure 33
0010
2000
0001
0010
,  // measure 34
3001
0000
1001
0000
0010
0001
0010
0001
,  // measure 35
0010
0000
1100
0000
0001
0010
0100
0000
,  // measure 36
0001
0100
0010
0000
0100
0000
1000
0000
,  // measure 37
0002
0010
0100
1000
,  // measure 38
0103
1100
0001
0010
,  // measure 39
2002
0000
0003
0002
,  // measure 40
0000
0000
0000
0000
0000
3003
0000
0000
,  // measure 41
0001
0000
1000
0000
0010
0000
1000
0100
,  // measure 42
1000
0000
0001
0000
0010
0000
0001
0100
,  // measure 43
0001
0100
1000
0001
,  // measure 44
2000
3002
2003
3002
,  // measure 45
1003
0000
0001
0000
0010
0100
0010
0000
,  // measure 46
0100
0001
0100
0000
0001
0100
0001
0000
,  // measure 47
0100
1000
0100
0000
0010
1000
0010
0000
,  // measure 48
2000
0000
0000
0000
,  // measure 49
3001
0100
1000
0001
,  // measure 50
2000
0001
3001
0002
,  // measure 51
0100
0000
0103
0000
0010
0100
0010
0000
,  // measure 52
0001
0100
0001
0000
0100
1000
0010
1000
,  // measure 53
0001
0002
0100
0010
,  // measure 54
0103
0000
1001
0000
0100
0000
1000
0010
,  // measure 55
2000
0000
3010
0000
0100
0000
0001
0100
,  // measure 56
0001
0000
0100
0000
0010
0100
0010
0100
,  // measure 57
0020
0000
1030
0000
1000
1000
0000
0000
,  // measure 58
0200
0000
0301
0000
0001
0001
0000
0000
,  // measure 59
0020
0000
1030
0000
0100
0100
0000
0000
,  // measure 60
0200
0000
0310
0000
0001
0001
0000
1000
,  // measure 61
0002
0003
0000
0000
;

//---------------dance-single - ----------------
#NOTES:
     dance-single:
     :
     Easy:
     4:
     0.354,0.418,0.199,0.408,0.000: // measure 1
1000
1000
0000
0001
,  // measure 2
0001
0001
0000
0010
,  // measure 3
0010
0010
0000
0100
,  // measure 4
0200
0302
0203
0302
,  // measure 5
1003
2000
0000
3001
,  // measure 6
0010
0020
0000
0130
,  // measure 7
0100
0002
0000
1003
,  // measure 8
1000
1000
0001
0001
,  // measure 9
1000
0001
1000
0000
,  // measure 10
0010
0100
0001
0000
,  // measure 11
0100
1000
0010
0100
,  // measure 12
0001
0010
0100
0010
,  // measure 13
2002
0000
0000
3003
,  // measure 14
0001
0001
1000
1000
,  // measure 15
0010
0100
0001
0010
,  // measure 16
2000
0000
3002
0000
,  // measure 17
2003
0000
0000
0000
,  // measure 18
0000
0000
0000
3000
,  // measure 19
0001
0001
1000
1000
,  // measure 20
0100
1000
0010
0100
,  // measure 21
0102
0000
0000
0000
,  // measure 22
0103
0000
0010
0010
,  // measure 23
0020
0000
1030
1000
,  // measure 24
2002
0000
0000
3003
,  // measure 25
2001
0001
0001
0010
,  // measure 26
3100
1001
0010
0100
,  // measure 27
2001
3010
0001
0100
,  // measure 28
0001
0010
0100
0001
,  // measure 29
0102
0103
0010
1000
,  // measure 30
0100
0010
0100
0001
,  // measure 31
0012
0100
0010
0103
,  // measure 32
2100
0010
0001
3010
,  // measure 33
1001
0010
0100
0001
,  // measure 34
1000
0000
0001
0001
,  // measure 35
2002
0000
0000
3003
,  // measure 36
0100
0100
1000
0010
,  // measure 37
0001
0100
1000
0001
,  // measure 38
0010
0100
0001
0001
,  // measure 39
2002
0000
3003
0020
,  // measure 40
0000
0000
0000
0030
,  // measure 41
2000
0000
0001
3001
,  // measure 42
0002
0000
0100
0103
,  // measure 43
0200
0000
0010
0310
,  // measure 44
1001
1001
1001
1001
,  // measure 45
0001
1000
0010
0001
,  // measure 46
0010
1000
0100
0010
,  // measure 47
0001
0010
0100
1000
,  // measure 48
0001
0010
0100
0001
,  // measure 49
2002
0000
0003
0001
,  // measure 50
3001
0001
0010
0100
,  // measure 51
2002
0000
3103
1000
,  // measure 52
0010
0001
0010
0001
,  // measure 53
0002
0000
1003
1000
,  // measure 54
0100
1000
0010
0100
,  // measure 55
2002
3000
0103
0100
,  // measure 56
0200
0000
0000
0300
,  // measure 57
0002
0000
1000
1000
,  // measure 58
2003
0000
0010
3010
,  // measure 59
0020
0000
0100
0100
,  // measure 60
0230
0000
0301
0001
,  // measure 61
1001
0000
0000
0000
;
