#TITLE:Bad Bad Bad;
#SUBTITLE:;
#ARTIST:Energy Man;
#TITLETRANSLIT:;
#SUBTITLETRANSLIT:;
#ARTISTTRANSLIT:;
#CREDIT:;
#BANNER:Bad Bad Bad-bn.PNG;
#BACKGROUND:Bad Bad Bad-bg.PNG;
#LYRICSPATH:;
#CDTITLE:Super Eurobeat 175.png;
#MUSIC:Bad Bad Bad.ogg;
#OFFSET:-6.120;
#SAMPLESTART:60.750;
#SAMPLELENGTH:12.000;
#SELECTABLE:YES;
#BPMS:0.000=157.990,15.001=78.995,17.001=157.990;
#STOPS:12.000=0.190
,12.500=0.190
,41.001=0.190
,41.501=0.190
;
#BGCHANGES:;

//---------------dance-single - ----------------
#NOTES:
     dance-single:
     :
     Hard:
     8:
     0.616,0.602,0.430,0.115,0.033:
1000
0000
0100
0000
0010
0000
0001
0010
,
0001
0000
1000
0100
0010
0000
2001
0000
,
3001
0010
0100
0010
0001
0000
0100
0000
,
1001
0000
0000
0000
1001
0000
0000
0000
2002
0000
0000
0000
0000
0000
0000
0000
3003
0000
0000
0000
0000
0000
0000
0000
1000
0000
0100
0000
1000
0000
0010
0100
,
0000
0010
0000
0010
0000
0010
0000
0000
1000
0000
0000
0000
0100
0000
0000
0000
0010
0000
0000
0000
0100
0000
0001
0000
0000
0000
0000
0000
0000
0000
0000
0000
,
1001
0000
0010
0100
0001
0100
1000
0010
,
0100
0010
0101
0000
1100
0000
0110
0000
,
0001
0100
1000
0001
0010
0100
0001
0100
,
1000
0010
0100
0001
0100
1000
0010
0000
,
1001
0000
0100
1000
0001
0010
0100
0001
,
0100
0000
0110
1001
2002
0000
3003
0000
,
0001
0010
1000
0001
0100
1000
0001
0010
,
0100
0001
0100
1000
0001
0010
0100
0000
,
0001
0001
0001
0000
1000
1000
1000
0000
,
0001
0100
1000
0001
0010
0100
0010
0010
,
1001
0100
1000
0001
0010
0100
0001
0100
,
1000
0001
0010
0100
0001
0100
1000
0010
,
0010
0010
0010
0000
0100
0100
0100
0000
,
0001
0010
0100
0001
0100
1000
0010
0000
,
1001
0100
1000
0001
0010
0100
0001
0000
,
0001
0100
1000
0010
0100
0001
0100
0000
,
1000
0001
0010
0000
0100
0001
0010
0000
,
0101
0000
1100
0000
0010
0100
0010
0000
,
1001
0100
1000
0001
0010
0100
0001
0000
,
0001
0010
0100
0000
0100
1000
0010
0000
,
0001
0100
1000
0001
0010
0100
0001
0000
,
0100
1000
0001
0010
0100
0001
0100
0000
,
1000
0001
0010
0100
0001
0100
2000
0000
,
3001
0010
0100
0001
0100
1000
0010
0000
,
1000
0000
2001
0000
3010
0100
0001
0000
,
0100
1000
0001
0010
0100
0001
0100
0000
,
0001
0010
0100
0001
0100
1000
0002
0000
,
1003
0010
0100
0001
0100
1000
0010
0000
,
1010
1010
0000
1001
1001
1001
0000
0101
,
0101
0000
1001
1001
0000
0010
0100
0000
,
0001
0100
1000
0001
0010
0100
0001
0100
,
1000
0001
0010
0100
0010
0000
1001
0000
,
0100
1000
0001
0010
0100
0001
0010
0010
,
1010
0000
1001
0000
1001
0000
0001
0010
,
0100
0001
0100
1000
0001
0010
0100
0010
,
0001
0100
1000
0001
0010
0000
0101
0000
,
0001
0100
1000
0001
0010
0100
0010
0000
,
0011
0000
1100
0000
0110
0000
1001
0100
,
1000
0001
0010
0100
0001
0100
1000
0001
,
0010
0100
0001
0100
1000
0000
0110
0000
,
0001
0100
1000
0001
0010
0100
0010
0000
,
0011
0000
0101
0000
0110
0000
0001
1000
,
0100
1000
0001
0010
0100
0001
0100
1000
,
0001
0010
0100
0010
0100
0000
0110
0000
,
0001
0100
1000
0001
0010
0100
0010
0000
,
1001
1100
2002
3003
,
0001
0010
1000
0001
0100
1000
0001
0010
,
0100
0001
0100
1000
0001
0010
0100
0010
,
1000
0100
0100
0000
1000
1000
0010
0000
,
0001
0100
0010
1000
0001
0010
0100
0001
,
0100
1000
0001
0010
0100
0001
0100
1000
,
0010
0100
0001
0100
1000
0010
0100
0000
,
0010
0001
0001
0000
0001
0100
0100
0000
,
1000
0001
0010
0100
0001
0100
1000
0010
,
2002
0000
0000
0000
,
3003
0000
0000
0000
;

//---------------dance-single - ----------------
#NOTES:
     dance-single:
     :
     Challenge:
     9:
     0.680,0.602,0.363,0.229,0.349:
1000
0000
0001
0000
1000
0000
0001
0100
0000
0100
0000
0100
0000
0100
0000
0000
,
1000
0000
0001
0000
0010
0000
0001
0100
0000
0000
0100
0000
0002
0000
0000
0000
,
1003
0100
0001
0100
1000
0100
0001
0000
,
1010
0000
0000
0000
1010
0000
0000
0000
1020
0000
0000
0000
0000
0000
0000
0000
1030
0000
0000
0000
1000
0000
0000
0000
1000
0000
0001
0000
1000
0000
0100
1000
,
0000
0001
0000
0001
0000
0001
0000
0000
0010
0000
0000
0000
0001
0000
0000
0000
0100
0000
0000
0000
0001
0000
1000
0000
0000
0000
0000
0000
0000
0000
0000
0000
,
1010
0000
0100
0001
1000
0001
0010
0100
,
0001
0100
1001
0000
0011
0000
0101
0000
,
1000
0000
0001
0000
0010
0000
1000
0000
0100
0000
0001
1000
0000
0001
0000
0010
,
0000
0001
0000
0000
0001
0000
1000
0000
0001
0000
0010
0100
0000
0000
0000
0000
,
1000
0010
1000
0010
1000
0000
0010
0000
1000
0000
0100
0000
0001
0000
1000
0000
,
0001
0000
0101
1010
2002
0000
3003
0000
,
0001
0000
1000
0000
0001
0000
1000
0001
0000
0000
1000
0000
1000
0000
1000
0000
,
0010
0000
0100
0000
0010
0000
1000
0001
0000
0000
0001
0000
0001
0000
0001
0000
,
0010
0001
0010
0001
0020
0000
0000
0000
1030
0001
1000
0001
2000
0000
0000
0000
,
3010
0001
1000
0010
0100
1000
0100
0010
,
1000
0000
0001
0000
1000
0000
0010
0001
0000
0000
0010
0000
0010
0000
0010
0000
,
1000
0000
0010
0000
1000
0000
0001
1000
0000
0000
0100
0000
0100
0000
0100
0000
,
0001
0100
0001
0100
0002
0000
0000
0000
0103
0001
0100
0001
0200
0000
0000
0000
,
0310
1000
0001
0100
1000
0010
1000
0000
,
1001
0000
0100
0000
0010
0000
0001
0000
1000
0000
0010
0001
0000
0000
0000
0000
,
0001
0000
0010
1000
0010
0000
0100
1000
0100
0000
0001
0010
0001
0000
0000
0000
,
1001
0000
0010
0000
0100
0000
0100
0001
0000
0000
1000
0000
0001
0000
1001
0000
,
0000
0000
0100
0000
0001
0000
0010
0000
0100
0000
0001
0000
0100
0000
1000
0001
,
1000
0000
0001
0000
0010
0000
1000
0000
0100
0000
0001
1000
0000
0000
0001
0000
,
1000
0000
0100
0001
0100
0000
0010
1000
0010
0000
0001
0100
0001
0000
0000
0000
,
1000
0000
0001
0000
0010
0000
1000
0100
0000
0000
0001
0000
1000
0000
0001
0000
,
0000
0010
0010
0110
0000
0100
1001
0000
,
0001
0010
0100
0101
0000
0001
0100
1000
,
0010
0100
0010
0110
0000
0001
0100
1000
,
0002
0000
0100
0000
0013
0100
0001
0000
,
0100
0000
1000
0000
0010
0000
0100
0000
1001
0000
0000
0110
0000
0000
0110
0000
,
1001
0010
0100
0110
0000
0001
0100
1000
,
0100
0010
0100
0011
0000
0100
0100
0000
,
1000
2000
0000
3001
0001
0002
0000
1003
,
1000
0000
1010
1010
0000
0001
0100
0000
,
1000
0000
0010
0000
1000
0000
0001
0100
0000
0001
0000
0001
0000
0001
0000
0000
,
0100
0000
0001
0000
0100
0000
0001
1000
0000
0000
0001
0000
2000
0000
0000
0000
,
3001
0001
1000
1000
0001
1000
0100
0010
,
1001
0000
0110
0000
1001
0000
1000
0100
,
0010
0000
1000
0000
0001
0000
1000
0001
0000
0010
0000
0010
0000
0010
0000
0000
,
0010
0000
0010
0000
1000
0000
0001
0100
0000
0000
0001
0000
2000
0000
0000
0000
,
3100
0100
0001
0001
0100
0001
0100
0000
,
0110
0000
1001
0000
0110
0000
2000
0001
,
3001
0000
0100
0000
0001
0000
1000
0010
0000
1000
0000
1000
0000
1000
0000
0000
,
0010
0000
1000
0000
0010
0000
1000
0001
0000
0000
1000
0000
0002
0000
0000
0000
,
1003
1000
0001
0001
1000
0001
0010
0100
,
1001
0000
0110
0000
1001
0000
0001
0010
,
0100
0000
0001
0000
1000
0000
0001
1000
0000
0100
0000
0100
0000
0100
0000
0000
,
0100
0000
0100
0000
0001
0000
1000
0010
0000
0000
1000
0000
0002
0000
0000
0000
,
0013
0010
1000
1000
0010
1000
0010
0000
,
0110
1001
0220
0330
,
0100
0000
0001
0000
0100
0000
0001
0100
0000
0000
0001
0000
0001
0000
0001
0000
,
1000
0000
0010
0000
1000
0000
0001
0100
0000
0000
0100
0000
0100
0000
0100
0000
,
1000
0100
1000
0100
2000
0000
0000
0000
3001
0000
0001
0000
0002
0000
0000
0000
,
1003
0100
0001
1000
0010
0001
0010
1000
,
0001
0000
0100
0000
0001
0000
1000
0100
0000
0000
1000
0000
1000
0000
1000
0000
,
0001
0000
1000
0000
0001
0000
0100
0001
0000
0000
0010
0000
0010
0000
0010
0000
,
0100
0010
0100
0010
0200
0000
0000
0000
0310
0100
0010
0100
0020
0000
0000
0000
,
1030
0001
0100
0010
0001
1000
0001
0000
,
2002
0000
0000
0000
,
3003
0000
0000
0000
;

//---------------dance-single - ----------------
#NOTES:
     dance-single:
     :
     Medium:
     6:
     0.498,0.457,0.334,0.401,0.000: // measure 1
2000
3020
0230
0301
,  // measure 2
0001
1000
0001
1000
0001
0000
1001
0000
,  // measure 3
0000
0100
0100
0100
,  // measure 4
1010
1010
2010
0000
3000
0000
0001
1000
,  // measure 5
0010
1000
0001
1000
0001
0100
0010
0000
,  // measure 6
0002
0000
1003
0000
0010
0000
0100
0001
,  // measure 7
0100
0011
0011
0011
,  // measure 8
0200
0000
1300
0010
1000
0000
0001
0100
,  // measure 9
0001
0020
0130
0001
,  // measure 10
0002
0003
0010
1000
,  // measure 11
0100
0000
1001
0110
2002
0000
3003
0000
,  // measure 12
0010
1000
0010
0000
0001
0100
0001
0000
,  // measure 13
0001
1000
0001
0000
0010
1000
0100
0000
,  // measure 14
0100
1000
0020
0000
0130
0001
0200
0000
,  // measure 15
0310
0000
0100
0000
0001
0100
0001
0000
,  // measure 16
0010
0100
0010
0000
0001
0010
0001
0000
,  // measure 17
0100
1000
0100
0000
0010
1000
0010
0000
,  // measure 18
2000
0001
3002
1000
,  // measure 19
0103
1000
0100
0000
0001
0100
0001
0000
,  // measure 20
0001
0100
0010
0000
0010
1000
0100
0000
,  // measure 21
1000
0001
0100
0010
,  // measure 22
0010
1000
0010
0100
0001
0000
0010
0000
,  // measure 23
0100
1000
0100
0000
0001
0100
0001
0000
,  // measure 24
0020
0000
0130
0000
0001
0010
0001
0000
,  // measure 25
0011
1100
1001
1010
,  // measure 26
0100
1000
0001
0000
0001
0100
0010
2000
,  // measure 27
0000
3002
0000
2003
0000
3010
1000
0000
,  // measure 28
0010
0100
0001
0000
0010
0000
1000
0000
,  // measure 29
0001
1000
0001
0000
0001
1000
0001
0000
,  // measure 30
0011
0000
1001
0000
0010
1000
0010
0000
,  // measure 31
2000
0010
3020
0000
,  // measure 32
1030
0001
1000
0000
0001
0100
0010
0000
,  // measure 33
0020
0130
0002
0013
,  // measure 34
0002
0000
2003
0000
,  // measure 35
3020
0230
0302
0000
,  // measure 36
2003
0000
0001
0000
3001
1000
0001
0000
,  // measure 37
0001
0100
0010
0100
0010
0000
0101
0000
,  // measure 38
0000
0010
0010
0010
,  // measure 39
1001
0110
1001
0100
,  // measure 40
1000
0010
1000
0000
0001
0100
0001
0000
,  // measure 41
0020
0130
1001
0011
,  // measure 42
0200
0000
2300
0000
3010
1000
0010
0000
,  // measure 43
0020
0130
0202
0303
,  // measure 44
0010
0000
1000
0000
0001
0010
0001
0000
,  // measure 45
0100
1000
0010
1000
0010
0000
1001
0000
,  // measure 46
0000
0110
0010
0100
,  // measure 47
1001
0110
1001
0001
,  // measure 48
0010
0000
0100
0000
1000
0010
1000
0000
,  // measure 49
0001
0100
0010
0000
0100
0000
0001
0000
,  // measure 50
0000
1010
0101
1010
,  // measure 51
0011
1100
2020
3030
,  // measure 52
0100
0010
0100
0000
0001
1000
0001
0000
,  // measure 53
0001
0010
0001
0000
0100
0010
1000
0000
,  // measure 54
1000
0010
0200
0000
1300
0001
2000
0000
,  // measure 55
3100
0000
1000
0000
0001
1000
0001
0000
,  // measure 56
0100
1000
0100
0000
0001
0100
0001
0000
,  // measure 57
1000
0010
1000
0000
0100
0010
0100
0000
,  // measure 58
0020
0000
0001
0030
0002
0000
0010
0003
,  // measure 59
1000
0010
1000
0000
0001
1000
0001
0000
,  // measure 60
2002
0000
0000
3003
;

//---------------dance-single - ----------------
#NOTES:
     dance-single:
     :
     Easy:
     4:
     0.354,0.371,0.258,0.182,0.000: // measure 1
1000
0010
1000
0001
,  // measure 2
0010
0100
1001
0010
,  // measure 3
0000
0100
0100
0010
,  // measure 4
0010
0010
0010
0000
0000
0000
1002
0001
,  // measure 5
0100
0010
1000
0000
0001
0000
1000
0000
,  // measure 6
0001
0010
0100
0010
,  // measure 7
0100
1001
1001
1001
,  // measure 8
0000
0001
0010
0100
,  // measure 9
1000
0001
1000
0001
,  // measure 10
1010
0000
0010
0100
,  // measure 11
0010
0000
0100
0001
0200
0000
0300
0000
,  // measure 12
0001
1000
0001
0000
,  // measure 13
0010
1000
0010
0000
,  // measure 14
0010
0100
0010
0001
,  // measure 15
1000
0001
0100
0010
,  // measure 16
0010
0100
1000
0000
,  // measure 17
0001
1000
0001
0000
,  // measure 18
0001
0010
0001
0100
,  // measure 19
1000
1000
0010
0010
,  // measure 20
1000
0010
1000
0010
,  // measure 21
0002
0103
2000
3010
,  // measure 22
0010
0100
1001
0000
,  // measure 23
0001
1000
2020
3030
,  // measure 24
0001
0010
0100
0010
,  // measure 25
0020
0130
0200
0310
,  // measure 26
0001
1000
0001
0000
,  // measure 27
1000
0010
2020
3030
,  // measure 28
0001
0001
0001
0000
,  // measure 29
1000
1000
1000
0000
,  // measure 30
0010
0110
0001
1001
,  // measure 31
1001
1001
0110
0110
,  // measure 32
0001
1000
0010
0100
,  // measure 33
0001
1000
0020
1030
,  // measure 34
2000
0000
0002
3003
,  // measure 35
1001
0000
1001
0000
,  // measure 36
0010
1000
0001
0100
,  // measure 37
0010
1000
0010
1010
,  // measure 38
0000
0001
0001
1000
,  // measure 39
0110
0110
1001
0001
,  // measure 40
1000
0001
0100
0010
,  // measure 41
1000
0001
0011
0100
,  // measure 42
0000
0001
1000
0001
,  // measure 43
1010
1010
1010
0001
,  // measure 44
1000
0010
0100
1000
,  // measure 45
0002
0203
0320
1030
,  // measure 46
0000
0001
1000
0010
,  // measure 47
0010
0100
0110
0001
,  // measure 48
1000
0001
0100
0001
,  // measure 49
1000
0010
1000
1010
,  // measure 50
0000
0001
0010
0100
,  // measure 51
2000
3020
0230
0300
,  // measure 52
0010
0001
0010
0000
,  // measure 53
0100
0001
0100
0000
,  // measure 54
0100
1000
0100
0010
,  // measure 55
0001
0010
1000
0100
,  // measure 56
0100
1000
0001
0000
,  // measure 57
0010
0001
0010
0000
,  // measure 58
0010
0100
0010
1000
,  // measure 59
0001
0001
0100
0100
,  // measure 60
0002
0000
0000
0003
;
