#TITLE:Zeus;
#SUBTITLE:;
#ARTIST:Pascu y Rodri;
#TITLETRANSLIT:;
#SUBTITLETRANSLIT:;
#ARTISTTRANSLIT:;
#GENRE:;
#CREDIT:;
#BANNER:Zeus-bn.jpg;
#BACKGROUND:Zeus-bg.png;
#LYRICSPATH:;
#CDTITLE:cdtitle_ukiarrow.png;
#MUSIC:Zeus.mp3;
#OFFSET:1.279999;
#SAMPLESTART:41.867908;
#SAMPLELENGTH:12.000000;
#LASTBEATHINT:0.456265;
#SELECTABLE:YES;
#BPMS:0.000000=118.000000
;
#STOPS:
;
#BGCHANGES:2.500=Zeus.mp4=1.000=0=0=1=====,
99999=-nosongbg-=1.000=0=0=0 // don't automatically add -songbackground-
;
#KEYSOUNDS:;
#ATTACKS:;

//---------------dance-single - ----------------
#NOTES:
     dance-single:
     :
     Hard:
     11:
     0.420283,0.425163,0.267453,0.395365,0.081399,506.000000,460.000000,46.000000,68.000000,0.000000,0.000000,0.420283,0.425163,0.267453,0.395365,0.081399,506.000000,460.000000,46.000000,68.000000,0.000000,0.000000:
0000
0000
0000
0000
,
0000
0000
0000
0000
,
0000
0000
0000
0000
,
0000
0000
0000
0000
,
0000
0000
0000
0000
,
0000
0000
0010
0000
0010
0000
0100
0001
,
0000
0000
0010
0000
0002
0000
0000
1000
0000
0000
0100
0000
0003
0000
0001
0000
,
0101
0000
1000
0001
0010
0100
0010
0000
,
0001
0100
0000
0100
0001
0000
2001
0000
,
3100
0000
0010
0000
0010
0100
1000
1000
,
0010
2000
0000
0001
0000
3100
1000
0000
,
1000
0001
0001
1000
0010
0100
0010
1000
,
0001
0010
0100
0010
0100
0000
1000
0000
,
1001
0120
0000
0001
,
0130
1000
0100
0000
0010
0100
1000
0100
,
0001
0000
0100
1000
0010
0010
0100
0001
,
0000
0100
0000
0110
0000
1001
0000
0010
,
0100
0010
0002
0000
0100
0000
0010
0000
,
1003
0100
0010
0000
0001
0100
0000
0010
,
0110
0000
2000
0000
0010
0020
3000
0000
,
0100
0200
0030
0301
0100
0000
0110
0000
,
1001
0000
1000
1200
0000
0320
0000
0031
,
0100
0010
1000
0100
1000
0000
0000
0100
0000
0000
1100
0000
0000
0000
0010
0000
,
0100
0010
0002
0100
0000
0023
0000
0130
,
0100
0000
0001
0000
0100
0000
1000
0000
0100
0000
0010
0000
0000
0000
0001
1000
,
0100
0100
1000
1200
0000
0320
0000
0031
,
0100
0010
1000
0001
0100
0000
0000
0100
0000
0000
2200
0000
0000
0000
3300
0000
,
1000
0100
0001
0100
0010
0020
0000
0100
,
0130
0001
0100
1000
0100
0020
0000
1030
,
0100
0000
1000
0000
1000
0001
0010
0100
,
0010
0000
0000
0000
0002
0000
0000
1000
0000
0000
0010
0000
0003
0000
0001
0000
,
0011
0000
1000
0001
0010
0100
0010
1000
,
0000
0000
1000
0000
0010
0000
0001
1000
0000
0001
1000
0000
0010
0000
0010
0000
,
0100
0001
0010
0000
0010
0100
1000
1000
,
0010
2000
0000
0001
0000
3100
1000
0000
,
1100
1000
0001
1000
0010
0100
0000
0010
,
1000
0001
0010
0100
0010
0000
0110
0000
,
1001
0120
0000
0001
,
0130
1000
0100
0000
0001
0100
1000
0100
,
0010
0000
0100
1000
0010
0010
0100
0001
,
0100
0010
0100
0002
0000
2003
0000
3010
,
1010
0002
0100
0010
,
1003
0100
0010
0000
0001
0200
0000
0310
,
0110
0000
2000
0000
0010
0020
3000
0000
,
0100
0200
0030
0301
0100
0000
0110
0000
,
1001
0000
1000
1200
0000
0320
0000
0031
,
0010
0100
1000
0010
1000
0000
0000
0100
0000
0000
1100
0000
0000
0000
1000
0000
,
0100
0010
0001
0100
0100
0020
0000
0130
,
0001
0000
1000
0000
0100
0000
0001
0000
0100
0000
0010
0000
0000
0000
0001
1000
,
0100
1000
0100
1200
0000
0320
0000
0031
,
0100
0010
1000
0001
0100
0000
0000
0100
0000
0000
0220
0000
0000
0000
0330
0000
,
0010
1000
0100
1000
0001
0020
0000
0100
,
0130
0001
0100
1000
0100
0020
0000
0031
,
0100
0000
1000
0000
1000
0000
0010
0100
,
0010
0000
0010
0000
1000
0000
0000
0100
0000
0000
0010
0000
0000
0000
0001
0000
,
0101
0100
0000
0010
0100
0010
1000
1000
,
0100
0000
0001
0000
0100
0000
0000
0010
0000
0000
0001
0000
2001
0000
0000
0000
,
3010
0100
0120
0000
2030
0000
3010
0100
,
0100
0002
0000
0023
0000
0230
0000
1300
,
1001
1000
0010
0000
0100
0001
1000
0100
,
0010
0020
0000
0032
1000
1003
1010
0000
,
0010
1000
2010
0000
0100
0000
0001
0000
,
3100
0010
0001
0100
0100
0010
0000
0010
,
1000
0000
0001
0010
0001
0001
1000
0100
,
0010
0100
0000
0110
0000
1100
0000
1000
,
0001
0000
0102
0000
1000
0000
0013
0100
,
1000
1000
0020
0000
1030
0001
0000
0001
,
0100
0100
0120
0000
1030
1002
0000
0000
,
0013
0210
0000
0000
1300
0000
0110
0000
,
1001
0000
1000
1200
0000
0320
0000
0031
,
0100
0010
1000
0100
1000
0000
0000
0100
0000
0000
1100
0000
0000
0000
0010
0000
,
0100
0010
0002
0100
0100
0023
0000
0130
,
0100
0000
0001
0000
0100
0000
1000
0000
0100
0000
0010
0000
0000
0000
0001
1000
,
0100
0100
1000
1200
0000
0320
0000
0031
,
0100
0010
1000
0001
0100
0000
0000
0100
0000
0000
2200
0000
0000
0000
3300
0000
,
1000
0100
0001
0100
0010
0020
0000
0100
,
0130
0001
0100
1000
0100
0020
0000
1030
,
0100
0000
1000
1200
0000
0320
0000
0031
,
0100
0000
0010
0000
1000
0000
0000
0100
0000
0000
2200
0000
0000
0000
3300
0000
,
0100
0010
0001
0001
0100
0020
0000
0100
,
0130
0001
0100
1000
0100
0020
0000
1030
,
0200
0300
0000
0000
;

//---------------dance-single - ----------------
#NOTES:
     dance-single:
     :
     Medium:
     6:
     0.292371,0.330682,0.220939,0.308152,0.005814,352.000000,314.000000,38.000000,53.000000,0.000000,0.000000,0.292371,0.330682,0.220939,0.308152,0.005814,352.000000,314.000000,38.000000,53.000000,0.000000,0.000000:
0000
0000
0000
0000
,
0000
0000
0000
0000
,
0000
0000
0000
0000
,
0000
0000
0000
0000
,
0000
0000
0000
0000
,
0000
1000
0100
0010
,
0001
0100
0010
0202
,
0303
0010
1000
0001
,
0010
0012
1000
0200
,
0303
0001
0010
0100
,
1000
0002
0100
0103
,
0101
0010
0001
1000
,
0010
0000
1000
0001
0010
0000
0100
0000
,
1001
0200
0010
0010
,
0301
0000
1000
0000
0010
0000
1000
0100
,
1000
0000
0100
0000
0010
0000
0001
0010
,
0001
1000
0000
0110
0000
2002
0000
0000
,
3003
0020
0100
0100
,
1030
0000
0001
0000
0010
0100
0000
0100
,
0010
0000
0022
0000
0033
2002
0000
3003
,
0000
2200
0000
3300
0000
0000
1000
0000
,
1000
0000
0001
0000
0101
0000
0000
1000
,
0100
0000
0010
0000
0011
0000
0001
0001
,
0100
2000
3100
0002
,
0103
0020
0100
0100
,
0130
0000
1000
0000
1100
0000
0000
0001
,
0100
0000
0010
0000
1010
0000
1000
1000
,
0100
0002
0103
2000
,
3100
0020
0100
0100
,
0130
1000
0100
0010
,
0001
0100
0010
2020
,
3030
0100
0001
1000
,
0010
2010
0001
0010
,
3100
0001
0010
0100
,
1000
0002
0100
0200
,
0303
0010
0001
1000
,
0010
0000
1000
0001
0010
0000
0100
0000
,
1001
0200
0000
0010
,
0301
0000
1000
0000
0010
0000
1000
0100
,
1000
0000
0100
0010
0100
0000
0010
0001
,
0010
0000
0001
0010
0000
1001
0000
1001
,
0000
0200
0000
0010
,
1300
0000
0001
0000
0010
0000
1000
0100
,
1000
0000
0010
0100
0010
0100
0000
0001
,
0100
0001
0000
1000
0010
0000
0110
0000
,
1001
0000
0001
0000
0101
0000
0000
1000
,
0100
0000
0010
0000
0011
0000
0001
0001
,
0100
2000
3100
0002
,
0103
0020
1000
0100
,
0130
0000
1000
0000
1100
0000
0000
0001
,
0100
0000
0010
0000
1010
0000
1000
1000
,
0100
0002
0103
2000
,
3100
0020
0001
0100
,
0130
1000
2000
0001
,
0001
0000
0000
0000
0100
0000
0000
0100
0000
0000
0100
0000
3000
0000
0000
0000
,
1100
0001
0002
1000
,
1000
0000
0000
0000
0100
0000
0000
0100
0000
0000
0100
0000
0003
0000
0000
0000
,
0101
1000
2000
0001
,
0001
0000
0000
0010
0000
0010
3000
0000
,
1010
0001
0002
1000
,
1000
0000
0000
0010
0000
0010
0003
0000
,
0011
0200
0010
0010
,
1300
0000
0001
0000
0010
0000
0001
0100
,
0001
0000
0100
0000
0010
0000
1000
0010
,
1000
0010
0000
0110
0000
2002
0000
0000
,
3003
0020
0100
0100
,
0031
0000
1000
0000
0100
0000
1000
0010
,
1000
0000
0100
0000
0010
0002
0000
0000
,
1003
0100
1000
0100
0000
0000
0110
0000
,
1001
0000
1000
0000
1100
0000
0000
0001
,
0100
0000
0010
0000
1010
0000
1000
1000
,
0100
0002
0103
2000
,
3100
0020
0100
0100
,
0130
0000
0001
0000
0101
0000
0000
1000
,
0100
0000
0010
0000
0011
0000
0001
0001
,
0100
2000
3100
0002
,
0103
0020
0100
0100
,
0130
0000
1000
0000
1100
0000
0000
0100
,
0010
0000
0001
0000
0011
0000
0001
0001
,
0100
0020
1030
2000
,
3100
0020
0100
0100
,
0200
0330
0000
0000
;

//---------------dance-single - ----------------
#NOTES:
     dance-single:
     :
     Easy:
     4:
     0.175256,0.211927,0.040699,0.087213,0.000000,211.000000,204.000000,7.000000,15.000000,24.000000,0.000000,0.175256,0.211927,0.040699,0.087213,0.000000,211.000000,204.000000,7.000000,15.000000,24.000000,0.000000:
0000
0000
0000
0000
,
0000
0000
0000
0000
,
0000
0000
0000
0000
,
0000
0000
0000
0000
,
0000
0000
0000
0000
,
0000
1000
0000
1000
,
0000
0001
0000
0001
,
0000
1000
0000
0001
,
0000
1000
1000
1000
,
0000
0001
0000
0001
,
0000
1000
0000
1000
,
0000
0001
0000
1000
,
1001
0001
0001
0001
,
0000
1000
0010
1000
,
0000
0001
0000
0010
,
0000
1000
0001
1000
,
0000
0001
1000
0001
,
0000
1000
0100
1000
,
0000
0001
0000
0010
,
0000
0001
1000
0001
,
0000
1000
0001
MMMM
,
MMMM
0001
0001
0100
,
0100
0010
0000
0100
,
0000
1000
0010
0010
,
0000
2000
0000
3001
,
0000
0001
0001
0100
,
0100
0010
0000
0100
,
0000
1000
0010
0010
,
0000
2000
0000
3001
,
0000
0001
0000
0001
,
0000
1000
1000
1000
,
0000
0001
0000
1000
,
0000
0001
0001
1001
,
0000
1000
0000
1000
,
0000
0001
0010
0001
,
0000
1000
0000
0001
,
1001
1000
1000
1000
,
0000
0001
0100
0001
,
0000
1000
0100
1000
,
0000
0001
1000
0001
,
0000
1000
0001
1000
,
0000
0001
0010
0001
,
0000
1000
0010
1000
,
0000
1000
0001
1000
,
0001
1000
1000
MMMM
,
MMMM
1000
1000
0010
,
0010
0100
0000
0010
,
0000
0001
0100
0100
,
0000
0002
0000
1003
,
0000
1000
1000
0010
,
0010
0100
0000
0010
,
0000
0001
0100
0100
,
0000
0002
0000
1003
,
0000
2000
0000
0000
,
0000
3002
0000
0003
,
0110
0002
0000
0000
,
0000
2003
0000
3000
,
0110
2000
0000
0000
,
0000
3002
0000
0003
,
0110
0002
0000
0000
,
0000
2003
0000
3000
,
0110
1000
0010
1000
,
0000
0001
0000
0010
,
0000
1000
0001
1000
,
0000
0001
1000
0001
,
0000
1000
0100
1000
,
0000
0001
0010
0001
,
0000
1000
0001
1000
,
1000
0001
1000
MMMM
,
MMMM
0001
0001
0100
,
0100
0010
0010
1000
,
0000
1000
0010
0010
,
0100
0002
0000
1003
,
0000
0001
0001
0010
,
0010
0100
0100
1000
,
0000
0001
0010
0010
,
0100
2000
0000
3001
,
0000
0001
0001
0100
,
0100
1000
1000
0010
,
0000
0001
1000
1000
,
0001
2000
0000
3001
,
1000
0000
0000
0000
;

//---------------dance-single - ----------------
#NOTES:
     dance-single:
     :
     Beginner:
     2:
     0.130404,0.164832,0.000000,0.075584,0.000000,157.000000,157.000000,0.000000,13.000000,0.000000,0.000000,0.130404,0.164832,0.000000,0.075584,0.000000,157.000000,157.000000,0.000000,13.000000,0.000000,0.000000:
// measure 0
0000
0000
0000
0000
,  // measure 1
0000
0000
0000
0000
,  // measure 2
0000
0000
0000
0000
,  // measure 3
0000
0000
0000
0000
,  // measure 4
0000
0000
0000
0000
,  // measure 5
0000
1000
0000
1000
,  // measure 6
0000
0002
0000
0003
,  // measure 7
0000
0001
0000
0001
,  // measure 8
0000
2000
0000
3000
,  // measure 9
0000
1000
0000
1000
,  // measure 10
0000
0002
0000
0003
,  // measure 11
0000
0001
0000
0001
,  // measure 12
0000
2000
0000
3000
,  // measure 13
0000
0010
0000
0010
,  // measure 14
0000
0100
0000
0100
,  // measure 15
0000
0010
0010
0010
,  // measure 16
0000
0100
0100
0100
,  // measure 17
0000
0010
0000
0010
,  // measure 18
0000
0100
0000
0100
,  // measure 19
0000
0010
0010
0010
,  // measure 20
0000
0200
0000
0300
,  // measure 21
0000
0001
0001
0001
,  // measure 22
0000
1000
0000
1000
,  // measure 23
0000
0010
0000
0010
,  // measure 24
0000
0100
0000
0001
,  // measure 25
0000
0001
0001
0001
,  // measure 26
0000
1000
0000
1000
,  // measure 27
0000
0100
0000
0100
,  // measure 28
0000
0010
0000
0001
,  // measure 29
0000
1000
0000
1000
,  // measure 30
0000
0002
0000
0003
,  // measure 31
0000
0001
0000
0001
,  // measure 32
0000
2000
0000
3000
,  // measure 33
0000
1000
0000
1000
,  // measure 34
0000
0001
0001
0001
,  // measure 35
0000
0001
0000
0001
,  // measure 36
0000
1000
1000
1000
,  // measure 37
0000
0010
0000
0100
,  // measure 38
0000
0010
0010
0010
,  // measure 39
0000
0100
0000
0010
,  // measure 40
0000
0100
0100
0100
,  // measure 41
0000
0010
0000
0100
,  // measure 42
0000
0010
0010
0010
,  // measure 43
0000
0100
0000
0100
,  // measure 44
0000
0200
0000
0300
,  // measure 45
0000
1000
1000
1000
,  // measure 46
0000
0001
0000
0001
,  // measure 47
0000
0100
0000
0100
,  // measure 48
0000
0010
0000
1000
,  // measure 49
0000
0001
0001
0001
,  // measure 50
0000
1000
0000
1000
,  // measure 51
0000
0100
0000
0100
,  // measure 52
0000
0010
0000
0001
,  // measure 53
0000
2000
0000
0000
,  // measure 54
0000
3000
0000
0000
,  // measure 55
0001
0002
0000
0000
,  // measure 56
0000
0003
0000
1000
,  // measure 57
1000
2000
0000
0000
,  // measure 58
0000
3000
0000
0000
,  // measure 59
0001
0002
0000
0000
,  // measure 60
0000
0003
0000
1000
,  // measure 61
1000
1000
0000
1000
,  // measure 62
0000
0001
0001
0001
,  // measure 63
0000
1000
0000
1000
,  // measure 64
0000
0001
0001
0001
,  // measure 65
0000
0010
0000
0100
,  // measure 66
0000
0010
0010
0010
,  // measure 67
0000
0100
0000
0010
,  // measure 68
0000
0200
0000
0300
,  // measure 69
0000
0001
0001
0001
,  // measure 70
0000
1000
0000
1000
,  // measure 71
0000
0010
0000
0010
,  // measure 72
0000
0100
0000
0001
,  // measure 73
0000
1000
1000
1000
,  // measure 74
0000
0001
0000
0001
,  // measure 75
0000
0010
0000
0010
,  // measure 76
0000
0100
0000
1000
,  // measure 77
0000
0010
0010
0010
,  // measure 78
0000
0100
0000
0001
,  // measure 79
0000
1000
0000
0001
,  // measure 80
0000
1000
1000
1000
,  // measure 81
1000
0000
0000
0000
;
