#TITLE:Odin;
#SUBTITLE:;
#ARTIST:Pascu y Rodri;
#TITLETRANSLIT:;
#SUBTITLETRANSLIT:;
#ARTISTTRANSLIT:;
#GENRE:;
#CREDIT:;
#BANNER:Odín-bn.jpg;
#BACKGROUND:Odín-bg.jpg;
#LYRICSPATH:;
#CDTITLE:cdtitle_ukiarrow.png;
#MUSIC:Odín.mp3;
#OFFSET:1.100000;
#SAMPLESTART:103.008018;
#SAMPLELENGTH:12.000000;
#LASTBEATHINT:0.164667;
#SELECTABLE:YES;
#BPMS:0.000000=190.000000
;
#STOPS:
;
#BGCHANGES:3.500=Odín.mp4=1.000=0=0=1=====,
99999=-nosongbg-=1.000=0=0=0 // don't automatically add -songbackground-
;
#KEYSOUNDS:;
#ATTACKS:;

//---------------dance-single - ----------------
#NOTES:
     dance-single:
     :
     Hard:
     13:
     0.587491,0.684130,0.136717,0.278902,0.000000,752.000000,727.000000,25.000000,51.000000,0.000000,0.000000,0.587491,0.684130,0.136717,0.278902,0.000000,752.000000,727.000000,25.000000,51.000000,0.000000,0.000000:
0000
0000
0000
0000
,
0000
0000
0000
0000
,
0000
0000
0000
0000
,
0000
0000
0000
0000
,
0000
0000
0000
0000
,
0000
0000
1000
0000
0010
0100
0000
0100
,
0001
0000
1000
0000
0100
0010
0000
0010
,
0001
0000
1000
0000
0010
0100
0000
0100
,
1000
0000
0001
0000
0010
0100
0000
0100
,
0001
0000
1000
0100
1000
0100
0000
0010
,
0001
0000
0100
0001
0100
0010
0000
0010
,
1000
0000
0001
0010
0001
0010
0000
0100
,
1000
0000
0010
0100
0010
0100
0000
0100
,
0001
0000
1000
0100
1000
0100
0000
0010
,
0001
0000
1000
0010
1000
0001
0000
0001
,
0100
0000
0001
1000
0001
1000
0000
1000
,
0100
0000
0010
0001
0010
0100
0000
0100
,
1000
0000
0001
0001
0100
0000
0100
0100
,
0010
0000
0010
0010
1000
0000
1000
1000
,
0100
0000
0100
0100
0010
0000
0010
0010
,
0001
0000
0001
0001
1000
0000
1000
1000
,
0001
0000
1000
0100
0010
0001
0010
0001
,
1000
0000
0001
0100
0010
1000
0010
1000
,
0001
0000
1000
0010
0100
0001
0100
0001
,
1000
0000
0001
0010
0100
1000
0100
1000
,
0001
0000
2000
0100
3100
0000
2000
0001
,
3001
0000
2000
0010
3010
0000
1000
0001
,
1001
0000
0002
0100
0103
0000
0002
1000
,
1003
0000
0002
0010
0013
0000
0001
1000
,
1001
0000
0001
0100
0010
1000
0000
1000
,
0100
0000
0010
0001
0100
0010
0000
0010
,
1000
0000
0100
0010
0001
0100
0010
1000
,
0100
0010
0022
0000
0033
0000
0000
0000
,
0000
0000
0001
0100
0001
0100
0010
1000
,
0100
0010
0001
0100
0001
0100
0010
0100
,
0001
0010
0100
0100
1000
1000
0010
0010
,
0100
0100
0002
0000
0000
0000
1003
0000
,
0001
0000
0001
0100
0001
0100
0010
1000
,
0100
0010
0001
0100
0001
0100
0010
0100
,
0001
0010
0100
0100
1000
1000
0010
0010
,
0100
0100
0001
0000
2000
0000
3001
0000
,
1000
0000
1000
0010
1000
0010
0100
0001
,
0010
0100
1000
0010
1000
0010
0100
0010
,
1000
0100
0010
0010
0001
0001
0100
0100
,
0010
0010
2000
0000
0000
0000
3001
0000
,
0010
0000
0100
1000
0100
1000
0001
1000
,
0001
0010
0100
1000
0010
1000
0001
1000
,
0100
0010
0001
0001
1000
1000
0010
0010
,
1000
1000
0200
0000
0000
0010
0000
0000
,
0310
0000
0001
0010
0001
0000
0100
0001
,
0100
0000
1000
0100
1000
0000
0010
1000
,
0010
0000
1000
0100
1000
0000
0100
0001
,
0100
0000
0001
0010
0001
0000
0010
1000
,
0010
1001
0000
1000
,
0100
1100
0000
0011
,
0000
0000
1001
0000
0000
0001
0000
0000
,
0001
1001
0000
0100
,
0000
0020
2030
3002
,
0203
0302
0023
0200
,
0330
0000
1000
0000
0010
0100
0000
0100
,
0001
0000
0001
0000
0010
0100
0000
0100
,
1000
0000
1000
0000
0100
0010
0000
0010
,
0001
0000
0001
0000
0100
0010
0000
0010
,
1000
0000
1000
0100
0010
0001
0000
0010
,
0001
0000
0100
0001
0100
0010
0000
0100
,
0010
0000
1000
0100
1000
0100
0000
0010
,
0100
0000
0010
0001
1000
0001
0000
1000
,
0001
0000
0001
0001
0100
0000
0100
0100
,
0010
0000
0010
0010
1000
0000
1000
1000
,
0100
0000
0100
0100
0010
0000
0010
0010
,
0001
0000
0001
0001
1000
0000
1000
1000
,
0001
0000
1000
0100
0001
0100
1000
0001
,
1000
0000
0001
0100
1000
0100
0001
1000
,
0001
0000
1000
0100
0001
0100
0010
0100
,
1000
0000
0001
0100
1000
0100
0010
0100
,
0001
0000
2000
0100
3100
0000
2000
0001
,
3001
0000
2000
0010
3010
0000
1000
1000
,
1001
0000
0002
0100
0103
0000
0002
1000
,
1003
0000
0002
0010
0013
0000
0001
0001
,
1001
0000
0001
0100
0010
1000
0100
0010
,
0001
0000
1000
0010
0100
0001
0010
0100
,
1000
0000
0001
0100
0010
0100
0001
1000
,
0100
0010
2002
0000
3003
0000
0000
0000
,
0000
0000
0001
0100
0001
0100
0010
1000
,
0100
0010
0001
0100
0001
0100
0010
0100
,
0001
0010
0100
0100
1000
1000
0010
0010
,
0100
0100
0002
0000
0000
0000
1003
0000
,
0001
0000
0001
0100
0001
0100
0010
1000
,
0100
0010
0001
0100
0001
0100
0010
0100
,
0001
0010
0100
0100
1000
1000
0010
0010
,
0100
0100
0001
0000
2000
0000
3001
0000
,
1000
0000
1000
0010
1000
0010
0100
0001
,
0010
0100
1000
0010
1000
0010
0100
0010
,
1000
0100
0010
0010
0001
0001
0100
0100
,
0010
0010
2000
0000
0000
0000
3001
0000
,
0010
0000
0100
1000
0100
1000
0001
0010
,
0100
1000
0001
0001
0010
0100
0100
1000
,
0100
0010
0001
0001
0010
0010
0100
0100
,
1000
1000
0200
0000
0000
0010
0000
0000
,
0310
0000
0001
0010
0001
0000
0100
0001
,
0100
0000
1000
0100
1000
0000
0010
1000
,
0010
0000
0001
0010
0001
0000
0100
0001
,
0100
0000
1000
0100
1000
0000
0010
1000
,
0010
0000
0110
0000
1000
0010
0001
0100
,
1000
0000
0110
0000
0001
0010
1000
0100
,
0001
0000
1001
0000
1000
0100
0001
0010
,
1000
2001
0000
3020
,
0000
0030
0220
0000
0000
0000
0330
0000
,
0000
0000
0000
0000
,
0000
0000
0010
0000
0000
0010
0000
0000
,
0010
2020
3030
0202
,
0303
0000
0001
0000
0000
0001
0000
0000
,
0001
2002
3003
1000
,
0100
0020
0000
0000
,
0000
0032
0000
2003
,
0000
0000
3010
0000
0100
0010
0000
0100
,
0010
1000
0001
0100
,
0001
0000
0001
0100
0001
0100
0010
1000
,
0100
0010
0001
0100
0001
0100
0010
0100
,
0001
0010
0100
0100
1000
1000
0010
0010
,
0100
0100
0001
1000
0001
1000
0010
0100
,
0010
0100
0001
0100
0001
0100
0010
1000
,
0100
0010
0001
0100
0001
0100
0010
0100
,
0001
0010
0100
0100
1000
1000
0010
0010
,
0100
0100
0001
0001
1000
0100
0100
0010
,
0001
0001
1001
0000
1000
0010
0000
0010
,
0100
0000
1001
0001
0001
0000
0100
0100
,
0010
0000
1010
0000
0001
0100
0000
0100
,
0010
0000
1010
1000
1000
0000
0100
0100
,
0010
2100
0000
0000
,
0000
0000
0000
0002
0000
0000
0000
0000
,
3000
0000
0023
0000
,
0000
0000
0000
0000
0000
0200
0030
0000
,
0000
2300
0000
3000
,
0000
0000
0000
0000
,
2002
0000
0000
0000
,
0000
0000
0000
0000
,
0000
0000
0000
0000
,
0000
0000
0000
0000
,
3003
0000
0000
0000
;

//---------------dance-single - ----------------
#NOTES:
     dance-single:
     :
     Medium:
     11:
     0.499992,0.608115,0.060155,0.349995,0.000000,640.000000,629.000000,11.000000,64.000000,0.000000,0.000000,0.499992,0.608115,0.060155,0.349995,0.000000,640.000000,629.000000,11.000000,64.000000,0.000000,0.000000:
0000
0000
0000
0000
,
0000
0000
0000
0000
,
0000
0000
0000
0000
,
0000
0000
0000
0000
,
0000
0000
0000
0000
,
0000
0000
1000
0000
0010
0000
0100
0001
,
0100
0000
0001
0000
0010
0000
0100
1000
,
0100
0000
1000
0000
0010
0100
0000
0100
,
0001
0000
1000
0000
0100
0010
0000
0010
,
0001
0000
1000
0100
1000
0010
0000
0100
,
0001
0000
0100
0001
0100
0000
0010
1000
,
0010
0000
0100
0001
0100
0010
0000
0010
,
1000
0000
0001
0010
0001
0000
1000
0100
,
1000
0000
0001
0010
0100
0010
0000
0001
,
1000
0000
0010
0100
0001
0000
0010
0100
,
1000
0000
0001
0010
0001
1000
0000
0100
,
1000
0000
0010
0100
0010
0000
1000
0001
,
1000
0000
0001
0100
0001
0000
0100
0010
,
0100
0000
0010
1000
0010
0000
1000
0100
,
1000
0000
0100
0010
0100
0000
0010
0001
,
0010
0000
0001
0100
0001
0000
0100
0010
,
0100
0000
0010
0000
1000
0100
0000
0100
,
0010
0000
0100
0000
1000
0010
0000
0010
,
0100
0000
0001
0000
0010
0100
0000
0100
,
0010
0000
0001
0100
0001
0000
1000
0010
,
1000
0000
0001
0010
0100
0000
0010
0100
,
1000
0000
0100
1000
0001
0000
1000
0001
,
0010
0000
0001
0100
0010
0000
0100
0010
,
1000
0000
0010
1000
0001
0000
1000
0001
,
0100
0000
0010
0100
0010
0100
0000
0001
,
0100
0000
0010
1000
0010
1000
0000
0010
,
0100
0000
0001
0010
0100
1000
0100
0010
,
0001
0010
0200
0000
0300
0000
0000
0000
,
0000
0000
1000
0100
1000
0100
1000
0100
,
0010
0000
0001
0100
0001
0000
1000
0100
,
1000
0000
0001
0100
0001
0100
0001
0100
,
0001
0100
0020
0000
0000
0000
1030
0000
,
1000
0000
0001
0010
0001
0010
0001
0010
,
0100
0000
1000
0010
1000
0000
0001
0010
,
0001
0000
1000
0010
1000
0010
1000
0010
,
1000
0010
0200
0000
0001
0000
0302
0000
,
1003
0000
1000
0100
1000
0100
1000
0100
,
1000
0000
0001
0100
0001
0000
1000
0100
,
1000
0000
0001
0100
0001
0100
0001
0100
,
0001
2000
0000
0001
,
3001
0000
0010
0001
1000
0000
0010
1000
,
0001
0000
0100
0000
0010
1000
0000
1000
,
0100
0000
0010
0001
0010
0000
0100
1000
,
0100
0000
0020
0000
0000
0001
0000
0000
,
0031
0000
2001
0000
0000
0001
0000
0000
,
3001
0200
0000
0320
,
0000
0000
2030
0000
0000
0100
0000
0000
,
3100
0020
0031
0002
,
1003
1001
0000
1000
,
0000
1100
0000
0100
,
0000
0000
0120
0000
0000
0001
0000
0000
,
0031
0011
0000
0010
,
0000
0200
1300
2000
,
3001
2000
3010
2020
,
3030
0000
1000
0000
0100
1000
0000
1000
,
0010
0000
0100
0000
0001
0100
0000
0010
,
1000
0000
0001
0010
0001
0010
0000
0100
,
0010
0000
0100
1000
0100
0000
0010
0001
,
0010
0000
0001
1000
0001
0010
0000
0100
,
1000
0000
0010
1000
0001
1000
0000
0001
,
0100
0000
0001
0010
0100
0010
0000
0001
,
1000
0000
0100
0010
0100
0000
1000
0001
,
1000
0000
0002
0000
0103
0000
0010
1000
,
0010
0000
2000
0000
3100
0000
0010
0001
,
0010
0000
0200
0000
1300
0000
0001
0010
,
0001
0000
1000
0010
1000
0000
0001
0100
,
0001
0000
1000
0000
0100
0010
0000
0010
,
0001
0000
0100
0000
0010
1000
0000
1000
,
0100
0000
0010
0000
0001
0010
0000
0010
,
0100
0000
1000
0100
1000
0000
0001
0010
,
0001
0000
1000
0010
1000
0010
1000
0010
,
0100
0000
0001
0100
0010
0000
1000
0010
,
0100
0000
0001
0010
0001
0010
0001
0010
,
0100
0000
1000
0001
0100
0000
0001
1000
,
0100
0000
1000
0100
1000
0100
0000
0010
,
0001
0000
0001
0100
0001
0100
0000
0010
,
1000
0000
0001
0010
0100
1000
0100
0010
,
0001
2002
3003
0000
,
0000
0000
1000
0100
1000
0100
1000
0100
,
0010
0000
0001
0100
0001
0000
1000
0100
,
1000
0000
0001
0100
0001
0100
0001
0100
,
0001
0100
0020
0000
0000
0000
1030
0000
,
1000
0000
0001
0010
0001
0010
0001
0010
,
0100
0000
1000
0010
1000
0000
0001
0010
,
0001
0000
1000
0010
1000
0010
1000
0010
,
1000
0010
0200
0000
0001
0000
0302
0000
,
1003
0000
1000
0100
1000
0100
1000
0100
,
1000
0000
0001
0100
0020
0000
1030
0100
,
0020
0000
0031
0100
0010
0100
0001
0100
,
0001
2000
0000
0001
,
3001
0000
0010
0001
1000
0000
0010
1000
,
0001
0000
0100
0001
0010
0001
0000
1000
,
0100
0000
0010
0001
0010
0000
0100
1000
,
0100
2200
0000
0000
,
3300
0000
2000
0000
0000
3200
0000
0000
,
0320
0000
0031
1000
0001
0000
1000
0001
,
1000
0000
0002
0000
0000
0023
0000
0000
,
0230
0000
1300
0001
1000
0000
0001
1000
,
0001
0000
1000
0010
1000
0010
1000
0001
,
1000
0000
0001
0100
0001
0000
1000
0100
,
1000
0000
0001
0010
0001
0010
0001
1000
,
0001
0000
1000
0100
0010
0000
0020
0000
,
0000
0030
0220
0000
0000
0000
0330
0000
,
0000
0000
0000
0000
,
0000
0000
0010
0000
0000
0010
0000
0000
,
0010
0002
0000
0200
,
0303
0000
0001
0000
0000
0001
0000
0000
,
0001
2000
0000
3200
,
0000
0320
0000
0000
,
0000
0032
0000
2003
,
0000
0000
3010
0000
0000
0100
0000
0000
,
0010
1000
0001
0001
,
0100
0000
0001
0100
0001
0100
0010
1000
,
0010
0000
1000
0100
1000
0100
0010
0001
,
0010
0000
0001
1000
0001
1000
0010
1000
,
0010
1000
0002
0000
0000
0000
0100
0000
,
0103
0000
0001
0100
0001
0100
0001
1000
,
0001
1000
0020
0000
0000
0230
0000
0000
,
0302
0000
1003
0100
1000
0100
1000
0001
,
1000
0001
2000
0000
0000
3020
0000
0000
,
2030
0000
3001
0000
0000
0001
0000
0000
,
0001
0202
0000
0303
,
0000
0000
0010
0000
0000
0010
0000
0000
,
0010
2000
3000
0001
,
0001
2000
0000
0000
,
0000
0000
0000
0002
0000
0000
0000
0000
,
3000
0000
0023
0000
,
0000
0000
0000
0000
0000
0200
0030
0000
,
0000
2300
0000
3000
,
0000
0000
0000
0000
,
2002
0000
0000
0000
,
0000
0000
0000
0000
,
0000
0000
0000
0000
,
0000
0000
0000
0000
,
3003
0000
0000
0000
;

//---------------dance-single - ----------------
#NOTES:
     dance-single:
     :
     Easy:
     6:
     0.282027,0.342065,0.103905,0.399213,0.000000,361.000000,342.000000,19.000000,73.000000,0.000000,0.000000,0.282027,0.342065,0.103905,0.399213,0.000000,361.000000,342.000000,19.000000,73.000000,0.000000,0.000000:
0000
0000
0000
0000
,
0000
0000
0000
0000
,
0000
0000
0000
0000
,
0000
0000
0000
0000
,
0000
0000
0000
0000
,
0000
1000
0010
0100
,
0000
0001
0010
0100
,
0000
1000
0010
0100
,
0000
0001
0010
0100
,
0000
1000
0100
1000
,
0000
0001
0100
0001
,
0000
0100
0100
0010
,
0000
1000
0010
1000
,
0000
0001
0100
0001
,
0000
0100
0010
0100
,
0000
0001
0001
0100
,
0000
0010
1000
0001
,
0000
1000
1000
1000
,
0000
0100
0100
0100
,
0000
0010
0010
0010
,
0000
0001
0001
0001
,
0000
1000
0100
1000
,
0000
0001
0100
0001
,
0000
1000
1000
0001
,
0001
1000
0000
1001
,
0000
0001
0010
0100
,
0000
0010
0100
1000
,
0000
0100
1000
0001
,
0000
1000
0001
0010
,
0000
0001
1000
0010
,
0000
1000
0001
0010
,
0000
0001
1000
0001
,
1000
2002
3003
0000
,
0000
1000
0100
1000
,
0100
2000
0000
3002
,
0000
0103
0001
0100
,
0001
0200
0000
0310
,
0010
1000
0100
1000
,
0100
2000
0000
3002
,
0000
1003
0010
0100
,
0001
2000
0000
3002
,
0000
1003
0010
1000
,
0010
2000
0000
3200
,
0000
0310
0001
0010
,
0001
0020
0000
0100
,
0130
0010
0001
0010
,
0001
2000
0000
3002
,
0000
0103
0100
0010
,
0010
2000
0000
3000
,
0000
2001
0000
3100
,
0000
1002
0000
0103
,
0000
2001
0000
3010
,
0000
1002
0000
0013
,
0010
0001
0000
1000
,
0000
0100
0000
0010
,
0000
0001
0000
1000
,
0000
1001
0000
1000
,
0000
2002
0000
3003
,
0000
0220
0000
0330
,
0000
1000
0010
1000
,
0000
0001
0010
0001
,
0000
1000
0100
1000
,
0000
0001
0100
0001
,
0000
1000
0010
0100
,
0000
0001
0010
0100
,
0000
1000
0100
0010
,
0000
0001
0100
0010
,
0000
0010
0010
1000
,
0000
0001
0100
0001
,
0000
0010
0010
0100
,
0000
1000
0100
1000
,
0000
0001
0010
0100
,
0000
0010
0100
1000
,
0000
1000
0100
0010
,
0000
0100
0010
0001
,
0000
1000
0010
1000
,
0010
2000
0000
3002
,
0000
0103
0001
1000
,
0010
0200
0000
0301
,
0000
1000
0100
0010
,
0000
0001
0100
0010
,
0000
1000
0001
1000
,
0001
2002
3003
0000
,
0000
1000
1000
0100
,
0010
0002
0000
2003
,
0000
3001
0100
0001
,
0010
0002
0000
1003
,
1000
0001
1000
0001
,
1000
0020
0000
0230
,
0000
0310
1000
0001
,
0100
0020
0000
2030
,
0000
3001
0010
0001
,
0010
0002
0000
2003
,
0000
3001
0010
0100
,
1000
0002
0000
1000
,
1003
0010
0010
0100
,
0100
0001
1000
0001
,
0000
2002
0000
3003
,
0000
2002
0000
3003
,
0000
2000
0000
0010
,
0000
3001
1000
2002
,
3003
0002
0000
0100
,
0000
1003
0001
2002
,
3003
1000
0010
1000
,
0010
0100
0001
1000
,
0000
0001
0010
0001
,
1000
0100
0010
0100
,
0000
0220
0000
0330
,
0000
0000
0000
0000
,
0000
0010
0000
0010
,
0000
0002
0000
0000
,
0003
0001
0000
1000
,
0000
2000
0000
3000
,
0000
0020
0000
0100
,
0000
0230
0000
0300
,
0000
0001
0000
0001
,
0000
2002
0000
3003
,
0000
0001
0100
0001
,
0100
0002
0000
2003
,
0000
3001
0010
0001
,
0010
0002
0000
0100
,
0103
0010
1000
0010
,
1000
2000
0000
3002
,
0000
1003
0100
1000
,
0100
2000
0000
0000
,
0000
3001
0000
0001
,
0000
2002
0000
3003
,
0000
1000
0000
1000
,
0000
2002
0000
3003
,
0000
2000
0000
0000
,
0000
0000
0000
0002
0000
0000
0000
0000
,
3000
0000
0023
0000
,
0000
0000
0000
0000
0000
0200
0030
0000
,
0000
2300
0000
3000
,
0000
0000
0000
0000
,
2002
0000
0000
0000
,
0000
0000
0000
0000
,
0000
0000
0000
0000
,
0000
0000
0000
0000
,
3003
0000
0000
0000
;

//---------------dance-single - ----------------
#NOTES:
     dance-single:
     :
     Beginner:
     4:
     0.190622,0.304058,0.049218,0.207809,0.000000,244.000000,235.000000,9.000000,38.000000,0.000000,0.000000,0.190622,0.304058,0.049218,0.207809,0.000000,244.000000,235.000000,9.000000,38.000000,0.000000,0.000000:
0000
0000
0000
0000
,
0000
0000
0000
0000
,
0000
0000
0000
0000
,
0000
0000
0000
0000
,
0000
0000
0000
0000
,
0000
1000
1000
1000
,
0000
0010
0000
0100
,
0000
0001
0001
0001
,
0000
0010
0000
0100
,
0000
1000
0000
0100
,
0000
0001
0000
0100
,
0000
1000
0000
0010
,
0000
0001
0000
0010
,
0000
1000
0000
0100
,
0000
0010
0000
0001
,
0000
0001
0000
0100
,
0000
0010
0000
1000
,
0000
1000
1000
1000
,
0000
0100
0000
0010
,
0000
0001
0001
0001
,
0000
0100
0000
0010
,
0000
1000
1000
1000
,
0000
0001
0001
0001
,
0000
0010
0010
0010
,
0000
0100
0100
0100
,
0000
1000
0000
0001
,
0000
1000
0000
0001
,
0000
0100
0000
0010
,
0000
0100
0000
0010
,
0000
1000
0000
0100
,
0000
0001
0000
0100
,
0000
1000
0000
0001
,
0000
1001
0000
0000
,
0000
1000
1000
1000
,
0000
0100
0000
0010
,
0000
0002
0000
0000
,
0000
0003
0000
0001
,
0000
1000
0000
0100
,
0000
0001
0000
0100
,
0000
1000
1000
1000
,
0000
2002
0000
3003
,
0000
0001
0000
0100
,
0000
1000
0000
0100
,
0000
0002
0000
0000
,
0000
0003
0000
0001
,
0000
1000
0000
0001
,
0000
0100
0000
0010
,
0000
1000
1000
1000
,
0000
2002
0000
3003
,
0000
0001
0000
0001
,
0000
0020
0000
0030
,
0000
0010
0000
0010
,
0000
0200
0000
0300
,
0000
0100
0000
0000
,
0000
1000
0000
0000
,
0000
0010
0000
0000
,
0000
0001
0000
0001
,
0000
2002
0000
3003
,
0000
2002
0000
3003
,
0000
1000
1000
1000
,
0000
0100
0000
0010
,
0000
0001
0001
0001
,
0000
0100
0000
0010
,
0000
0100
0100
0100
,
0000
0001
0000
1000
,
0000
0010
0010
0010
,
0000
1000
0000
0001
,
0000
1000
0000
0010
,
0000
0001
0000
0010
,
0000
1000
0000
0100
,
0000
0001
0000
0100
,
0000
1000
1000
1000
,
0000
0001
0001
0001
,
0000
0010
0010
0010
,
0000
0200
0000
0300
,
0000
1000
0000
0010
,
0000
0001
0000
0010
,
0000
2000
0000
0000
,
0000
3000
0000
0000
,
0000
0001
0001
0001
,
0000
1000
1000
1000
,
0000
0001
0000
1000
,
0000
2002
3003
0000
,
0000
1000
1000
1000
,
0000
0100
0000
0010
,
0000
0002
0000
0000
,
0000
0003
0000
0000
,
0000
1000
0000
0010
,
0000
0001
0000
0010
,
0000
2000
0000
0000
,
0000
3000
0000
1000
,
0000
0001
0000
0010
,
0000
1000
0000
0100
,
0000
0002
0000
0000
,
0000
0003
0000
0001
,
0001
0001
0000
0010
,
0000
0100
0000
1000
,
0000
2002
0000
0000
,
0000
3003
0000
0000
,
0000
1000
0000
0001
,
0000
2000
0000
3000
,
0000
0001
0000
1000
,
0000
0002
0000
0003
,
0000
1000
1000
1000
,
0000
0010
0000
0100
,
0000
0001
0001
0001
,
0000
0100
0000
0010
,
0000
2000
3000
0000
,
0000
0000
0000
0000
,
0000
2000
0000
0000
,
0000
3000
0000
0000
,
0000
0002
0000
0000
,
0000
0003
0000
0000
,
0000
0020
0000
0000
,
0000
0030
0000
0000
,
0000
0200
0000
0000
,
0000
0300
0000
0000
,
0000
1000
1000
1000
,
0000
0010
0010
0010
,
0000
0100
0100
0100
,
0000
0001
0001
0001
,
0000
0010
0010
0010
,
0000
0100
0100
0100
,
0000
1000
1000
1000
,
0000
2002
0000
3003
,
0000
0010
0000
0100
,
0000
0020
0000
0030
,
0000
0100
0000
0010
,
0000
0200
0000
0300
,
0000
2000
0000
3000
,
0000
0000
0000
0002
0000
0000
0000
0003
,
0000
0000
0020
0000
,
0030
0000
0000
0000
0000
0200
0000
0000
,
0000
0300
0000
0000
,
0000
0000
0000
0000
,
2002
0000
0000
0000
,
0000
0000
0000
0000
,
0000
0000
0000
0000
,
0000
0000
0000
0000
,
3003
0000
0000
0000
;

//---------------dance-single - ----------------
#NOTES:
     dance-single:
     :
     Challenge:
     17:
     0.806237,1.102209,0.191403,0.344526,0.672646,1032.000000,997.000000,35.000000,63.000000,0.000000,0.000000,0.806237,1.102209,0.191403,0.344526,0.672646,1032.000000,997.000000,35.000000,63.000000,0.000000,0.000000:
// measure 0
0000
0000
0000
0000
,  // measure 1
0000
0000
0000
0000
,  // measure 2
0000
0000
0000
0000
,  // measure 3
0000
0000
0000
0000
,  // measure 4
0000
0000
0000
0000
,  // measure 5
0000
0000
0000
0000
0100
0000
0001
0010
0001
0000
0100
0000
0000
0000
0010
0000
,  // measure 6
0100
0000
0100
0010
1000
0001
0000
1000
,  // measure 7
0100
0000
0000
0000
1000
0000
0001
0010
0100
0000
1000
0000
0000
0000
1000
0000
,  // measure 8
0100
0000
1000
0001
0100
0010
0100
0001
,  // measure 9
1000
0000
0000
0000
0001
0000
0100
0010
0100
0000
0001
0000
0000
0000
0010
0000
,  // measure 10
1000
0000
0000
0000
0010
0000
0001
0100
0001
0000
0100
0000
0001
0000
1000
0000
,  // measure 11
1001
0000
0000
0000
0001
0000
0010
0100
0010
0000
0001
0000
0000
0000
0100
0010
,  // measure 12
0100
0000
0000
0000
0001
0000
0100
0000
1000
0000
0100
0001
0100
0000
1000
0100
,  // measure 13
0001
0100
0001
0100
0010
0000
1000
0100
1000
0000
0001
0000
0000
0000
1000
0010
,  // measure 14
1000
0000
0000
0000
0010
0000
1000
0001
0100
0000
0010
0000
1000
0000
1000
0000
,  // measure 15
0010
0000
0000
0000
0100
0000
0100
0000
0001
0000
0100
0000
0000
0000
0001
0100
,  // measure 16
0010
0000
0000
0000
1000
0010
1000
0001
1000
0000
0001
0100
0001
1000
0001
0000
,  // measure 17
1001
0000
0000
0000
1000
0000
1000
0000
0001
0000
0001
0000
0010
0001
0010
0001
,  // measure 18
0010
0000
0000
0000
0001
0100
0001
0100
0001
0000
0000
0000
1000
0100
1000
0100
,  // measure 19
1000
0000
0000
0000
0010
0000
0010
0000
1001
0000
0000
0000
1000
0010
1000
0010
,  // measure 20
1000
0000
0000
0000
0001
0000
0001
0000
0101
0000
0000
0000
1000
0001
1000
0001
,  // measure 21
1000
0000
0000
0000
0100
0000
0100
0001
0100
0000
0001
0010
0001
0000
0010
0000
,  // measure 22
0100
0000
0100
1000
0100
0000
1000
0010
1000
0000
0100
0010
0100
0010
0001
0010
,  // measure 23
0001
0000
1000
0001
1000
0000
0010
0100
0010
0000
0100
0001
0100
0000
0001
0000
,  // measure 24
0100
0000
0010
0000
1000
0000
0100
0000
1000
0100
1000
0100
1000
0100
1000
0100
,  // measure 25
0010
0001
0010
0001
2000
0000
0010
0000
0010
0000
0000
0000
3001
0010
0001
0010
,  // measure 26
0002
0000
0000
0000
1003
0010
1000
0010
2000
0000
0000
0000
3001
0010
0001
0010
,  // measure 27
0002
0000
0000
0000
1003
0000
0001
0000
0200
0000
0000
0000
0301
1000
0001
1000
,  // measure 28
0002
0000
0000
0000
1003
0010
1000
0001
2000
0000
0000
0000
3001
0100
0001
0100
,  // measure 29
0020
0000
0000
0000
1030
0100
1000
0100
1000
0000
0001
0100
0001
0100
0001
0000
,  // measure 30
1000
0000
1000
0000
0001
0010
0001
0010
0001
0000
1000
0010
1000
0010
1000
0000
,  // measure 31
0001
0000
0001
0000
1000
0100
1000
0100
0010
0001
0010
0001
1000
0100
1000
0100
,  // measure 32
0010
0001
0010
0001
2000
0000
0000
0000
3000
0000
0000
0000
0000
0000
0000
0000
,  // measure 33
0000
0000
0000
0000
0001
0000
0100
0000
0001
0100
0001
0000
1000
0000
0010
0000
,  // measure 34
1000
0010
1000
0000
0001
0000
0100
0000
0010
0100
0010
0000
1000
0000
0100
0000
,  // measure 35
0010
0100
0010
0000
0100
1000
0100
1000
0001
0010
0001
0010
0100
1000
0010
1000
,  // measure 36
0001
0100
0010
1000
0002
0000
0000
0000
0000
0000
0000
0000
1000
0000
0000
0000
,  // measure 37
1003
0000
0000
0000
0001
0000
0100
0000
0010
0100
0010
0000
1000
0000
0100
0000
,  // measure 38
0010
0100
0010
0000
0001
0000
0100
0000
0001
1000
0001
0000
1000
0000
0100
0000
,  // measure 39
1000
0001
1000
0000
0100
1000
0100
0000
1000
0010
1000
0000
0010
0100
0010
0000
,  // measure 40
0100
0001
0100
0000
0001
1000
0001
0000
2000
0000
0000
0000
0001
0000
0000
0000
,  // measure 41
3001
0000
0000
0000
1000
0000
0010
0000
1000
0100
1000
0000
0001
0000
0010
0000
,  // measure 42
0001
0100
0001
0000
1000
0000
0010
0000
0100
0010
0100
0000
0001
0000
0010
0000
,  // measure 43
0100
0010
0100
0000
0010
0001
0010
0001
1000
0100
1000
0100
0010
0001
0010
0100
,  // measure 44
1000
0001
0010
0100
2000
0000
0000
0000
0000
0000
0000
0000
0001
0000
0000
0000
,  // measure 45
3001
0000
0000
0000
1000
0100
1000
0000
0100
0000
0010
0000
0001
0010
0001
0000
,  // measure 46
0010
0100
1000
1000
0100
0010
0010
0001
,  // measure 47
0010
0010
0011
0001
1001
1000
1010
0010
,  // measure 48
0110
0000
0100
0000
0001
0020
0000
0000
0000
0000
0230
0000
0000
0000
0000
0000
,  // measure 49
1300
0000
1100
0000
0001
0001
0001
0000
,  // measure 50
0100
0100
0010
1000
0010
1000
0100
1000
,  // measure 51
0010
0000
0010
0100
0100
0001
1000
1000
,  // measure 52
0100
0010
0002
0000
1000
1003
0011
0000
,  // measure 53
1010
2000
0000
0100
,  // measure 54
0001
3000
1100
0000
0000
0000
0011
0000
,  // measure 55
0000
0000
1002
0000
0000
0010
0000
0000
,  // measure 56
1000
0203
0000
0302
,  // measure 57
0000
0000
0000
0000
1003
0100
0000
0000
0100
0010
0000
0000
0010
0001
0000
0000
,  // measure 58
0001
0100
0000
0000
0010
1000
0000
0000
1000
0001
0000
0000
2002
0000
0000
0000
,  // measure 59
3003
0000
0000
0000
1000
0000
0010
1000
0010
0000
0100
0000
0001
0000
0001
0000
,  // measure 60
0001
0000
0000
0000
0010
0000
0100
1000
0100
0000
1000
0000
0000
0000
0010
0100
,  // measure 61
0001
0000
0000
0000
1000
0000
0100
1000
0100
0000
0010
0000
0001
0000
0001
0000
,  // measure 62
1000
0000
0000
0000
0001
0000
0001
0000
0100
0000
0010
1000
0010
0000
1000
0000
,  // measure 63
0001
0000
0000
0000
1000
0000
0100
1000
0100
0000
1000
0000
0001
0000
0100
0000
,  // measure 64
0010
0000
0000
0000
0100
0000
0001
1000
0001
0000
0010
0000
0000
0000
0100
0010
,  // measure 65
0001
0000
0000
0000
1000
0000
0010
1000
0010
0000
0100
0000
0001
0000
1000
0000
,  // measure 66
0010
0000
1000
1000
0001
0010
0010
0100
,  // measure 67
1000
0000
0000
0000
0001
0000
0100
0000
0002
0000
0000
0000
1003
0100
1000
0100
,  // measure 68
2000
0000
0000
0000
3010
0000
0100
0000
0020
0000
0000
0000
1030
0100
1000
0100
,  // measure 69
2000
0000
0000
0000
3100
0000
0100
0000
0020
0000
0000
0000
0031
1000
0001
1000
,  // measure 70
0002
0000
0000
0000
1003
0000
1000
0000
0200
0000
0000
0000
1300
0001
1000
0001
,  // measure 71
1000
0000
0000
0000
0001
0000
0010
0100
0010
0000
0001
1000
0001
0000
0100
0000
,  // measure 72
0010
0000
1000
0000
0100
0000
1000
0001
1000
0000
0100
0010
0100
0000
1000
0000
,  // measure 73
0001
0000
1000
0000
0010
0000
0100
0001
0100
0000
0010
1000
0010
0000
0100
0000
,  // measure 74
0001
0000
0000
0000
0000
0000
0010
0000
0000
0001
0000
0000
1000
0000
0000
0000
0010
0000
0000
0000
0100
0000
0000
0000
0001
0000
0000
0000
0100
0000
0000
0000
0010
0000
0000
0000
1000
0000
0000
0000
0001
0000
0000
0000
1000
0000
0000
0000
,  // measure 75
0001
0000
0000
0000
0010
0000
0000
0000
0100
0000
0000
0000
1000
0000
0000
0000
0000
0000
0100
0000
0000
0000
0000
0000
2000
0000
0000
0000
0000
0000
0000
0000
0000
0000
0000
0000
3001
0000
0000
0010
0000
0000
0001
0000
0000
0010
0000
0000
,  // measure 76
0002
0000
0000
0000
1003
0010
1000
0010
2000
0000
0000
0000
3010
0100
0010
1000
,  // measure 77
0020
0000
0000
0000
0130
0000
0001
0000
0200
0000
0000
0000
0301
1000
0001
1000
,  // measure 78
0002
0000
0000
0000
0013
0001
0010
0001
0020
0000
0000
0000
0130
1000
0100
1000
,  // measure 79
0001
0000
0000
0000
1000
0000
0100
0010
0100
0000
0010
0001
0010
0000
0001
0000
,  // measure 80
1000
0000
0001
0000
0001
0000
0010
0100
0010
0000
0100
1000
0100
0000
1000
0000
,  // measure 81
0001
0000
1000
0000
0001
0100
0010
0100
0001
1000
0100
0010
0001
1000
0100
0010
,  // measure 82
0100
1000
0001
0010
0200
0000
0000
0000
0300
0000
0000
0000
0000
0000
0000
0000
,  // measure 83
0000
0000
0001
0100
0001
0100
0010
1000
,  // measure 84
0100
0010
0001
0100
0001
0100
0010
0100
,  // measure 85
0001
0000
0010
0000
0100
1000
0100
1000
0010
1000
0010
1000
0001
0010
0001
0010
,  // measure 86
0001
0100
0001
1000
0002
0000
0000
0000
0000
0000
0000
0000
1000
0000
0000
0000
,  // measure 87
1003
0000
0001
0100
0001
0100
0010
1000
,  // measure 88
0100
0010
0001
0100
0001
0100
0010
0100
,  // measure 89
0001
0010
0100
1000
1010
0010
0110
0100
,  // measure 90
0101
0000
0000
0001
0000
0000
1000
0000
0010
0000
1000
0000
0001
0000
0010
0000
0001
0000
1000
0000
0100
0000
1000
0000
,  // measure 91
0001
0000
0000
0000
0100
0000
0000
0000
0001
0000
0000
0000
1000
0000
0000
0000
0000
0000
0010
0000
0000
0000
0000
0000
0100
0000
0000
0001
0000
0000
0100
0000
0000
0000
0000
0000
0001
0000
0000
0000
0000
0000
0010
0000
0000
0000
0000
0000
,  // measure 92
0100
1000
0100
0000
1000
0000
0010
0000
0100
0010
0100
0000
0001
0000
0010
0000
,  // measure 93
0100
0010
0100
0000
0010
0000
0010
0000
0001
0000
0001
0000
1000
0000
1000
0000
,  // measure 94
0100
0000
0000
0100
0000
0000
0010
0000
0001
0000
0010
0000
0001
0000
1000
0000
0001
0000
1000
0000
0100
0000
1000
0000
,  // measure 95
0100
0000
0010
0000
0100
0000
1000
0000
0000
1000
0000
0000
0010
0000
0000
0100
0000
0000
0001
0000
0000
0001
0000
0000
,  // measure 96
0010
0100
1000
1000
0100
0010
0010
0001
,  // measure 97
1000
0000
1000
0000
0001
0010
0001
0010
0100
1000
0100
1000
0010
0100
0010
0100
,  // measure 98
0001
1000
0100
0010
0200
0000
0000
0000
0000
0000
0010
0000
0000
0000
0000
0000
,  // measure 99
0310
0000
0001
0010
0001
0000
0101
0000
,  // measure 100
0100
0001
1000
0100
1000
1000
0010
1000
,  // measure 101
0010
0100
0010
0100
0001
0000
0010
0000
0001
0000
0000
0000
0101
0000
0000
0000
,  // measure 102
0100
0010
1000
0100
1000
1000
0010
1000
,  // measure 103
0010
0000
0000
0100
0000
0000
0010
0000
0000
0000
0000
0000
1000
0000
0000
0000
0010
0000
0000
0000
1000
0000
0000
0000
0001
0000
0000
0000
0010
0000
0000
0000
0100
0000
0000
0000
1000
0000
0000
0000
0001
0000
0000
0000
1000
0000
0000
0000
,  // measure 104
0100
1000
0010
0100
0001
0100
0001
0010
0001
1000
0100
1000
,  // measure 105
0001
1000
0010
0100
0001
0100
0010
1000
0001
1000
0100
0010
,  // measure 106
0001
0010
0100
2000
0000
0000
0000
0000
0000
3020
0000
0000
,  // measure 107
0000
0030
0220
0000
0000
0000
0330
0000
,  // measure 108
0000
0110
0000
1001
,  // measure 109
0000
0000
0010
0000
0000
0010
0000
0000
,  // measure 110
0010
0220
0330
2002
,  // measure 111
3003
0000
0001
0000
0000
0001
0000
0000
,  // measure 112
0001
2002
3003
1000
,  // measure 113
0100
0020
0000
0000
,  // measure 114
0000
0032
0000
2003
,  // measure 115
0000
0000
3010
0000
0000
0110
0000
0000
,  // measure 116
0110
0000
0000
0000
1001
0000
0000
0000
0001
0100
0001
0100
0010
1000
0010
1000
,  // measure 117
0001
0100
0010
1000
0001
0000
0001
0000
0100
0000
0010
0000
1000
0000
1000
0000
,  // measure 118
0100
0010
0001
0001
0010
0100
1000
1000
,  // measure 119
0010
0100
0001
0001
1000
1000
0010
0010
,  // measure 120
0100
0100
0001
1000
0001
1000
0010
0100
,  // measure 121
0010
0100
0001
0100
0001
0100
0010
1000
,  // measure 122
0100
0010
0001
0100
0001
0100
0010
0100
,  // measure 123
0001
0010
0100
0100
1000
1000
0010
0010
,  // measure 124
0100
0000
0100
0000
0001
1000
0001
0000
0000
0000
1000
0010
0100
0010
0100
0001
,  // measure 125
1000
0001
1000
0001
2000
0000
0000
0000
0000
0000
0010
0000
0000
0000
0000
0000
,  // measure 126
3001
2002
0000
3003
,  // measure 127
0000
0000
1010
0000
0000
0110
0000
0000
,  // measure 128
0101
2002
3003
1000
,  // measure 129
0001
0000
1000
0100
2000
0000
0000
0000
0000
0000
0000
0000
0000
0000
0000
0000
,  // measure 130
0000
0000
0000
0002
0000
0000
0000
0000
,  // measure 131
3000
0000
0023
0000
,  // measure 132
0000
0000
0000
0000
0000
0200
0030
0000
,  // measure 133
0000
2300
0000
3000
,  // measure 134
0000
0000
0000
0000
,  // measure 135
2002
0000
0000
0000
,  // measure 136
0000
0000
0000
0000
,  // measure 137
0000
0000
0000
0000
,  // measure 138
0000
0000
0000
0000
,  // measure 139
3003
0000
0000
0000
;
