#TITLE:Hera;
#SUBTITLE:;
#ARTIST:Pascu y rodri;
#TITLETRANSLIT:;
#SUBTITLETRANSLIT:;
#ARTISTTRANSLIT:;
#GENRE:;
#CREDIT:;
#BANNER:Hera-bn.jpg;
#BACKGROUND:Hera-bg.png;
#LYRICSPATH:;
#CDTITLE:cdtitle_ukiarrow.png;
#MUSIC:Hera.mp3;
#OFFSET:0.100000;
#SAMPLESTART:88.668060;
#SAMPLELENGTH:12.000000;
#SELECTABLE:YES;
#BPMS:0.000000=124.999992
;
#STOPS:
;
#BGCHANGES:0.250=Hera.mp4=1.000=0=0=1=====,
99999=-nosongbg-=1.000=0=0=0 // don't automatically add -songbackground-
;
#KEYSOUNDS:;
#ATTACKS:;

//---------------dance-single - ----------------
#NOTES:
     dance-single:
     :
     Hard:
     11:
     0.470609,0.506066,0.393249,0.367462,0.157944,511.000000,450.000000,61.000000,57.000000,0.000000,0.000000,0.470609,0.506066,0.393249,0.367462,0.157944,511.000000,450.000000,61.000000,57.000000,0.000000,0.000000:
// measure 0
0000
0000
0000
0000
,  // measure 1
0000
0000
0000
0000
,  // measure 2
0000
0000
0000
0000
,  // measure 3
0000
0000
0000
0000
,  // measure 4
0000
0000
0000
0000
1000
0000
0100
0000
1000
0000
0100
0000
1000
0000
0000
1000
,  // measure 5
0000
0000
1000
0000
0001
0000
0100
0000
0001
0000
0100
0000
0001
0000
0000
0001
,  // measure 6
0000
0001
1000
1000
0001
0001
1000
0010
,  // measure 7
0100
0001
2000
0000
3100
0000
0002
0000
,  // measure 8
0103
0000
0000
0000
0001
0000
0010
0000
0001
0000
0010
0000
0001
0000
0000
0001
,  // measure 9
0000
0000
0001
0000
1000
0000
0010
0000
1000
0000
0010
0000
1000
0000
0000
1000
,  // measure 10
0000
1000
0001
0001
1000
1000
0010
0100
,  // measure 11
0010
0100
0002
0000
0013
0000
2000
0000
,  // measure 12
3010
0000
0000
0000
0001
0000
0010
0000
0001
0000
0100
0000
0010
0000
0100
0002
,  // measure 13
0000
0000
0000
0000
1003
0000
0010
0000
1000
0000
0100
0000
0010
0000
0100
1000
,  // measure 14
0000
0001
0101
1000
,  // measure 15
1010
0000
0000
0000
0001
0000
0010
0000
0100
0000
1000
0002
0000
0000
2000
0000
,  // measure 16
3003
0000
0000
0000
1000
0000
0100
0000
1000
0000
0010
0000
0100
0000
0010
2000
,  // measure 17
0000
0000
0000
0000
3001
0000
0100
0000
0001
0000
0010
0200
0000
0000
0000
0000
,  // measure 18
1300
0010
0110
0001
,  // measure 19
1001
0000
0100
0000
0110
0000
1000
0001
,  // measure 20
1001
0000
0000
0000
1000
0000
1100
0000
1000
0000
2020
0000
3030
0000
1000
0001
,  // measure 21
1000
0000
0001
0000
0010
0000
0000
0100
0000
0000
1000
0000
0002
0000
0000
0000
,  // measure 22
0103
0000
0000
0000
0001
0000
0011
0000
0001
0000
0202
0000
0303
0000
0001
1000
,  // measure 23
0001
0000
1000
0000
0001
0000
0000
0100
0000
0000
0010
0000
0200
0000
0000
0000
,  // measure 24
0301
0000
1000
1010
1000
1100
0200
0000
,  // measure 25
0310
0000
0000
0000
0001
0000
0000
0100
0000
0000
0010
0000
2000
0000
0000
0000
,  // measure 26
3001
0000
1100
1100
0001
0000
0011
0011
,  // measure 27
1000
0000
0000
0000
0001
0000
1000
0001
0000
0001
1000
0000
0001
0000
0100
0000
,  // measure 28
0010
0000
1010
1010
0001
0000
0101
0101
,  // measure 29
1000
0000
0000
0000
0010
0000
1000
0001
0000
0001
1000
0000
0200
0000
0000
0000
,  // measure 30
0310
0000
0000
0000
0001
0000
0100
0000
0001
0000
0100
0000
0001
0000
0000
0001
,  // measure 31
0000
0000
0001
0000
1000
0000
0010
0000
1000
0000
0010
0000
1000
0000
0000
1000
,  // measure 32
0000
0001
1000
0100
0010
0001
0010
0100
,  // measure 33
1000
0010
2000
0000
3100
0000
0002
0000
,  // measure 34
0103
0000
0000
0000
1000
0000
0010
0000
1000
0000
0010
0000
1000
0000
0000
1000
,  // measure 35
0000
0000
1000
0000
0001
0000
0100
0000
0001
0000
0100
0000
0001
0000
0000
0001
,  // measure 36
0000
1000
0100
0010
0001
0010
0100
1000
,  // measure 37
0010
0100
0002
0000
0103
0000
2000
0001
,  // measure 38
3001
0000
0000
0000
0001
0000
0010
0000
0001
0000
0100
0000
0010
0000
0100
0002
,  // measure 39
0000
0000
0000
0000
1003
0000
0010
0000
1000
0000
0100
0000
0010
0000
0100
1000
,  // measure 40
0000
0001
0101
1000
,  // measure 41
1010
0000
0000
0000
0001
0000
0010
0000
0100
0000
1000
0002
0000
0000
2000
0000
,  // measure 42
3003
0000
0000
0000
1000
0000
0100
0000
1000
0000
0010
0000
0100
0000
0010
2000
,  // measure 43
0000
0000
0000
0000
3001
0000
0100
0000
0001
0000
0010
0200
0000
0000
0000
0000
,  // measure 44
1300
0010
0110
0001
,  // measure 45
1001
0000
0100
0000
0110
0000
1000
0001
,  // measure 46
1001
0000
0000
0000
1000
0000
1100
0000
1000
0000
2020
0000
3030
0000
1000
0001
,  // measure 47
1000
0000
0001
0000
0010
0000
0000
0100
0000
0000
1000
0000
0002
0000
0000
0000
,  // measure 48
0103
0000
0000
0000
0001
0000
0011
0000
0001
0000
0202
0000
0303
0000
0001
1000
,  // measure 49
0001
0000
1000
0000
0001
0000
0000
0100
0000
0000
0010
0000
0200
0000
0000
0000
,  // measure 50
0301
0000
1000
1010
1000
1100
0200
0000
,  // measure 51
0310
0000
0000
0000
0001
0000
0000
0100
0000
0000
0010
0000
2000
0000
0000
0000
,  // measure 52
3001
0000
1100
1100
0001
0000
0011
0011
,  // measure 53
1000
0000
0000
0000
0001
0000
1000
0001
0000
0001
1000
0000
0001
0000
0100
0000
,  // measure 54
0010
2000
0010
3200
,  // measure 55
0010
2300
0010
3001
,  // measure 56
1010
2000
0100
3020
,  // measure 57
0100
2030
0100
3001
,  // measure 58
1100
0000
1000
0000
0100
0010
0000
0001
,  // measure 59
0010
0100
1000
0000
1001
0000
0001
0000
,  // measure 60
1001
0000
0000
0000
1000
0000
0100
0000
1000
0000
0010
0000
0100
0000
0010
2000
,  // measure 61
0000
0000
0000
0000
3001
0000
0100
0000
0001
0000
0010
0000
0100
0000
0010
0001
,  // measure 62
0000
1000
1010
0001
,  // measure 63
0101
0000
0000
0000
1000
0000
0100
0000
0010
0000
0001
2000
0000
0000
0002
0000
,  // measure 64
3003
0000
0000
0000
0001
0000
0010
0000
0001
0000
0100
0000
0010
0000
0100
0002
,  // measure 65
0000
0000
0000
0000
1003
0000
0010
0000
1000
0000
0100
0020
0000
0000
0000
0000
,  // measure 66
0031
0100
0110
1000
,  // measure 67
1001
0000
0010
0000
0110
0000
0001
1000
,  // measure 68
1001
0000
0000
0000
0001
0000
0011
0000
0001
0000
0202
0000
0303
0000
0001
0100
,  // measure 69
0001
0000
1000
0000
0010
0000
0000
0100
0000
0000
0010
0000
2000
0000
0000
0000
,  // measure 70
3001
0000
0000
0000
1000
0000
1100
0000
1000
0000
2020
0000
3030
0000
1000
0010
,  // measure 71
1000
0000
0100
0000
1000
0000
0000
0010
0000
0000
0100
0000
0002
0000
0000
0000
,  // measure 72
1003
0000
0001
0101
0001
0011
0020
0000
,  // measure 73
0130
0000
0000
0000
1000
0000
0000
0010
0000
0000
0100
0000
0002
0000
0000
0000
,  // measure 74
1003
0000
0011
0011
1000
0000
1100
1100
,  // measure 75
0001
0000
0000
0000
1000
0000
0001
1000
0000
1000
0001
0000
1000
0000
0010
0000
,  // measure 76
0100
0000
0110
0110
1000
0000
1001
1001
,  // measure 77
0010
0000
0000
0000
1000
0000
0001
1000
0000
1000
0002
0000
0000
0000
0103
0001
,  // measure 78
0100
2002
3003
0000
;

//---------------dance-single - ----------------
#NOTES:
     dance-single:
     :
     Medium:
     7:
     0.356411,0.404853,0.161168,0.425483,0.000000,387.000000,362.000000,25.000000,66.000000,0.000000,0.000000,0.356411,0.404853,0.161168,0.425483,0.000000,387.000000,362.000000,25.000000,66.000000,0.000000,0.000000:
0000
0000
0000
0000
,
0000
0000
0000
0000
,
0000
0000
0000
0000
,
0000
0000
0000
0000
,
0000
0000
1000
0001
0100
0000
0010
0000
,
1000
0000
0001
1000
0100
0000
0010
0000
,
0001
0000
1000
0010
1000
0000
0001
0100
,
0001
2000
3100
0002
,
0103
0000
0001
1000
0010
0000
0100
0000
,
0001
0000
1000
0001
0010
0000
0100
0000
,
1000
0000
0001
0100
0001
0000
1000
0100
,
1000
0002
0013
2000
,
3010
0000
1001
0000
0001
0000
0010
0100
,
1000
0000
1001
0000
1000
0000
0010
0100
,
0001
2000
3100
0020
,
0031
0000
0001
0010
0100
0000
2200
0000
,
3300
0000
1000
0001
0100
0000
0010
0000
,
1000
0000
0001
1000
0100
0000
0010
0000
,
0001
2000
3100
0002
,
0103
2000
3010
0002
,
0013
0000
1000
1000
0100
0100
0000
0010
,
0001
2000
3010
0002
,
0103
0000
0001
0001
0100
0100
0000
0001
,
1000
0002
0013
2000
,
3100
0000
1000
1000
0100
0100
0020
0000
,
0031
0200
1300
0020
,
0130
0000
2100
0100
3100
0000
0012
0010
,
0013
0000
0001
1000
0001
0000
0100
0000
,
0010
0000
1020
1000
1030
0000
0201
0001
,
0301
0000
1000
0000
0100
0000
0010
0001
,
0010
0000
0001
1000
0100
0000
0010
0000
,
0001
0000
1000
0001
0100
0000
0010
0000
,
1000
0000
0001
0010
0001
0000
1000
0010
,
1000
0002
0013
2000
,
3010
0000
0001
1000
0010
0000
0100
0000
,
0001
0000
1000
0001
0010
0000
0100
0000
,
1000
0000
0001
0100
0001
0000
1000
0100
,
1000
0001
2000
0000
3100
0000
0002
0000
,
0103
0000
1001
0000
0001
0000
0010
0100
,
1000
0000
1001
0000
1000
0000
0010
0100
,
0001
2000
3100
0020
,
0031
0000
0001
0010
0100
0000
2200
0000
,
3300
0000
1000
0001
0100
0000
0010
0000
,
1000
0000
0001
1000
0100
0000
0010
0000
,
0001
2000
3100
0002
,
0103
2000
3010
0002
,
0013
0000
1000
1000
0100
0100
0000
0010
,
0001
2000
3010
0002
,
0103
0000
0001
0001
0100
0100
0000
0001
,
1000
0002
0013
2000
,
3100
0000
1000
1000
0100
0100
0020
0000
,
0031
0200
1300
0020
,
0130
0000
2100
0100
3100
0000
0012
0010
,
0013
0000
0001
1000
0001
0000
0100
0000
,
0010
2000
3100
0020
,
0130
2000
3001
0020
,
0031
0002
0103
0020
,
0130
0002
1003
0200
,
1300
0000
0001
0000
0001
0010
0000
0100
,
1000
0010
1001
0100
,
1001
0000
1000
0001
0100
0000
0010
0000
,
1000
0000
0001
1000
0100
0000
0010
0000
,
0001
1000
1010
0001
,
0011
0000
1000
0100
0010
0000
0002
0000
,
1003
0000
0001
1000
0010
0000
0100
0000
,
0001
0000
1000
0001
0010
0000
0100
0000
,
1000
1100
1000
0011
,
0001
1001
1000
0101
,
0001
0000
1000
1000
0010
0010
0000
0100
,
0001
0020
0130
2000
,
3001
0000
0001
0001
0010
0010
0000
0001
,
1000
0020
0130
0002
,
1003
0000
1000
0010
1000
0001
2000
0000
,
3001
0200
0310
2000
,
3001
0000
2100
0100
3100
0000
0012
0010
,
0013
0000
0001
1000
0001
0000
0100
0000
,
0010
0000
1020
1000
1030
0000
0201
0001
,
0301
0000
1000
0100
0010
0000
0001
1000
,
0001
0220
0330
0000
;

//---------------dance-single - ----------------
#NOTES:
     dance-single:
     :
     Easy:
     5:
     0.250501,0.278336,0.174061,0.373909,0.000000,272.000000,245.000000,27.000000,58.000000,0.000000,0.000000,0.250501,0.278336,0.174061,0.373909,0.000000,272.000000,245.000000,27.000000,58.000000,0.000000,0.000000:
0000
0000
0000
0000
,
0000
0000
0000
0000
,
0000
0000
0000
0000
,
0000
0000
0000
0000
,
0000
1000
0100
0010
,
0001
0001
0100
0010
,
1000
1000
0010
0001
,
0100
2000
3000
0002
,
0003
0001
0010
0100
,
1000
1000
0010
0100
,
0001
0001
0100
1000
,
0010
0002
0003
2000
,
3000
0001
0010
0100
,
1100
1000
0010
0100
,
0101
0002
0003
2000
,
3000
0001
0010
0100
,
0000
1000
0100
0010
,
0001
0001
0100
0010
,
1000
2000
3000
0002
,
0003
0200
0300
0020
,
0030
1000
1100
0000
,
1000
0002
0013
0200
,
1300
0001
0101
0000
,
0001
2000
3010
0200
,
0301
1000
1100
2000
,
3001
0020
0130
0200
,
1300
1100
0000
0011
,
0000
1001
1000
0100
,
0000
0110
0000
1001
,
0000
1000
0010
0100
,
0001
0001
0100
0010
,
1000
1000
0100
0010
,
0001
0001
0010
1000
,
0100
0002
0003
2000
,
3000
0001
0010
0100
,
1000
1000
0010
0100
,
0001
2000
3000
0002
,
0003
0100
0100
0010
,
0010
1000
0001
0010
,
0011
0001
1000
0100
,
1100
2000
3000
0002
,
0003
0100
0010
1000
,
0000
1000
0010
0100
,
0001
0001
0010
0100
,
1000
2000
3000
0002
,
0003
0200
0300
0020
,
0030
1000
1100
0000
,
1000
0020
0130
0002
,
1003
0001
0101
0000
,
0001
2000
3100
0020
,
0031
1000
1100
0200
,
0310
0002
1003
0020
,
0130
0101
0000
1010
,
0000
1000
0100
0110
,
0000
0020
0000
0032
,
0000
2003
0000
3200
,
0000
2300
0000
3020
,
0000
0230
0000
0302
,
0000
0013
0001
0010
,
0001
1000
0100
2000
,
3000
1000
0100
0010
,
0001
0001
0100
0010
,
1000
0002
0003
2000
,
3000
0001
0010
0100
,
0000
1000
0100
0010
,
0001
0001
0100
0010
,
1000
0002
1003
2000
,
3001
0200
0310
0020
,
0130
0001
0101
0000
,
0001
2000
3010
0200
,
0301
1000
1100
0000
,
1000
0002
0013
0200
,
1300
0001
0101
0002
,
1003
0020
0130
0200
,
0301
0101
0000
0011
,
0000
0010
0100
1000
,
1001
0110
0000
1001
,
0000
1000
0010
0100
,
0001
2002
3003
0000
;

//---------------dance-single - ----------------
#NOTES:
     dance-single:
     :
     Beginner:
     3:
     0.166693,0.227730,0.141828,0.083807,0.000000,181.000000,159.000000,22.000000,13.000000,0.000000,0.000000,0.166693,0.227730,0.141828,0.083807,0.000000,181.000000,159.000000,22.000000,13.000000,0.000000,0.000000:
0000
0000
0000
0000
,
0000
0000
0000
0000
,
0000
0000
0000
0000
,
0000
0000
0000
0000
,
0000
1000
0000
1000
,
0000
0010
0000
0010
,
0000
0100
0000
0100
,
0000
0002
0000
0003
,
0000
0001
0000
0001
,
0000
0010
0000
0010
,
0000
0100
0000
0100
,
0000
2000
0000
3000
,
0000
0001
0001
0001
,
0000
0010
0010
0010
,
0000
0100
0000
0100
,
0000
1000
1000
1000
,
0000
0001
0001
0001
,
0000
0010
0010
0010
,
0000
0200
0000
0300
,
0000
2000
0000
3000
,
0000
1001
1001
0000
,
0000
1000
0000
0001
,
0000
1001
1001
0000
,
0000
0001
0000
1000
,
0000
1001
1001
0000
,
0000
0001
0000
1000
,
0000
1000
0000
0001
,
0000
1000
1000
1000
,
0000
0001
0000
1000
,
0000
0001
0001
0001
,
0000
0001
0000
0001
,
0000
0010
0000
0010
,
0000
0100
0000
0100
,
0000
1000
0000
1000
,
0000
0001
0000
0001
,
0000
0010
0000
0010
,
0000
0100
0000
0100
,
0000
1000
0000
1000
,
0000
0001
0001
0001
,
0000
0010
0010
0010
,
0000
0100
0000
0100
,
0000
1000
1000
1000
,
0000
0001
0001
0001
,
0000
0010
0010
0010
,
0000
0200
0000
0300
,
0000
2000
0000
3000
,
0000
1001
1001
0000
,
0000
1000
0000
0001
,
0000
1001
1001
0000
,
0000
0001
0000
1000
,
0000
1001
1001
0000
,
0000
1000
0000
0001
,
0000
1000
0000
0001
,
0000
1000
1000
1000
,
0000
0002
0000
0003
,
0000
0020
0000
0030
,
0000
0200
0000
0300
,
0000
2000
0000
3000
,
0000
0001
0000
1000
,
0000
1000
0000
0001
,
0000
0001
0001
0001
,
0000
0010
0010
0010
,
0000
0100
0000
0100
,
0000
1000
1000
1000
,
0000
0001
0001
0001
,
0000
0010
0010
0010
,
0000
0200
0000
0300
,
0000
2000
0000
3000
,
0000
1001
1001
0000
,
0000
0001
0000
1000
,
0000
1001
1001
0000
,
0000
1000
0000
0001
,
0000
1001
1001
0000
,
0000
0001
0001
0001
,
0000
1001
0000
1001
,
0000
1000
1000
1000
,
0000
1001
0000
1001
,
0000
0001
0001
0001
,
0001
0002
0003
0000
;

//---------------dance-single - ----------------
#NOTES:
     dance-single:
     :
     Challenge:
     15:
     0.534156,0.835010,0.251422,0.406142,0.351345,580.000000,541.000000,39.000000,63.000000,0.000000,0.000000,0.534156,0.835010,0.251422,0.406142,0.351345,580.000000,541.000000,39.000000,63.000000,0.000000,0.000000:
0000
0000
0000
0000
,
0000
0000
0000
0000
,
0000
0000
0000
0000
,
0000
0000
0000
0000
,
0000
0000
0000
0000
1000
0000
0010
0000
0100
0000
1000
0000
0100
0000
0000
0010
,
0000
0000
0100
0000
0001
0000
0010
0000
0100
0000
0001
0000
0100
0000
0000
0010
,
0000
0100
0001
0100
1000
0001
0010
1000
,
0010
0001
2000
0000
3010
0000
0002
0000
,
0013
0000
0000
0000
0001
0000
0100
0000
0010
0000
0001
0000
0010
0000
0000
0100
,
0000
0000
0010
0000
1000
0000
0100
0000
0010
0000
1000
0000
0010
0000
0000
0100
,
0000
0010
1000
0001
0100
1000
0001
0010
,
1000
0000
0010
0000
0002
0000
0000
0000
0103
0000
0000
0000
1000
0000
0100
0010
,
0100
1000
0001
0000
0021
0000
0000
0000
0031
0000
0100
0000
0010
0000
0100
0102
,
0000
0000
0000
0000
1003
0000
0010
0000
1000
0000
0100
0000
0010
0000
0001
1001
,
0000
0101
1100
1010
,
0011
0000
0000
0000
0001
0000
0010
0000
1000
0000
0010
0200
0000
0000
2000
0000
,
3300
0000
0000
0000
1000
0000
0100
0000
0010
0000
1000
0000
0010
0000
0100
2000
,
0000
0000
0000
0000
3001
0000
0100
0000
0010
0000
0100
0002
0000
0000
0000
0000
,
1003
0000
0000
0000
0010
1000
0010
1000
0001
0100
0001
0000
0001
0100
0001
0100
,
0010
1000
0010
0000
1000
0100
1000
0100
0010
0001
0010
0000
0010
0001
0010
0001
,
1000
0100
1000
0000
0200
0000
0301
0000
0200
0000
1300
0000
0000
0000
1000
0010
,
0100
0000
1000
0000
0100
0000
0000
0001
0000
0000
0010
0000
0200
0000
0000
0000
,
0301
0000
0000
0000
0200
0000
0301
0000
0200
0000
1300
0000
0000
0000
0001
0010
,
0100
0000
0001
0000
0100
0000
0000
0010
0000
0000
0001
0000
0200
0000
0000
0000
,
0310
0100
0010
0000
0200
0000
1300
0000
0200
0000
0301
0000
0210
0000
0000
0000
,
0302
0000
0000
0000
1003
0000
0000
0100
0000
0000
0010
0000
1000
0000
0000
0000
,
0110
0000
1100
1100
0001
0000
0011
0011
,
1000
0000
0000
0000
0001
0000
1000
0010
0000
0010
0100
0001
1000
0000
1000
0001
,
0100
0010
1000
0001
0100
0000
0100
0000
1010
0000
0000
0000
0010
0000
0010
0000
,
0101
0000
0000
0000
0010
0000
1000
0001
0000
0001
2000
0000
0000
0000
3100
0010
,
2000
0000
0000
0000
3010
0000
0001
0000
0010
0000
0100
0000
0001
0000
0000
0001
,
0000
0000
1000
0000
0010
0000
0100
0000
1000
0000
0010
0000
0100
0000
0000
1000
,
0000
0100
0001
0010
1000
0001
0100
1000
,
0010
0100
0002
0000
0013
1000
0010
0100
,
0010
0001
0010
0100
0010
0000
1000
0000
0010
0000
0100
0000
1000
0000
0000
0010
,
0000
0000
0100
0000
1000
0000
0100
0000
0001
0000
0010
0000
0100
0000
0000
0001
,
0000
0100
0010
0001
1000
0100
0001
1000
,
0010
0000
0001
0000
2000
0000
0000
0000
3010
0000
0000
0000
0001
0000
0010
0100
,
0010
0000
0001
0000
1000
0000
0010
0000
0100
0000
1000
0000
0100
0000
0010
0002
,
0000
0000
0000
0000
0013
0000
0100
0000
0001
0000
0100
0000
0010
0000
1000
0100
,
0000
0101
0011
1010
,
1100
0000
0000
0000
1000
0000
0100
0000
0010
0000
1000
0020
0000
0000
2000
0000
,
3030
0000
0000
0000
0010
0000
0001
0000
0100
0000
0010
0000
0001
0000
0010
2000
,
0000
0000
0000
0000
3001
0000
0100
0000
0001
0000
0010
0200
0000
0000
0000
0000
,
0301
0000
0000
0000
0100
1000
0100
1000
0001
0010
0001
0010
0100
1000
0100
1000
,
0010
0100
0010
0100
0001
0010
0001
0010
0100
1000
0100
1000
0010
0100
0010
0100
,
0001
1000
0001
0000
0200
0000
1300
0000
0200
0000
0301
0000
0000
0000
1000
0010
,
0100
0000
1000
0000
0100
0000
0000
0001
0000
0000
0010
0000
0200
0000
0000
0000
,
0301
0000
0000
0000
0200
0000
0301
0000
0200
0000
1300
0000
0000
0000
1000
0100
,
0010
0000
1000
0000
0010
0000
0000
0001
0000
0000
0100
0000
0020
0000
0000
0000
,
0031
0000
0020
0031
0020
1030
0200
0000
,
0010
0000
0000
0000
1300
0000
0000
0100
0000
0000
0010
0000
1000
0000
0000
0000
,
0110
0000
0001
0001
1010
0000
1000
1000
,
0101
0000
0000
0000
0001
0000
1000
0001
0000
0001
1000
0000
0001
0000
0010
1000
,
0001
0000
0001
0100
2000
0000
0000
0000
0010
0000
0000
0000
3200
0000
0000
0000
,
0001
2300
3002
0100
,
0023
0032
0010
0203
,
1000
0302
2003
0100
,
3010
0000
1010
0000
1000
1100
0000
0001
,
0011
0100
0110
0000
1001
0000
1001
0000
,
0110
0000
0000
0000
1000
0000
0010
0000
0100
0000
1000
0000
0100
0000
0010
2000
,
0000
0000
0000
0000
3001
0000
0100
0000
0010
0000
0001
0000
0010
0000
0100
0001
,
0000
0011
1010
1100
,
0101
0000
0000
0000
1000
0000
0100
0000
0010
0000
1000
0020
0000
0000
0002
0000
,
0033
0000
0000
0000
0001
0000
0010
0000
0001
0000
0100
0000
0010
0000
0100
0002
,
0000
0000
0000
0000
1003
0000
0010
0000
1000
0000
0100
0020
0000
0000
0000
0000
,
0031
0000
0000
0000
0100
0001
0100
0001
0100
0010
0100
0010
0100
0001
0100
0001
,
0100
1000
0100
1000
0001
0010
0001
0010
0100
0010
0100
0010
1000
0010
1000
0010
,
1000
0001
1000
0001
0020
0000
1030
0000
0020
0000
0031
0000
0000
0000
0001
0100
,
0010
0000
0001
0000
0010
0000
0000
0100
0000
0000
0001
0000
1000
0000
0000
0000
,
0110
0000
0000
0000
0200
0000
1300
0000
0200
0000
0301
0000
0000
0000
1000
0010
,
0100
0000
1000
0000
0100
0000
0000
0010
0000
0000
1000
0000
0200
0000
0000
0000
,
0301
0000
0200
0301
0200
1300
0020
0000
,
0130
0000
0000
0000
1000
0000
0000
0100
0000
0000
0010
0000
2000
0000
0000
0000
,
3100
0000
1000
1000
0110
0000
0010
0010
,
1001
0000
0000
0000
1000
0000
0001
0010
0000
0010
0100
1000
0001
0000
0001
1000
,
0010
0100
0001
1000
0010
0000
0010
0000
1001
0000
0000
0000
0100
0000
0100
0000
,
1001
0000
0000
0000
1000
0000
0001
0010
0100
1000
0002
0000
0000
0000
1003
0100
,
0001
0220
0330
0000
;
