#TITLE:Anastasia;
#SUBTITLE:;
#ARTIST:Pascu y Rodri;
#TITLETRANSLIT:;
#SUBTITLETRANSLIT:;
#ARTISTTRANSLIT:;
#GENRE:;
#CREDIT:;
#BANNER:Anastasia-bn.jpg;
#BACKGROUND:Anastasia-bg.jpg;
#LYRICSPATH:;
#CDTITLE:cdtitle_ukiarrow.png;
#MUSIC:Anastasia.mp3;
#OFFSET:0.960000;
#SAMPLESTART:39.407917;
#SAMPLELENGTH:12.000000;
#SELECTABLE:YES;
#BPMS:0.000000=150.000000
;
#STOPS:211.000000=0.400000
;
#BGCHANGES:2.500=Anastasia.mp4=1.000=0=0=1=====,
308.500=Anastasia-bg.jpg=1.000=0=0=1=====,
99999=-nosongbg-=1.000=0=0=0 // don't automatically add -songbackground-
;
#KEYSOUNDS:;
#ATTACKS:;

//---------------dance-single - ----------------
#NOTES:
     dance-single:
     :
     Challenge:
     15:
     0.635940,0.622329,0.113519,0.137845,0.198659,549.000000,535.000000,14.000000,17.000000,2.000000,0.000000,0.635940,0.622329,0.113519,0.137845,0.198659,549.000000,535.000000,14.000000,17.000000,2.000000,0.000000:
0000
0000
0000
0000
,
0000
0000
0000
0000
,
0000
0000
0000
0000
,
0000
0000
0000
0000
,
0000
0000
0000
0000
,
0000
0000
0010
0100
0001
1000
0001
0100
,
0010
0000
0010
0100
1000
0001
1000
0100
,
0010
0010
0001
0100
0010
1000
0100
0010
,
0001
0100
1000
0010
0100
0001
0010
0100
,
1000
1000
0001
0100
0010
1000
0001
0100
,
0010
0010
1000
0100
0010
0001
1000
0100
,
0010
0010
0001
1000
0100
1000
0001
0100
,
0010
0010
1000
0001
0100
0010
0010
1000
,
0001
0000
0001
0000
1001
0000
0000
1000
0000
0000
1000
0000
0000
0000
0000
0000
,
0001
0000
0000
0000
0010
0000
0000
0010
0000
0000
0010
0000
0100
0000
0000
0000
,
1000
0000
2001
0000
3020
0000
0031
0010
,
1000
0000
0001
0100
1000
0100
0001
0000
,
1001
0000
1000
0010
0210
0000
0301
0010
,
0210
0000
1300
0001
0200
0301
0001
1000
,
0200
1300
0001
0010
0020
0130
1000
0010
,
0020
0130
0001
1000
0100
0010
1000
0001
,
0100
0010
1000
1000
0010
0010
1000
1000
,
0100
0010
0001
0001
0100
0100
0010
0010
,
0100
0001
1000
0100
1000
0001
1000
0010
,
1000
0001
0001
0010
0001
1000
0001
0100
,
0001
0000
1000
0000
1010
0000
0010
0100
0000
0000
0000
0000
0100
0001
1000
0000
,
0100
0000
0010
0000
0001
0000
0100
0001
0000
1000
0001
0000
1000
0000
0100
0010
,
0000
0100
1000
0000
0001
0000
0100
0010
1000
0000
0000
0000
0001
0010
0100
0000
,
0010
0000
0000
0000
0001
0000
0100
0001
0000
0100
1000
0000
0200
0000
0000
0000
,
0320
0000
0000
0000
1030
0000
0100
0010
0001
0000
0000
0000
0010
0100
1000
0000
,
0001
0000
0000
0000
1000
0000
0010
0100
0000
0001
1000
0000
1001
0000
0000
0000
,
0100
0000
0010
0000
0001
0000
1000
0100
0010
0000
0000
0000
0001
0010
0100
0000
,
0001
0000
0000
0000
0100
0000
0000
0100
0000
0000
0100
0000
0010
0000
0000
0000
,
0010
0000
1000
0001
1000
0001
1000
0001
,
1000
0001
0100
0010
0100
0010
0100
0010
,
0100
0010
1000
0100
1000
0100
0010
0001
,
0010
0001
1000
0010
1000
0010
0100
0001
,
0000
0000
1000
0000
1000
0000
1000
0100
,
1000
0000
1000
0100
1000
0001
1000
0010
,
1000
0000
0001
0100
0001
1000
0001
0010
,
0001
0001
1000
0100
1000
0001
1000
0010
,
1000
0000
0001
0010
0100
1000
0001
0001
,
0010
0010
0100
1000
0001
0010
0100
0100
,
1000
1000
0001
0100
0010
1000
0001
0001
,
0100
0100
0010
1000
0001
0100
0010
0010
,
1000
1000
0002
0000
0013
0010
0002
0000
,
1003
1000
0001
0001
0200
0000
0010
0310
,
1001
1001
0001
0010
0001
0010
0001
1000
,
0001
0100
0010
1000
0010
1000
0010
0100
,
0001
1000
2001
0000
0001
0000
0100
0000
,
3100
1200
1000
0310
,
0110
0000
0010
0100
0010
0100
0010
0001
,
0010
0000
0001
0000
1000
0001
1000
0001
1000
0001
1000
0001
1000
0000
0000
0000
,
1000
0100
1000
1000
0001
0100
0001
0001
,
1000
0010
0100
0100
0001
0010
0100
0100
,
1000
0001
0101
0100
0001
1000
1100
0100
,
0010
0001
1000
1000
0010
1000
0001
0001
,
1000
0100
0001
0100
1000
0100
0001
0001
,
1000
0010
0001
0010
1000
0001
1000
0000
,
0001
0100
0001
0001
1000
0010
0100
0100
,
0001
1000
0100
0010
0010
1000
0001
0000
,
0001
0000
0001
0100
0010
0000
0000
0000
0010
1000
0001
0000
0100
0000
0000
0000
,
0010
0000
1000
0010
0000
0100
0010
0000
1000
0000
0001
0100
0000
0010
0100
0000
,
0001
0000
0010
0100
0001
0000
0000
0000
0010
0100
1000
0000
0100
0000
0000
0000
,
1000
0000
0001
0100
0000
0010
1000
0000
0002
0000
0000
0000
0203
0000
0000
0000
,
0310
0000
1000
0001
0100
0000
0000
0000
0010
0001
1000
0000
0010
0000
0000
0000
,
0100
0000
0001
1000
0000
0100
0010
0000
0001
0000
0000
0000
0001
0000
0001
0000
,
0100
0000
0001
0010
0100
0000
0000
0000
0100
1000
0010
0000
1000
0000
0000
0000
,
0001
0000
0100
0010
0000
1000
0001
0000
1000
0000
0001
0000
1000
0010
0001
0010
,
1000
1000
0100
0100
,
0010
0010
0001
0001
,
1000
0100
1000
0000
0100
0010
0100
0000
,
0010
0000
0001
0000
0010
0000
0000
0000
0001
0000
0100
0000
0010
0100
0010
0100
,
0010
1000
0010
1000
0010
1000
0001
0001
,
1000
0100
1000
0100
1000
0100
0001
0001
,
1000
1000
0100
0100
0010
0010
0001
0001
,
0010
1000
0100
0010
0001
0100
0010
1000
0000
0000
0000
0000
M0M0
0000
0000
0000
;

//---------------dance-single - ----------------
#NOTES:
     dance-single:
     :
     Hard:
     13:
     0.535163,0.653446,0.097302,0.551380,0.113519,462.000000,450.000000,12.000000,68.000000,2.000000,0.000000,0.535163,0.653446,0.097302,0.551380,0.113519,462.000000,450.000000,12.000000,68.000000,2.000000,0.000000:
// measure 0
0000
0000
0000
0000
,  // measure 1
0000
0000
0000
0000
,  // measure 2
0000
0000
0000
0000
,  // measure 3
0000
0000
0000
0000
,  // measure 4
0000
0000
0000
0000
,  // measure 5
0000
0000
0010
0100
0010
0100
0010
0100
,  // measure 6
0001
0000
0010
0100
0010
0100
0010
0100
,  // measure 7
1000
0000
0001
0100
0001
0100
0010
1000
,  // measure 8
0010
0000
1000
0100
1000
0100
0010
0001
,  // measure 9
0010
0000
0001
1000
0001
1000
0001
0100
,  // measure 10
0010
0000
1000
0001
1000
0001
1000
0100
,  // measure 11
0010
0000
0001
0100
0010
1000
0001
0100
,  // measure 12
0010
0000
1000
0100
0010
0001
1000
0100
,  // measure 13
0010
0110
0100
0100
,  // measure 14
0100
0010
0010
0010
,  // measure 15
0010
0000
0002
0000
2003
0000
3001
1000
,  // measure 16
0002
0000
1003
0100
0001
0100
2000
0000
,  // measure 17
3001
0000
1000
0010
0020
0000
0130
0001
,  // measure 18
0002
0000
1003
0010
0100
0000
0001
0010
,  // measure 19
0100
0000
1000
0001
2002
3003
0001
1000
,  // measure 20
2002
3003
0001
1000
0100
0000
1000
0001
,  // measure 21
0100
0000
0020
1030
0020
1030
0200
0310
,  // measure 22
0002
1003
0002
0103
0002
0103
0020
1030
,  // measure 23
0200
0310
0001
0100
0001
0001
1000
0100
,  // measure 24
1000
1000
0001
0010
0001
0001
1000
0010
,  // measure 25
1000
0000
1000
0000
0100
0000
1000
0200
0000
0000
0000
0000
0310
0000
0001
0000
,  // measure 26
1000
0000
0000
0000
0010
0000
0000
0100
0000
0000
0001
0000
0100
0000
0000
0010
,  // measure 27
0000
0000
1000
0000
0001
0000
0100
0002
0000
0000
0000
0000
0103
0000
0010
0000
,  // measure 28
1000
0000
0000
0000
0100
0000
0000
0010
0000
0000
0001
0000
0020
0000
0000
0000
,  // measure 29
0230
0000
0000
0000
1300
0000
0010
2000
0000
0000
0000
0000
3001
0000
0100
0000
,  // measure 30
0010
0000
0000
0000
0100
0000
0000
0010
0000
0000
1000
0000
0010
0000
0000
0000
,  // measure 31
0100
0000
0100
0000
0001
0000
0010
0002
0000
0000
0000
0000
1003
0000
0100
0000
,  // measure 32
0010
0000
0000
0000
0100
0000
0000
1000
0000
0000
0010
0000
0200
0000
0000
0000
,  // measure 33
0301
0000
1000
0000
1000
0000
0002
0003
,  // measure 34
0002
0003
0100
0000
0100
0000
0020
0030
,  // measure 35
0020
0030
1000
0000
0100
0000
0020
0030
,  // measure 36
0002
0003
1000
0000
0020
0030
0100
0000
,  // measure 37
0000
0000
0001
0000
0001
0000
0001
0100
,  // measure 38
1000
0000
1000
0100
0001
0100
1000
0100
,  // measure 39
0001
0000
1000
0001
0100
0001
1000
0001
,  // measure 40
0100
0001
1000
0100
0010
0100
1000
0100
,  // measure 41
0020
0000
0031
0010
0100
1000
0001
0010
,  // measure 42
0100
0000
1000
0100
0010
0001
1000
0100
,  // measure 43
0010
0000
0001
0100
0010
1000
0001
0100
,  // measure 44
0010
0000
1000
0010
0100
0001
1000
0010
,  // measure 45
0100
0000
0002
0000
0013
0010
0002
0000
,  // measure 46
1003
1000
0001
0200
0000
0000
0010
0320
,  // measure 47
0100
0130
0001
0010
0001
1000
0001
0010
,  // measure 48
0001
0100
0010
1000
0010
0100
0010
1000
,  // measure 49
0001
0010
0200
0000
2000
3000
2000
3000
,  // measure 50
2000
3300
2000
0000
0020
0030
0020
3030
,  // measure 51
0220
0330
0010
0100
0010
1000
0001
0100
,  // measure 52
0010
0000
1000
0000
0010
1000
0010
1000
0010
1000
0010
1000
0010
0000
0000
0000
,  // measure 53
1000
0100
1100
0000
0001
0100
0101
0000
,  // measure 54
1000
0010
0110
0000
0001
0010
0110
0000
,  // measure 55
1000
0001
1001
0000
0001
1000
1001
0000
,  // measure 56
0010
0001
0011
0000
0100
1000
1100
0000
,  // measure 57
1000
0100
0001
0100
1000
0100
0010
0000
,  // measure 58
0001
0010
1000
0010
0001
0010
0200
0000
,  // measure 59
1300
0100
0001
0100
0001
0100
1000
0000
,  // measure 60
1000
0010
0100
0100
0010
0100
0001
0000
,  // measure 61
1000
0000
0010
2000
0000
0000
0000
0000
3001
0000
0100
0000
0010
0000
0000
0000
,  // measure 62
1000
0000
0000
0010
0000
0000
0100
0000
0001
0000
0000
0100
0000
0000
0010
0000
,  // measure 63
1000
0000
0100
2000
0000
0000
0000
0000
3001
0000
0010
0000
0100
0000
0000
0000
,  // measure 64
1000
0000
0000
0100
0000
0000
0010
0000
0002
0000
0000
0000
0103
0000
0000
0000
,  // measure 65
0001
0000
0010
0002
0000
0000
0000
0000
1003
0000
0100
0000
0010
0000
0000
0000
,  // measure 66
0100
0000
0000
1000
0000
0000
0010
0000
0100
0000
0000
0000
0001
0000
0010
0000
,  // measure 67
0001
0000
0100
0002
0000
0000
0000
0000
1003
0000
0010
0000
0100
0000
0000
0000
,  // measure 68
0001
0000
0000
0010
0000
0000
0100
0000
1000
0000
0010
0000
0100
0010
0100
0010
,  // measure 69
0200
0300
0200
0300
0200
0300
0200
0300
,  // measure 70
0020
0030
0020
0030
0020
0030
0020
0030
,  // measure 71
2000
3000
2000
3000
0002
0003
0002
0003
,  // measure 72
0020
0030
0200
0300
2000
3000
0002
0003
,  // measure 73
1000
0010
1000
0001
1000
0100
1000
0001
,  // measure 74
0001
0100
0001
1000
0001
0010
0001
1000
,  // measure 75
1000
0100
0010
0001
1000
0100
0010
0001
,  // measure 76
1000
0001
1000
0001
1000
0001
1000
0001
0000
0000
0000
0000
M00M
0000
0000
0000
;

//---------------dance-single - ----------------
#NOTES:
     dance-single:
     :
     Medium:
     9:
     0.418168,0.435630,0.072977,0.170279,0.040543,361.000000,352.000000,9.000000,21.000000,0.000000,0.000000,0.418168,0.435630,0.072977,0.170279,0.040543,361.000000,352.000000,9.000000,21.000000,0.000000,0.000000:
0000
0000
0000
0000
,
0000
0000
0000
0000
,
0000
0000
0000
0000
,
0000
0000
0000
0000
,
0000
0000
0000
0000
,
0000
0000
0010
0000
1000
0000
0001
0100
,
0001
0000
0010
0000
0001
0000
1000
0100
,
1000
0000
0001
0000
0100
0000
0010
1000
,
0100
0000
1000
0000
0100
0000
0010
0001
,
0100
0000
0010
0000
0010
0000
1000
0001
,
0100
0000
0010
0000
0010
0000
0100
0001
,
1000
0000
0010
0000
1000
0000
0001
0010
,
0001
0000
1000
0000
0100
0000
1000
0001
,
0100
0210
0000
0010
,
0300
1020
0000
1000
,
0030
0000
1000
0000
1000
0000
0001
1000
,
0001
0000
1000
0001
1000
0001
1000
0000
,
1001
0000
1000
0100
1000
0000
1000
0001
,
1000
0000
0001
0100
0001
0000
0001
1000
,
0001
0000
1000
0010
1000
0000
1000
0001
,
1000
0000
0001
0010
0001
0000
0001
1000
,
0001
0000
0010
0100
0010
0000
0100
0000
,
1000
0000
0010
0100
0010
0000
0100
0000
,
0001
0000
1000
0010
1000
0000
0001
0000
,
0010
0000
0100
1000
0100
0000
0010
0000
,
0001
0000
1000
1000
0100
0000
0020
0000
,
0031
0000
0000
0000
0010
0000
0000
0100
0000
0000
1000
0000
0001
0000
0000
0010
,
0000
0100
1000
1000
0001
0000
0200
0000
,
0310
0000
0000
0000
1000
0000
0000
0100
0000
0000
0010
0000
0002
0000
0000
0000
,
0003
0000
0001
0100
0001
0000
0200
0000
,
0310
0000
0000
0000
1000
0000
0000
0010
0000
0000
0100
0000
0002
0000
0000
0000
,
0003
0000
0001
1000
0001
0000
2000
0000
,
3100
0000
0000
0000
0010
0000
0000
0001
0000
0000
1000
0000
0200
0000
0000
0000
,
0300
1000
0001
1000
,
0001
0100
0010
0100
,
0010
1000
0100
1000
,
0100
0010
0001
0010
,
0000
0000
0010
0000
0010
0000
0010
0001
,
1000
0000
0001
0000
0001
0000
0001
1000
,
0001
0000
1000
0000
0100
0000
0010
0001
,
0100
0000
0010
0000
1000
0000
0100
0010
,
0001
0000
1000
0000
1000
0000
0010
1000
,
0001
0000
0100
0000
0100
0000
0001
1000
,
0010
0000
1000
0000
1000
0000
0001
0010
,
0100
0000
0010
0000
0010
0000
1000
0001
,
0100
0001
0110
1000
,
0110
0001
0200
0310
,
0110
0000
0001
0010
0001
0000
1000
0000
,
0100
0000
0010
0100
0010
0000
0001
0000
,
1001
0200
1000
1000
,
1000
0300
2000
0000
0010
0000
0010
3000
,
1010
0000
0010
0000
1000
0000
0001
0100
,
0001
0000
1000
0010
1000
0010
1000
0000
,
1000
0010
0010
0000
0001
0010
0010
0000
,
1000
0100
0100
0000
0001
0100
0100
0000
,
1000
0001
0001
0000
0001
1000
1000
0000
,
0001
0010
0010
0000
0100
1000
1000
0000
,
1000
0100
0001
0100
,
1000
0010
0100
0000
0100
0001
1000
0000
,
0001
0000
0010
0000
0001
1000
0001
0000
,
1000
0100
0010
0000
0010
0100
0010
0000
,
0001
0010
0100
0000
2000
0000
3001
0000
,
1000
0000
0000
0010
0000
0000
0100
0000
0001
0000
0000
0100
0000
0000
0010
0000
,
1000
0001
1000
0000
0002
0000
0013
0000
,
0100
0000
0000
1000
0000
0000
0100
0000
0220
0000
0000
0000
0330
0000
0000
0000
,
0001
0010
0001
0000
2000
0000
3010
0000
,
0100
0000
0000
0001
0000
0000
0100
0000
0020
0000
0000
0000
0030
0000
0000
0000
,
1000
0010
1000
0000
0002
0000
1003
0000
,
0001
0000
0000
0010
0000
0000
0001
0000
0020
0000
0000
0000
0130
0000
0010
0000
,
0100
0100
0100
0100
,
0010
0010
0010
0010
,
0001
0001
0001
0001
,
1000
1000
1000
1000
,
0010
1000
0100
0000
0010
0001
0100
0000
,
0010
1000
0001
0000
0010
0001
1000
0000
,
0100
1000
0001
0000
0100
0001
1000
0000
,
0010
1000
0001
1000
0200
0000
0300
0000
;

//---------------dance-single - ----------------
#NOTES:
     dance-single:
     :
     Easy:
     6:
     0.279165,0.310151,0.064868,0.543271,0.000000,241.000000,233.000000,8.000000,67.000000,0.000000,0.000000,0.279165,0.310151,0.064868,0.543271,0.000000,241.000000,233.000000,8.000000,67.000000,0.000000,0.000000:
0000
0000
0000
0000
,
0000
0000
0000
0000
,
0000
0000
0000
0000
,
0000
0000
0000
0000
,
0000
0000
0000
0000
,
0000
0010
1000
0001
,
0000
0010
0001
1000
,
0000
0001
0100
0010
,
0000
1000
0100
0010
,
0000
0010
0010
0001
,
0001
1000
1000
0200
,
0300
0100
0100
1000
,
1000
0001
0001
0010
,
0010
2002
0000
3003
,
0000
2000
0000
3000
,
0000
0001
0001
1000
,
1000
0001
1000
0001
,
0000
1000
1000
0002
,
0003
0100
0100
0020
,
0030
1000
0010
0200
,
0300
0001
0010
0200
,
0300
0010
0010
0100
,
0100
1000
0001
0020
,
0030
0001
1000
0010
,
0100
0010
0010
1000
,
0000
2000
3000
0002
,
1003
0001
0001
1000
,
1000
0002
0003
2000
,
3001
0010
0010
0200
,
0300
2000
3001
0002
,
1003
0010
0010
0100
,
0000
0002
1003
2000
,
3001
0010
0100
0220
,
0330
0010
0000
0010
,
0000
0100
0000
0100
,
0000
1000
0000
1000
,
0000
0001
0000
0001
,
0000
0010
0010
0020
,
0030
0001
1000
2002
,
3003
0100
0100
0010
,
0010
1000
0001
2002
,
3003
1000
1000
0100
,
0100
0010
0010
0002
,
0003
0001
0001
0010
,
0010
0100
0100
2000
,
3000
0001
0100
1000
,
0100
0001
1000
0002
,
0003
0001
0001
1000
,
1000
0001
0100
1000
,
0100
0002
0000
0003
,
0000
2000
0000
3000
,
0000
0010
1000
0001
,
0100
0000
0010
0010
0010
0000
0000
0000
,
1000
0010
0001
0010
,
1000
0001
2002
3003
,
2000
3001
0002
1003
,
0020
0130
0220
0330
,
1000
0100
0001
0100
,
1000
0001
2000
3000
,
1000
0010
0100
0001
,
0001
0010
0100
1000
,
0002
0003
2000
3001
,
0010
0010
0100
0100
,
2000
3000
0002
1003
,
0100
0010
0220
0330
,
0020
0130
0200
0310
,
0001
0001
2000
3000
,
0200
0310
0020
0130
,
1000
0001
2002
3003
,
1000
1000
0100
0100
,
0010
0010
0002
0003
,
1000
0100
0010
0001
,
1000
0100
0020
0030
,
0020
0230
2300
3020
,
0032
0023
2030
3200
,
0302
0203
0320
0230
,
2300
3002
0103
0000
;

//---------------dance-single - ----------------
#NOTES:
     dance-single:
     :
     Beginner:
     2:
     0.162170,0.185483,0.016217,0.000000,0.000000,140.000000,138.000000,2.000000,0.000000,0.000000,0.000000,0.162170,0.185483,0.016217,0.000000,0.000000,140.000000,138.000000,2.000000,0.000000,0.000000,0.000000:
0000
0000
0000
0000
,
0000
0000
0000
0000
,
0000
0000
0000
0000
,
0000
0000
0000
0000
,
0000
0000
0000
0000
,
0000
1000
0000
1000
,
0000
0001
0000
0001
,
0000
1000
0000
1000
,
0000
0001
0000
0001
,
0000
0010
0000
0010
,
0000
0100
0000
0100
,
0000
0100
0000
0100
,
0000
0010
0000
0010
,
0000
1001
0000
0000
,
0000
0000
0000
0000
,
0000
1000
0000
1000
,
0000
1000
0000
1000
,
0000
0001
0000
0010
,
0000
0001
0000
0010
,
0000
0100
0000
1000
,
0000
0100
0000
1000
,
0000
0010
0000
0010
,
0000
0010
0000
0010
,
0000
0001
0000
0001
,
0000
0001
0000
1000
,
0000
0010
0000
0010
,
0000
1000
1000
0000
,
0000
0001
0000
0001
,
0000
0010
0010
0000
,
0000
0100
0000
1000
,
0000
0010
0010
0000
,
0000
0100
0000
0100
,
0000
1000
1000
0000
,
0000
0001
0000
0001
,
0000
0001
0000
0001
,
0000
0001
0000
0001
,
0000
0001
0000
0001
,
0000
1000
0000
1000
,
0000
0010
0000
0100
,
0000
0001
0000
0001
,
0000
0010
0000
0100
,
0000
1000
1000
0000
,
0000
0001
0001
0000
,
0000
0100
0100
0000
,
0000
0010
0010
0000
,
0000
1000
0000
0100
,
0000
0001
0000
0100
,
0000
1000
0000
0001
,
0000
1000
0000
0001
,
0000
1001
0000
0000
,
0000
0000
0000
0000
,
0000
0001
0000
0001
,
0000
0001
0001
0000
,
1000
0000
1000
0000
,
0010
0000
0010
0000
,
1000
0000
1000
0000
,
0100
0000
0100
0000
,
1000
0000
0001
0000
,
1000
0000
0001
0000
,
0001
0000
1000
0000
,
0001
0000
1000
0000
,
0010
0000
0100
0000
,
0001
0001
0000
0000
,
0001
0000
0010
0000
,
0100
0100
0000
0000
,
1000
0000
0010
0000
,
0100
0100
0000
0000
,
0100
0000
0001
0000
,
1000
1000
0000
0000
,
0001
0000
0001
0000
,
0001
0000
0001
0000
,
0001
0000
0001
0000
,
0001
0000
0001
0000
,
1000
1000
0000
0000
,
0010
0010
0000
0000
,
0100
0100
0000
0000
,
0001
0001
0000
0000
;
