#TITLE:This Is My Destiny;
#SUBTITLE:;
#ARTIST:Yuzo Koshiro feat. Paula Terry;
#TITLETRANSLIT:;
#SUBTITLETRANSLIT:;
#ARTISTTRANSLIT:;
#CREDIT:;
#BANNER:This Is My Destiny.png;
#BACKGROUND:This Is My Destiny-bg.png;
#LYRICSPATH:;
#CDTITLE:;
#MUSIC:This Is My Destiny.ogg;
#OFFSET:-0.040;
#SAMPLESTART:43.165;
#SAMPLELENGTH:12.000;
#SELECTABLE:YES;
#BPMS:0.000=139.000;
#STOPS:;
#BGCHANGES:;

//---------------dance-single - ----------------
#NOTES:
     dance-single:
     :
     Easy:
     3:
     0.000,0.000,0.000,0.000,0.000:
0000
0000
0000
0000
,
0000
0000
0000
0000
,
0000
0000
0000
0000
,
0000
0000
0000
0000
,
0000
0000
0000
0000
,
0000
0000
0000
0000
,
0000
0000
0000
0000
,
0000
0000
0000
0000
,
0000
1000
0000
0001
,
0000
1000
0000
0000
,
0000
0001
0000
1000
,
0000
0001
0000
0000
,
0000
1000
0000
0100
,
0000
1000
0000
0000
,
0000
0001
0000
0100
,
0000
0001
0000
0000
,
1000
1000
1000
1000
,
0100
0100
0100
0100
,
0001
0001
0001
0001
,
0100
0100
0100
0100
,
1000
1000
1000
1000
,
0100
0100
0100
0100
,
0001
0001
0001
0001
,
0100
1000
0001
1000
,
0000
0000
0000
0000
,
0000
0000
0000
0000
,
1000
0100
0100
0000
,
0001
0100
0100
0000
,
1000
0001
1000
0000
,
0001
1000
0001
0000
,
0100
0001
0100
0000
,
0010
1000
0010
0000
,
1001
0000
1001
0000
,
0100
0100
0100
0000
,
1000
0010
1000
0000
,
0001
0010
0001
0000
,
1000
0100
0001
0000
,
0001
0100
1000
0010
,
0010
0000
1000
0100
,
1000
0001
0100
0001
,
1001
0000
1001
0000
,
1000
0000
0001
0000
,
1000
0000
0000
0000
,
0001
0001
0001
0001
,
0100
0100
0100
0100
,
1000
1000
1000
1000
,
0100
0100
0100
0100
,
0001
0001
0001
0001
,
0100
0100
0100
0100
,
0001
1000
0001
1000
,
0100
0010
0001
1000
,
0001
0100
1000
0100
,
0001
0010
1000
0010
,
0001
0100
1000
0100
,
0001
0010
0010
0000
,
1000
0100
1000
0001
,
0100
0001
0100
1000
,
0100
0001
0010
1000
,
0010
0001
1000
1001
,
0000
0000
0000
0000
,
0000
0000
0000
0000
,
0000
0000
0000
0000
;

//---------------dance-single - ----------------
#NOTES:
     dance-single:
     :
     Medium:
     6:
     0.000,0.000,0.000,0.000,0.000:
0000
0000
0000
0000
,
0000
0000
0000
0000
,
0000
0000
0000
0000
,
0000
0000
0000
0000
,
0000
0000
0000
0000
,
0000
0000
0000
0000
,
0000
0000
0000
0000
,
0000
0000
0000
0000
,
0000
1000
0000
0100
0000
1000
0000
1100
,
0000
0000
0000
0000
,
0000
0001
0000
0100
0000
0001
0000
0101
,
0000
0000
0000
0000
,
0000
1000
0000
0100
0000
0010
0000
0001
,
0000
0000
0000
0000
1000
0100
0010
0001
,
1000
0001
0010
0001
,
1000
0000
0001
1000
,
0100
0000
0000
1000
0000
0000
0001
0000
0100
0000
0000
0001
0000
0000
1000
0000
,
0100
0000
0000
1000
0000
0000
0001
0000
0100
0000
0001
0000
0100
0000
0001
0000
,
1000
0000
0000
0100
0000
0000
0010
0000
0001
0000
0000
0010
0000
0000
0001
0000
,
0100
0000
0000
0001
0000
0000
1000
0000
0100
0000
1000
0000
0100
0000
1000
0000
,
0001
0000
0000
0100
0000
0000
0001
0000
0100
0000
0000
0010
0000
0000
1000
0000
,
0100
0000
0000
0010
0000
0000
0001
0000
1000
0000
0000
0010
0000
0000
1000
0000
,
0001
0000
0000
1000
0000
0000
0100
0000
0100
0000
0000
1000
0000
0000
0001
0000
,
2000
3200
0320
0032
,
0000
0000
0000
0000
,
0000
0000
0000
0000
,
0000
0000
1003
0100
1000
0000
0100
0000
,
0010
0000
0001
0000
0100
0000
0010
0100
,
0010
0000
1000
0000
0100
0000
0001
0100
,
1000
0010
0100
0001
1000
0000
0100
0010
,
0001
0000
1000
0000
1001
0000
0010
0100
,
1000
0000
0010
0100
0001
0000
0001
0000
,
1000
0000
0100
0000
0010
0000
0010
0001
,
0100
0000
0010
0000
1000
0000
0100
1000
,
0100
0000
1000
0100
0001
0100
1000
0000
,
1001
0000
0001
0000
0100
0000
0010
1000
,
0100
0000
0010
0000
0001
0000
0100
0010
,
0100
0000
0001
0100
1000
0100
0001
0010
,
0001
0000
1000
0000
0001
0000
1000
0100
,
0010
0000
0001
0100
0010
0000
1000
0000
,
1001
0000
0001
0000
0100
0000
0010
1000
,
0100
1100
0101
2002
,
0003
3000
0100
0000
,
1000
1010
0001
0011
,
0100
0000
0010
1000
0100
1000
0001
0100
,
0001
1000
0100
0001
,
0100
0000
1000
0001
0100
1000
0100
0001
,
1000
0100
0011
0001
,
1010
0000
1000
0100
0001
0100
1000
0001
,
0100
0000
0000
0010
1000
0000
0000
0000
1100
0000
0000
0000
0001
0000
0000
0000
,
2000
3200
0320
0032
,
0103
0000
0000
0001
0000
0000
1000
0000
0100
0000
0000
1000
0000
0000
0001
0000
,
0100
0000
0000
0001
0000
0000
1000
0000
0100
0000
1000
0000
0100
0000
1000
0000
,
0001
0000
0000
0100
0000
0000
0010
0000
1000
0000
0000
0010
0000
0000
1000
0000
,
0100
0000
0000
1000
0000
0000
0001
0000
0100
0000
0001
0000
0100
0000
0001
0000
,
1000
0000
0000
0100
0000
0000
1000
0000
0100
0000
0000
0010
0000
0000
0001
0000
,
0100
0000
0000
0010
0000
0000
1000
0000
0001
0000
0000
0010
0000
0000
0001
0000
,
1000
0000
0000
0001
0000
0000
0100
0000
0100
0000
0000
0001
0000
0000
1000
0000
,
0002
0203
0320
2030
,
0000
0000
3000
0000
,
0000
0000
0000
0000
,
0000
0000
0000
0000
;

//---------------dance-single - ----------------
#NOTES:
     dance-single:
     :
     Hard:
     8:
     0.000,0.000,0.000,0.000,0.000:
0000
0000
0000
0000
,
0000
0000
0000
0000
,
0000
0000
0000
0000
,
0000
0000
0000
0000
,
0000
0000
0000
0000
,
0000
0000
0000
0000
,
0000
0000
0000
0000
,
0000
0000
0000
0000
,
0000
1001
0000
0110
0000
0101
0000
1100
,
0000
0000
0000
0000
,
0000
0011
0000
1010
0000
0110
0000
1001
,
0000
0000
1000
0010
,
1000
0100
0010
0001
0100
0000
0101
0000
,
1001
0000
0011
0000
0001
0100
0010
1000
,
0100
1100
0110
1001
,
0100
0000
0000
0000
1000
0001
0100
0010
,
1000
0000
0000
0100
0000
0000
0001
0000
0100
0000
0000
1000
0000
0000
0010
0000
,
0001
0000
0000
0010
0000
0000
1000
0000
0100
0000
0010
0000
0001
0000
0010
0000
,
0100
0000
0000
1000
0000
0000
0010
0000
0001
0000
0000
0010
0000
0000
1000
0000
,
0100
0000
0000
1000
0000
0000
0001
0000
0100
0000
0001
0000
0100
0000
0010
0000
,
1000
0000
0000
0100
0000
0000
0001
0000
0100
0000
0000
1000
0000
0000
0001
0000
,
0100
0000
0000
1000
0000
0000
0100
0000
0001
0000
0000
1001
0000
0000
0010
0000
,
0001
0000
0000
0100
0010
0000
1000
0000
0001
0000
0000
0010
0100
0000
1000
0000
,
0001
0100
0001
0000
1000
0010
1000
0000
0100
1000
0100
0000
0010
0001
0020
0000
,
0000
0000
0000
0000
,
0000
0000
0000
0000
,
0130
0000
1000
0100
0001
0000
0100
0000
,
0010
0000
0001
0000
0100
0000
0010
0100
,
0010
0000
1000
0000
0100
0000
0001
0100
,
1000
0010
0100
0001
1000
0000
0100
0010
,
0001
0000
1100
0000
1001
0000
0010
0100
,
1000
0000
0010
0100
0001
0000
0101
0000
,
1000
0000
0100
0000
0010
0000
0010
0001
,
0100
0000
0010
0000
1000
0000
0100
1000
,
0100
0000
1000
0100
0001
0100
1000
0000
,
1001
0000
0001
0000
0100
0000
0010
1000
,
0100
0000
0010
0000
0001
0000
0100
0010
,
0100
0000
0001
0100
1000
0100
0001
0010
,
0001
0000
1000
0000
0011
0000
1000
0100
,
0010
0000
0001
0100
0010
0000
1100
0000
,
1001
0000
0001
0000
0100
0000
0010
1000
,
0100
1100
0101
2002
,
0003
3000
0100
0000
,
1000
0000
0000
0100
1000
0000
0001
0000
1000
0000
0000
0001
0100
0000
0001
0000
,
0100
0000
0000
0010
1000
0000
0001
0000
0100
0000
0010
0000
1000
0000
0100
0000
,
0001
0000
0000
0100
1000
0000
0001
0000
0100
0000
0000
1000
0100
0000
0001
0000
,
1000
0000
0000
0001
0010
0000
0100
0000
1000
0000
0100
0000
0001
0000
0100
0000
,
1000
0000
0000
0001
0100
0000
1000
0000
0100
0000
0000
0001
0010
0000
1000
0000
,
0010
0000
0000
0001
0100
0000
0010
0000
1000
0000
0100
0000
0010
0000
0001
0000
,
0100
0000
0000
0010
1000
0000
0100
0000
0001
0000
0000
0100
1000
0000
0001
0000
,
1000
0100
1000
0000
0010
0100
0010
0000
0100
0001
0100
0000
0010
1000
0010
0000
,
1000
0000
0000
0100
0000
0000
0001
0000
0100
0000
0000
1000
0000
0000
0001
0000
,
0100
0000
0000
1000
0000
0000
0100
0000
0001
0000
0100
0000
0010
0000
0100
0000
,
1000
0000
0000
0100
0000
0000
0001
0000
0010
0000
0000
1001
0000
0000
0100
0000
,
1000
0000
0000
0010
0000
0000
0100
0000
0001
0000
0010
0000
0100
0000
1000
0000
,
0001
0000
0000
0100
0000
0000
1000
0000
0100
0000
0000
0001
0000
0000
1000
0000
,
0100
0000
0000
0001
0000
0000
0100
0000
1000
0000
0100
0000
0010
0000
0100
0000
,
0001
0000
0000
0100
0000
0000
1000
0000
0010
0000
0000
1001
0000
0000
0000
0000
,
1000
0100
1000
0000
0010
0001
0010
0000
1000
0100
1000
0000
0001
0010
0002
0000
,
0000
0000
0000
0000
0000
0000
0000
0003
0000
0000
0000
0000
0000
0000
0000
0000
,
0000
0000
0000
0000
,
0000
0000
0000
0000
;
