#TITLE:Winter Wrap Up;
#SUBTITLE:;
#ARTIST:♪♪♪♪♪;
#TITLETRANSLIT:;
#SUBTITLETRANSLIT:;
#ARTISTTRANSLIT:;
#GENRE:My Little Pony;
#CREDIT:;
#BANNER:Winter Wrap Up.png;
#BACKGROUND:Winter Wrap Up-bg.png;
#LYRICSPATH:Winter Wrap Up.lrc;
#CDTITLE:;
#MUSIC:Winter Wrap Up.mp3;
#OFFSET:-0.563;
#SAMPLESTART:69.689;
#SAMPLELENGTH:15.000;
#SELECTABLE:YES;
#BPMS:0.000=47.927
,14.000=47.918
,15.000=28.911
,16.000=111.710
,49.000=111.615
,50.000=111.940
,52.000=116.185
,70.000=116.167
,71.000=115.979
,72.000=115.923
,106.000=115.793
,107.000=115.681
,108.000=115.937
,134.000=115.877
,135.000=115.979
,136.000=116.031
,171.000=115.975
,172.000=115.728
,184.000=115.718
;
#STOPS:
;
#BGCHANGES:-0.500=Winter Wrap Up.avi=1.000=0=0=0=StretchNoLoop====,
99999=-nosongbg-=1.000=0=0=0 // don't automatically add -songbackground-
;
#KEYSOUNDS:;
#ATTACKS:;

//---------------dance-single - ----------------
#NOTES:
     dance-single:
     :
     Beginner:
     1:
     0.109,0.145,0.018,0.000,0.000,82.000,2.000,0.000,0.000,0.000,0.000,0.109,0.145,0.018,0.000,0.000,82.000,2.000,0.000,0.000,0.000,0.000:
0000
0000
0000
0000
,
1000
0000
0001
0000
,
0100
0010
0100
0001
,
1000
0000
0001
1000
,
1000
0000
1000
0000
,
0000
0010
0000
0000
,
0001
0000
0001
0000
,
0000
0100
0000
0100
,
0000
1000
0000
0000
,
1000
0000
0001
0000
,
0000
0100
0000
0010
,
0000
0000
1000
0000
,
0001
0000
1001
0000
,
0100
0000
0000
0000
,
0100
0000
0001
0000
,
0100
0000
0000
0000
,
0100
0000
1000
0000
,
0000
0000
1000
1000
,
0000
0001
0000
0001
,
0000
0010
0000
0000
,
0000
0010
0000
1000
,
0000
0000
0001
0001
,
0000
1000
0000
0010
,
0000
0100
0000
0000
,
0000
0001
0000
0100
,
0000
0010
0000
0000
,
1000
0000
0001
0000
,
1000
0000
0010
0000
,
0000
0010
0000
0001
,
0000
0100
0000
0100
,
0000
0001
0000
0000
,
0010
0000
1000
0000
,
1000
0000
0000
0001
,
0000
1000
0001
0000
,
1000
0000
0100
0000
,
0100
0000
0000
0010
,
0010
0000
0001
0000
,
0001
0000
0000
0010
,
0000
0001
0000
1000
,
0000
0001
0000
1000
,
0000
0100
0000
0001
,
0001
0000
1000
0000
,
0001
0000
1001
0000
,
1000
0000
0001
0000
,
0000
0000
0000
0000
,
0001
0000
1000
0000
,
0000
0000
0000
0000
;

//---------------dance-single - ----------------
#NOTES:
     dance-single:
     :
     Easy:
     7:
     0.230,0.335,0.036,0.146,0.000,157.000,4.000,16.000,0.000,0.000,0.000,0.230,0.335,0.036,0.146,0.000,157.000,4.000,16.000,0.000,0.000,0.000:
0000
0000
0000
0000
,
2000
0000
0000
0000
0000
0000
0000
0000
0000
0000
0000
0000
0000
0000
0000
0000
0000
0000
0000
0000
0000
0000
0000
0000
0000
0000
0000
0000
0000
0000
0000
0000
0000
0000
0000
0000
0000
0000
0000
0000
0000
0000
0000
0000
0000
0000
0000
0000
3002
0000
0000
0000
0000
0000
0000
0000
0000
0000
0000
0000
0000
0000
0000
0000
0000
0000
0000
0000
0000
0000
0000
0000
0000
0000
0000
0000
0000
0000
0000
0000
0000
0000
0000
0000
0000
0000
0000
0000
0000
0000
0000
0000
0000
0000
0003
0000
0200
0000
0000
0000
0000
0000
0000
0000
0000
0000
0000
0000
0000
0000
0000
0000
0000
0000
0000
0000
0000
0000
0000
0000
0000
0000
0000
0000
0000
0000
0000
0000
0000
0000
0000
0000
0000
0000
0000
0000
0000
0000
0000
0000
0000
0000
0000
0000
0320
0000
0000
0000
0000
0000
0000
0000
0000
0000
0000
0000
0000
0000
0000
0000
0000
0000
0000
0000
0000
0000
0000
0000
0000
0000
0000
0000
0000
0000
0000
0000
0000
0000
0000
0000
0000
0000
0000
0000
0000
0000
0000
0000
0000
0030
0000
0000
,
2000
0000
0000
0000
0000
0000
0000
0000
0000
0000
0000
0000
0000
0000
0000
0000
0000
0000
0000
0000
0000
0000
0000
0000
0000
0000
0000
0000
0000
0000
0000
0000
0000
0000
0000
0000
0000
0000
0000
0000
0000
0000
0000
0000
0000
0000
0000
0000
0200
0000
3000
0000
0000
0000
0000
0000
0000
0000
0000
0000
0000
0000
0000
0000
0000
0000
0000
0000
0000
0000
0000
0000
0000
0000
0000
0000
0000
0000
0000
0000
0000
0000
0000
0000
0000
0000
0000
0000
0000
0000
0000
0000
0000
0000
0000
0000
0002
0000
0300
0000
0000
0000
0000
0000
0000
0000
0000
0000
0000
0000
0000
0000
0000
0000
0000
0000
0000
0000
0000
0000
0000
0000
0000
0000
0000
0000
0000
0000
0000
0000
0000
0000
0000
0000
0000
0000
0000
0000
0000
0000
0000
0000
0000
0000
0200
0003
0000
0000
0000
0000
0000
0000
0000
0000
0000
0000
0000
0000
0000
0000
0000
0000
0000
0000
0000
0000
0000
0000
0000
0000
0000
0000
0000
0000
0000
0000
0000
0000
0000
0000
0000
0000
0000
0000
0000
0000
0000
0000
0000
0000
0000
0300
,
2000
0000
3020
0000
0230
0000
0302
0003
,
1000
0001
0000
0100
,
0000
0010
1000
0100
,
0001
0000
0010
0000
,
1000
0000
0100
0001
,
0000
1000
0000
0001
,
0000
0100
0010
0100
,
0000
0001
0000
1000
,
0000
0010
1000
0001
,
0100
0000
0110
0000
,
1000
0001
1000
0010
,
0000
0000
0100
0000
0000
0001
1000
0000
,
0001
0100
0001
1000
,
0000
0000
0010
0000
0000
0100
0010
0000
,
0001
0000
0100
0000
0010
1000
0010
0000
,
0010
1000
0100
0010
,
0100
1000
0001
0100
,
0010
0000
0001
0000
1000
0000
0000
0100
,
0000
0001
0100
0010
,
0000
0100
0001
0010
,
0100
1000
0002
0000
,
0003
0100
0010
0001
,
1000
0001
0000
0010
0000
0200
0000
0000
,
0000
0300
1001
0000
,
0100
0001
0100
0010
,
0000
0000
1000
0000
0000
0100
0010
0000
,
0010
1000
0010
0001
,
0000
0000
0001
0000
1000
0100
0010
0000
,
0001
0100
0010
0001
,
0000
0000
1000
0000
0000
0001
1000
0000
,
0000
0001
1000
0000
0100
0010
0001
0000
,
1000
0010
0100
0010
,
1000
0000
0100
0000
0001
0010
0001
0000
,
0100
0000
0010
0000
1000
0000
0000
0001
,
0000
0100
0010
0001
,
0000
1000
0100
0001
,
0100
1000
0010
0010
,
0100
0001
0100
0010
,
0100
0000
1000
0000
0001
1000
0000
0100
,
0000
2002
0000
0000
0000
3003
0000
0000
,
1000
0000
0010
0000
0000
0100
0010
0000
,
1000
0000
0001
0000
0100
0001
0100
0000
,
0010
0000
0100
0000
0000
0010
0100
0000
,
0110
0000
0000
0000
;

//---------------dance-single - ----------------
#NOTES:
     dance-single:
     :
     Medium:
     9:
     0.338,0.375,0.091,0.064,0.000,243.000,10.000,7.000,0.000,0.000,0.000,0.338,0.375,0.091,0.064,0.000,243.000,10.000,7.000,0.000,0.000,0.000:
0000
0000
0000
0000
,
2000
0010
3002
0100
0023
1000
1030
0000
,
0200
0001
0320
1000
0032
0100
0103
0000
,
1000
0010
0001
1000
0001
0100
2000
3000
,
0001
0010
0001
0000
1000
0000
0001
0000
,
1000
0100
1000
0000
0010
0000
0100
0000
,
0010
0001
0100
0000
0010
1000
0100
0000
,
0001
0100
1000
0000
0001
0000
0100
0000
,
1000
0010
0001
0000
1000
0000
0010
0000
,
0100
0001
1000
0000
0100
1000
0001
0000
,
0100
0010
0001
0000
1000
0000
0100
0000
,
0010
0100
1000
0000
0001
0000
0100
0000
,
1000
0100
1001
0000
,
1000
1000
0100
0000
0100
0100
0001
0010
,
0000
0010
1000
0000
0001
0000
0100
0000
,
0001
0001
0010
0000
0010
1000
1000
0100
,
0000
0100
0001
0000
1000
0010
0000
0100
,
0000
0100
0001
1000
0100
0010
0001
0000
,
1000
0010
0000
0010
0000
0010
0000
0010
,
1000
0100
0000
0100
0000
0100
0000
0100
,
1000
0001
0100
0010
1000
0000
0001
0100
,
0000
0100
0010
0100
1000
0100
0001
0000
,
1000
0100
0001
0000
0001
0100
1000
0000
,
0010
0011
0010
1000
,
0001
0100
1000
0100
0001
0010
1000
0100
,
0001
1000
0100
0010
,
1010
0010
0011
0000
,
0100
0100
0001
0000
1000
1000
0010
0001
,
0000
0100
1000
0010
0100
0001
1000
0000
,
0010
0010
1000
0000
0001
0001
0100
1000
,
0000
0010
0001
0100
0010
1000
0000
0001
,
1000
1000
0010
0000
0100
0100
0001
1000
,
0000
0100
0010
1000
0001
0100
0000
0100
,
0000
0100
0001
0100
0010
0010
0010
0000
,
1000
0001
0100
0000
0010
0100
0000
0001
,
0000
1000
0000
0010
0000
0001
0000
0010
,
0100
0001
0000
0100
0000
1000
0000
0010
,
0000
0001
1000
0100
0010
0100
1000
0000
,
0000
0001
0010
0100
0000
1000
0000
0001
,
0000
0100
0010
1000
0001
0100
0010
0000
,
1000
0000
0001
0000
0010
0000
0100
1000
,
0001
0000
0001
1000
0100
0001
0100
1000
,
0000
0001
0000
1000
1001
0000
0000
0000
,
1000
0101
0000
0101
,
0000
0000
0101
0000
0000
1000
0001
0000
,
0000
1100
0000
1100
;

//---------------dance-single - ----------------
#NOTES:
     dance-single:
     :
     Hard:
     12:
     0.509,0.689,0.219,0.137,0.405,352.000,24.000,15.000,0.000,0.000,0.000,0.509,0.689,0.219,0.137,0.405,352.000,24.000,15.000,0.000,0.000,0.000: // measure 0
0001
0000
1000
0000
0100
0000
1000
0000
0010
0000
0010
0000
0000
0000
0100
0000
0001
0000
0010
0100
0000
1000
0000
0000
1010
0000
0000
0000
0000
0000
1000
0000
,  // measure 1
0001
0000
0100
0000
0001
0000
0010
0000
0100
0010
0000
0001
0000
0000
1000
0000
0010
0000
0100
0001
0000
0100
0000
0000
0010
0000
0000
0000
0000
0000
1000
0001
,  // measure 2
0100
0000
0010
0000
1000
0000
0100
0000
0010
0001
0000
0001
0000
0000
1000
0100
1000
0000
0010
0100
0000
0100
0000
0000
0101
0000
0000
0000
0000
0000
0001
0000
,  // measure 3
1000
0000
0100
1000
0000
0000
0010
0000
0100
0000
0001
0000
1000
0000
0100
0000
1000
0100
0000
0000
0010
0100
0000
0000
0220
0000
0000
0000
0330
0000
0000
0100
,  // measure 4
1000
0100
1000
0100
0010
0100
0000
1100
,  // measure 5
0000
0000
1000
0001
0000
0100
0000
0000
0001
0000
0100
0000
0010
0000
1000
0001
,  // measure 6
1000
0010
0100
0001
0200
0000
0310
0100
,  // measure 7
0000
0000
0001
0010
0000
0010
0000
0000
0100
0000
1000
0000
0001
0000
0000
0000
,  // measure 8
0000
0000
1000
0010
0000
0001
0000
0000
0010
0000
1000
0100
0000
0001
0000
0000
,  // measure 9
0100
0000
0000
0000
1000
0100
1000
0100
0010
0000
0001
0100
0000
0000
0000
0000
,  // measure 10
0000
0000
0010
1000
0000
0100
0000
0000
0010
0000
0001
1000
0000
0010
0000
0000
,  // measure 11
0100
0000
0100
0000
0000
0000
0010
0000
1000
0000
0100
0010
0000
0002
0000
0000
,  // measure 12
2000
0000
0000
3003
1001
0000
0000
0000
,  // measure 13
1000
1000
0001
0010
0001
0001
1000
0010
,  // measure 14
0000
0000
1000
0000
0100
0010
0100
0000
1000
0000
0001
0100
0000
0000
0010
0000
,  // measure 15
0100
0100
0001
1000
0100
0100
1000
0001
,  // measure 16
0000
0000
0010
0001
0010
0000
0100
0000
1000
0000
1000
0000
0000
0000
1010
0000
,  // measure 17
0000
0000
1000
0010
1000
0000
0010
0000
0100
0000
0001
0000
1001
0000
0000
0000
,  // measure 18
1000
1000
0010
0100
0001
0001
0000
1001
,  // measure 19
0000
0000
1000
0000
0100
0010
0100
0000
1000
0000
0010
0000
0100
0000
0001
0000
,  // measure 20
1001
1000
0100
1000
0020
0000
0130
0110
,  // measure 21
0000
0000
0100
0001
0000
1000
0000
0000
0100
0000
0010
0000
0011
0000
0000
0000
,  // measure 22
0001
0000
1000
0100
0000
1000
0000
0000
0020
0000
0000
0000
0100
0000
0130
0000
,  // measure 23
0110
0000
0000
1001
0000
0000
0011
0000
0021
0000
0000
0000
0000
0000
0000
0000
,  // measure 24
0130
0000
0010
0001
0010
0000
0001
0000
1000
0000
0100
0000
0010
0000
0001
0000
,  // measure 25
1000
0000
0010
2000
0000
0000
0001
0000
0000
0000
3001
0000
0000
0000
1001
0000
,  // measure 26
1000
0000
0100
0000
0010
0001
0010
0001
0200
0000
0000
0000
0000
0000
0000
0000
,  // measure 27
0310
0010
1000
0001
0010
0010
0001
1000
,  // measure 28
0000
0000
0100
0000
1000
0010
1000
0000
0100
0000
0010
0001
0000
0000
0100
0000
,  // measure 29
0001
0001
1000
0100
1000
1000
0001
0100
,  // measure 30
0000
0000
0001
0010
0001
0000
0010
0000
0100
0000
0010
0000
0000
0000
0110
0000
,  // measure 31
0100
0100
1000
0010
0100
0100
1000
0001
,  // measure 32
0010
0000
1000
0010
1000
0000
0100
0000
0010
0000
0100
0000
0000
0000
0110
0000
,  // measure 33
0000
0000
0100
1000
0001
0000
0100
0000
0001
0000
0100
0000
0110
0000
0000
0000
,  // measure 34
0010
0010
1000
0100
1000
0001
0000
1001
,  // measure 35
0000
0000
1000
0001
0000
0010
0000
0000
0100
0000
0100
0000
1000
0000
0010
0000
,  // measure 36
0100
0001
0010
0001
0020
0000
0130
0010
,  // measure 37
0000
0000
0100
1000
0000
0000
0010
0000
0100
0000
0010
0000
1010
0000
0000
0000
,  // measure 38
1000
0000
0001
0100
0000
0001
0000
0000
1000
0000
0100
1000
0000
0001
0000
0000
,  // measure 39
0101
0000
0000
0000
0001
0000
0001
0000
0010
0000
0100
0020
0000
0000
0000
0000
,  // measure 40
0130
0000
1000
0100
0000
0010
0000
0000
0100
0000
1000
0010
0000
0100
0000
0000
,  // measure 41
0102
0000
0000
0000
0000
0000
1003
0001
1000
0000
0100
0010
0000
0000
0200
0000
,  // measure 42
0010
0020
0000
0330
0110
0000
0000
0000
,  // measure 43
1000
1000
0100
0010
0001
0001
0100
0010
,  // measure 44
0000
0000
1000
0000
0010
0100
0001
0000
0010
0000
0100
1000
0000
0000
0010
0000
,  // measure 45
0100
0100
0001
1000
0100
0100
0001
0010
;

//---------------dance-single - ----------------
#NOTES:
     dance-single:
     :
     Challenge:
     13:
     0.589,0.632,0.437,0.137,0.419,390.000,48.000,15.000,0.000,0.000,0.000,0.589,0.632,0.437,0.137,0.419,390.000,48.000,15.000,0.000,0.000,0.000:
0000
0000
0000
0000
0000
0000
0000
0000
0000
0000
0000
0000
0000
0000
0000
1000
,
0010
0000
0100
0000
0001
0000
0001
0000
1000
0100
0000
0010
0000
0000
0010
0000
0100
0000
1000
0001
0000
0100
0000
0000
1001
0000
0000
0000
0000
0000
0010
0100
,
0001
0000
0010
0000
1000
0000
0010
0000
0100
1000
0000
0001
0000
0000
0100
0010
1000
0000
0010
0100
0000
0001
0000
0000
0110
0000
0000
0000
0000
0000
1000
0000
,
0001
0000
0100
0010
0000
0000
0010
0000
1000
0000
0100
0000
0010
0000
0001
0000
0001
0000
0100
0000
1000
0001
0000
0000
0200
0000
0000
0000
0000
0300
0000
0000
,
1000
0000
0010
0000
0100
0000
0010
0000
1000
0000
0001
0100
0000
0010
0100
0000
,
0001
0000
1000
0000
0100
0000
1000
0000
0001
0000
0100
0010
0000
1000
0010
0000
,
0100
0000
0001
0000
0010
0000
0100
0000
0001
0000
0100
1000
0000
0010
1000
0000
,
0001
0000
0100
0000
0010
0000
0100
0000
0001
0000
1000
0100
0000
1000
0001
0000
,
1000
0000
0100
0000
0001
0000
0100
0000
0010
0000
0001
0100
0000
0010
0100
0000
,
0001
0000
1000
0000
0100
0000
1000
0000
0010
0000
0100
1000
0000
0100
0001
0000
,
1000
0000
0010
0000
0001
0000
0010
0000
0100
0000
0001
0010
0000
1000
0100
0000
,
0010
0000
0001
0000
1000
0000
0010
0000
0100
0000
0001
1000
0000
1000
0001
0000
,
0100
0000
0001
1000
0000
1000
0001
0000
2002
3003
0000
0000
0000
0000
0000
0000
,
1100
1000
0010
0100
1000
0010
0001
0200
,
0300
0000
0001
0000
0001
1000
0001
0000
0100
0000
0010
0100
0000
0000
0110
0000
,
0101
0001
0100
0010
0001
0100
1000
0020
,
0030
0000
1000
0001
1000
0000
1000
0000
0010
0000
0200
0000
0000
0000
0310
0000
,
0000
0000
1000
0001
0100
0000
1000
0000
0100
0000
0001
0000
1010
0000
0000
0000
,
0100
0011
1000
0110
0001
1100
0010
0101
,
1000
0000
0100
0000
0010
0100
0001
0000
1000
0000
1001
0000
0001
0000
0100
0010
,
1000
0011
1000
0110
0001
0010
1001
0101
,
0010
0000
0001
1000
0000
1000
0001
0000
0101
0000
0110
0000
1010
0000
0001
0000
,
1000
0000
0100
0010
0000
0010
0100
0000
0001
0000
1000
0010
0001
0000
0100
0001
,
1000
0000
0010
0100
0000
0010
0001
0000
2000
0000
0000
0000
3001
0000
0000
0000
,
0100
0000
0001
0100
0001
0000
1000
0000
0110
0000
0010
0000
0110
0000
1000
0000
,
0101
0000
1000
0100
0000
0001
0010
0000
1000
0000
1001
0000
0010
0100
0010
0100
,
0001
0000
1000
0000
0001
1000
0001
1000
0100
0000
0000
0000
0000
0000
0000
0000
,
1100
1000
0010
0100
1000
0010
0001
0200
,
0300
0000
0001
0000
0001
1000
0001
0000
0100
0000
0010
0100
0000
0000
0110
0000
,
0101
0001
0100
0010
0001
0100
1000
0020
,
0030
0000
1000
0001
1000
0000
1000
0000
0010
0000
0110
0000
0000
0000
1010
0000
,
1100
1000
0010
0100
1000
0010
0001
0200
,
0300
0000
0001
1000
0001
0000
0100
0000
1000
0000
0200
0000
0000
0000
0310
0000
,
0000
0000
1000
0100
0001
0000
0100
0000
0010
0000
1001
0000
0220
0000
0330
0000
,
0100
0011
1000
0110
0001
1100
0010
0101
,
1000
0000
0100
0010
0000
0100
0001
0000
1000
0000
1001
0000
0001
0000
0100
0000
,
1010
0011
0101
1010
1001
0100
0110
1001
,
0010
0000
0001
0100
0000
1000
0010
0000
0101
0000
0110
0000
1010
0000
0001
0000
,
1000
0000
0100
0010
0000
0010
0100
0000
1000
0000
0010
0100
0000
0100
0001
0000
,
1000
0000
0100
0000
0001
0000
1000
0000
0001
0000
0100
1000
0000
0001
1000
0000
,
0100
0000
0001
0100
0000
0001
1000
0000
0100
0000
0010
0001
0000
0100
1000
0000
,
0101
0000
1000
0100
0000
0001
0010
0000
1000
0000
1001
0000
0010
0100
0010
0100
,
0001
0000
1000
0000
0001
1000
0001
1000
0100
0000
0000
0000
0000
0000
0000
0000
,
1000
0010
0100
1000
0001
0100
0010
0002
,
0000
0003
0000
0000
,
1000
0100
1000
0010
0001
0100
0001
2000
,
0000
3000
0000
0000
;
