#TITLE:Pinkie's Homebrew;
#SUBTITLE:;
#ARTIST:Interrobang Pie;
#TITLETRANSLIT:;
#SUBTITLETRANSLIT:;
#ARTISTTRANSLIT:;
#GENRE:Chiptune;
#CREDIT:;
#BANNER:Pinkie's Homebrew.png;
#BACKGROUND:Pinkie's Homebrew-bg.png;
#LYRICSPATH:;
#CDTITLE:;
#MUSIC:Pinkie's Homebrew.mp3;
#OFFSET:-0.107;
#SAMPLESTART:37.237;
#SAMPLELENGTH:15.000;
#SELECTABLE:YES;
#DISPLAYBPM:100.000:138.000;
#BPMS:0.000=99.983
,1.000=99.910
,2.000=100.111
,3.000=99.965
,7.000=99.972
,8.000=99.962
,12.000=99.969
,13.000=99.962
,14.000=100.024
,15.000=216.346
,16.000=185.531
,17.000=138.408
,37.000=138.402
,38.000=138.408
,58.000=138.402
,59.000=138.408
,79.000=138.402
,80.000=138.408
,81.000=138.402
,82.000=138.408
,100.000=138.402
,101.000=138.408
,119.000=138.402
,120.000=138.408
,124.000=138.402
,125.000=138.408
,143.000=138.402
,144.000=138.408
,146.000=138.402
,147.000=138.408
,165.000=138.402
,166.000=138.408
,168.000=138.402
,169.000=138.408
,187.000=138.402
,188.000=138.408
,190.000=138.402
,191.000=138.408
,207.000=138.402
,208.000=138.408
,224.000=138.402
,225.000=138.408
,231.000=138.402
,232.000=138.408
,248.000=138.402
,249.000=138.408
,253.000=138.402
,254.000=138.408
,270.000=138.402
,271.000=138.408
,275.000=138.402
;
#STOPS:
;
#BGCHANGES:;
#KEYSOUNDS:;
#ATTACKS:;

//---------------dance-single - ----------------
#NOTES:
     dance-single:
     :
     Beginner:
     3:
     0.153,0.168,0.082,0.041,0.000,116.000,10.000,5.000,0.000,0.000,0.000,0.153,0.168,0.082,0.041,0.000,116.000,10.000,5.000,0.000,0.000,0.000:
0000
0000
0000
0000
,
0000
0000
0000
0000
,
1000
0000
0000
0000
,
0010
0000
0100
0000
,
0000
0001
0000
0000
,
0000
0100
0000
0100
,
0000
0010
0000
0000
,
0000
1000
0000
1000
,
0000
0100
0000
0000
,
0000
0001
0000
0001
,
0000
0010
0000
1000
,
0000
0010
0000
0100
,
0000
0001
0000
0000
,
0000
0001
0000
0001
,
0000
1000
0000
0000
,
0000
1000
0000
1000
,
0000
0010
0000
0010
,
0000
0100
0000
0100
,
0000
0001
0000
1000
,
0000
0001
0000
1000
,
0000
0010
0000
0000
,
0100
0100
0000
0000
,
0010
0001
0000
0000
,
1000
1000
0000
0110
,
0000
0000
0000
0002
,
0000
0003
0000
0200
,
0000
0300
0000
0020
,
0000
0030
0000
2000
,
0000
3000
0000
0001
,
0000
0001
0000
0100
,
0000
1000
2000
0000
,
0000
0000
0000
0000
,
3000
0000
0000
0001
,
0000
0000
0100
0100
,
0000
0010
0000
1000
,
0000
1000
0000
0001
,
0000
0100
0000
0010
,
0010
0010
0000
0100
,
0100
0100
0000
0001
,
0000
0001
0000
0001
,
0000
0001
0000
0100
,
0000
0100
0000
0100
,
0000
0100
0000
1001
,
0000
0000
0000
1001
,
0000
0000
0000
1001
,
0000
0000
0000
0100
,
0000
0000
0000
0110
,
0000
0000
0000
0110
,
0000
0000
0000
0110
,
0000
0000
0000
0110
,
0000
0001
0000
0110
,
0000
0000
0000
0110
,
0000
1000
0000
0001
,
0000
0100
0000
0010
,
0000
1000
0000
0001
,
0000
1000
0000
0010
,
0000
0100
0000
0001
,
0001
0001
0000
1000
,
0000
1000
0000
0010
,
0010
0010
0000
0100
,
0000
0100
0000
0010
,
0000
0000
1000
0001
,
0000
0000
0100
0010
,
0000
0000
1000
0001
,
0000
0100
0000
0001
,
0000
0000
0100
0010
,
0000
0000
1000
0010
,
0000
0100
0000
0001
,
1000
0001
0000
0000
;

//---------------dance-single - ----------------
#NOTES:
     dance-single:
     :
     Easy:
     7:
     0.338,0.365,0.156,0.221,0.000,243.000,19.000,27.000,0.000,0.000,0.000,0.338,0.365,0.156,0.221,0.000,243.000,19.000,27.000,0.000,0.000,0.000:
0000
0000
0000
0000
,
0000
0000
0000
0000
,
1000
0010
0001
1000
,
0001
0100
1000
0000
,
0000
0000
0010
0000
0100
0010
0000
0000
,
1000
0000
0100
0010
0100
0000
1001
0000
,
0000
0010
0100
0010
,
1000
0010
0001
1000
,
0000
0000
0100
0000
0000
0010
0000
0000
,
0001
0000
1000
0001
1000
0000
0100
0000
,
0010
1000
0010
0001
,
0010
0100
1000
0001
,
0110
0001
0001
0001
,
0001
1000
1000
0020
,
0030
0100
0100
0100
,
0100
0001
0001
2000
,
3000
0010
0100
0010
,
0100
0001
1000
0100
,
0000
0100
0010
0100
,
0010
0001
0100
1000
,
0010
0000
0001
1000
0100
0000
0000
0000
,
0010
0000
0001
1000
0010
0000
0000
0100
,
0010
0000
0010
1000
0100
0000
0000
0000
,
0010
0000
1000
0000
0100
0000
0010
1000
,
0001
0000
0000
0002
,
0023
0230
2300
3001
,
0100
0010
1000
2000
,
3020
0230
0302
1003
,
0100
0010
0001
2000
,
3002
0203
0320
2030
,
3200
0302
0203
0000
,
0000
0000
0000
0000
,
0000
0300
0000
2000
,
0000
0010
3000
0000
0100
0000
0001
0010
,
0001
1100
0000
0100
,
0010
0100
0001
0100
,
1000
0200
0300
0001
,
0010
0100
0001
0100
,
1000
0010
0100
0001
,
1010
0001
1010
0100
,
0011
0100
0011
1000
,
0110
0001
0110
1000
,
1001
0010
1001
0200
,
0000
0000
0000
0000
0000
0000
0000
0000
0000
0000
0000
0000
0000
0000
0000
0000
0000
0000
0000
0000
0000
0000
0000
0000
0000
0000
0000
0000
0000
0000
0000
0000
0000
0000
0000
0000
0020
0300
0000
0000
0000
0000
0000
0000
0000
0000
0000
0000
,
0000
0000
0000
0000
0000
0000
0000
0000
0000
0000
0000
0000
0000
0000
0000
0000
0000
0000
0000
0000
0000
0000
0000
0000
0000
0000
0000
0000
0000
0000
0000
0000
0000
0000
0000
0000
0000
0000
0000
0000
0000
0000
0000
0000
0000
0000
0000
0000
0000
0000
0000
0000
0000
0000
0000
0000
0000
0000
0000
0000
0000
0000
0000
0000
0000
0000
0000
0000
0000
0000
0000
0000
0000
0000
0000
0000
0000
0000
0000
0000
0000
0000
0000
0000
0000
0000
0000
0000
0000
0000
0000
0000
0000
0000
0000
0000
0000
0000
0000
0000
0000
0000
0000
0000
0000
0000
0000
0000
0000
0000
0000
0000
0000
0000
0000
0000
0000
0000
0000
0000
0000
0000
0000
0000
0000
0000
0000
0000
0000
0000
0000
0000
0000
0000
0000
0000
0000
0000
0000
0000
0000
0000
0000
0030
1000
0000
0000
0000
0000
0000
0000
0000
0000
0000
0000
0000
0000
0000
0000
0000
0000
0000
0000
0000
0000
0000
0000
0000
0000
0000
0000
0000
0000
0000
0000
0000
0000
0000
0000
0000
0000
0000
0000
0000
0000
0000
0000
0000
0000
0000
0000
0000
,
0001
1000
0001
0110
,
0100
0101
1001
0010
,
0000
0000
0000
0001
,
0000
0000
0000
1000
,
0010
0010
0010
0100
,
0001
0001
0001
1000
,
0100
0100
0100
0110
,
0001
0100
0000
0001
,
0001
0100
0100
0010
,
0010
2000
3000
0001
,
0100
0001
0100
0010
,
0010
0200
0300
1000
,
0100
0010
0100
1000
,
0010
1000
0200
0000
0300
0000
0001
0000
,
0100
0010
0100
0001
,
0010
0001
0200
0000
0300
0000
0011
0000
,
1000
0000
0010
0100
0001
0000
0001
0000
,
0100
0000
0010
1000
0100
0000
1000
0000
,
0001
0000
0010
0100
0010
0000
0001
0000
,
1000
0010
2000
3010
,
0101
0000
0001
1000
0100
0000
0010
0000
,
0001
0000
0100
0001
0100
0000
1000
0000
,
0101
0000
1000
0010
0100
0000
0010
0000
,
0100
1000
0100
0000
0101
0000
0000
0000
;

//---------------dance-single - ----------------
#NOTES:
     dance-single:
     :
     Medium:
     8:
     0.405,0.450,0.164,0.360,0.004,282.000,20.000,44.000,0.000,0.000,0.000,0.405,0.450,0.164,0.360,0.004,282.000,20.000,44.000,0.000,0.000,0.000:
0000
0000
0000
0000
,
0000
0000
0000
0000
,
1000
0001
0100
0001
,
1000
0100
0001
0000
,
0000
0000
0020
0000
1030
0100
1000
0000
,
0001
0000
0100
0000
0010
0100
0010
0000
,
1000
0000
0001
0100
0001
0000
1000
0010
,
1000
0000
0001
0100
1000
0100
0002
0000
,
0000
0000
1003
0000
0000
1000
0000
0000
,
0100
0010
0100
0000
1000
0000
0001
0000
,
0100
0000
0010
1000
0010
0000
0100
0001
,
0100
0000
0001
0010
1000
0010
0002
0000
,
0003
1000
1000
0001
,
0001
0100
0100
0020
,
0030
0100
0100
0001
,
0001
1000
1000
0200
,
0300
0000
0001
0010
0001
0000
1000
0100
,
1000
0001
0100
2000
,
3000
0000
0010
1000
0010
0000
0100
0001
,
0100
1000
0100
0002
,
0003
0000
1000
0000
0010
0000
0100
0001
,
0100
0000
0001
0000
1001
0000
0001
0100
,
0010
0000
0001
0000
0100
0000
0010
1000
,
0010
0000
1001
0000
0001
1000
0010
0000
,
0000
0000
0000
0002
,
0023
0230
2300
3020
,
0032
0023
0230
0302
,
0023
0230
2300
3002
,
0203
0302
0023
0230
,
0320
0032
0203
0320
,
2030
3002
0203
0000
,
0000
0000
0000
0001
,
0001
0001
0301
1000
,
0010
1000
0010
0000
0001
0010
0100
1000
,
0001
0000
0000
0100
0000
0000
0000
0000
0100
0000
0000
0000
0010
0000
0000
0000
,
1000
0100
0001
0010
,
1000
0100
0001
0000
0000
0000
0200
0000
,
0302
0203
0320
2030
,
3002
0000
2003
0000
3200
0000
0310
0001
,
1000
0000
0010
0001
1000
0000
0010
0100
,
0001
0000
0010
0100
0001
0000
1000
0100
,
0010
0000
1000
0100
0010
0000
0100
1000
,
0001
0000
0100
1000
0001
0000
0110
0000
,
0000
0000
0000
1001
,
0000
0000
0000
0101
,
0010
0100
1000
0110
,
0001
1000
0001
1100
,
0000
0000
0000
1001
,
0000
0000
0000
0101
,
1000
1000
1000
0011
,
0100
0100
0100
1001
,
0010
1000
0001
0110
,
0010
1001
0000
1000
,
1000
0010
0010
0100
,
0001
0200
0300
0001
,
0001
0000
0100
0000
0100
0000
0010
1000
,
0001
1000
0020
0000
0030
0000
1000
0100
,
1000
0000
0001
0000
0100
0010
0100
0000
,
0001
0000
2000
0000
3000
0000
0010
0100
,
0010
0000
0001
0000
1000
0100
1000
0000
,
0100
0002
0103
0010
,
0110
0000
0010
1000
0100
0000
0010
0000
,
0101
0000
1000
0100
1000
0000
0100
0000
,
0110
0000
0100
0001
0010
0000
0100
0000
,
1001
0000
0100
0001
0001
0000
1100
0000
,
0010
0000
0100
0010
0001
0000
1000
0100
,
0010
0100
1000
0000
0101
0000
0010
0000
,
1100
0000
0001
1000
0100
0000
1000
0001
,
0100
0001
1000
0100
0002
0000
0003
0000
,
0000
0000
0000
0000
;

//---------------dance-single - ----------------
#NOTES:
     dance-single:
     :
     Hard:
     11:
     0.555,0.505,0.156,0.360,0.176,411.000,19.000,44.000,0.000,0.000,0.000,0.555,0.505,0.156,0.360,0.176,411.000,19.000,44.000,0.000,0.000,0.000:
0000
0000
0000
0000
,
0000
0000
0000
0000
,
1000
0010
0001
0010
,
1000
0100
0000
0010
0001
0000
0100
0000
0100
0000
0000
0000
0000
0000
0000
0000
,
0000
0000
0002
0000
1003
0010
1000
0000
,
0001
0000
0100
0000
0010
0000
0100
0000
0001
0000
0000
1000
0000
0000
0000
0000
,
0010
0000
1000
0000
0100
0000
0001
0000
0100
1000
0000
0000
0010
0000
0001
0000
,
0010
1000
0000
0000
0100
0000
0001
0000
0100
0000
1000
0000
0002
0000
0000
0000
,
0103
0000
1000
0000
0001
0100
0001
0000
,
1000
0000
0010
0000
0100
0000
0010
0000
1000
0000
0000
0001
0000
0000
0000
0000
,
0100
0000
0001
0000
0010
0000
1000
0000
0010
0001
0000
0000
0100
0000
1000
0000
,
0100
0001
0000
0000
0010
0000
1000
0000
0010
0000
0001
0000
2000
0000
0000
0000
,
3010
0000
0001
1000
0001
0000
0010
1000
,
0010
0000
0100
1000
0100
0000
2000
0000
,
3000
0000
0100
0001
0100
0000
0010
0001
,
0010
0000
0000
0010
0001
0000
0100
0000
0001
0000
1000
0000
0020
0000
0000
0000
,
0030
1000
0001
0100
0001
0100
0010
1000
,
0010
1000
0100
0001
0100
0001
0020
0000
,
0030
1000
0010
0100
0001
1000
0010
0100
,
0001
1000
0001
0010
0100
1000
0002
0000
,
0103
0000
0000
0000
0010
0100
0000
0000
0001
0000
0000
0000
1000
0000
0001
0000
,
0010
0000
1000
0000
0010
0100
0000
0000
0001
0000
0000
0000
0100
0000
1000
0000
,
1000
0000
0000
0000
0100
0010
0000
0000
0001
0000
0000
0000
1000
0000
0100
0000
,
0001
0000
0100
0000
0010
0001
0000
1000
0010
0000
0100
0000
0001
0000
1000
0000
,
1000
0000
0000
2000
,
3020
0230
0302
0023
,
2030
3200
0302
0023
,
0230
2300
3020
0032
,
0203
2300
3200
0302
,
0023
2030
3020
0230
,
2300
3002
0023
0000
,
0000
0000
0000
1000
,
1000
1000
1030
0101
,
0001
0010
0100
0000
0010
0100
1000
0001
,
0100
0010
0000
0010
0000
0000
0000
0000
1000
0000
0001
0000
0100
0000
0001
0000
,
0010
0100
1000
0010
0100
0001
1000
0100
,
0001
0100
2000
0000
3010
0000
0200
0000
,
2300
0000
3200
0001
0302
0000
0203
0000
,
2300
0000
3002
0010
0013
1000
0010
0100
,
0010
1000
0000
0000
0010
0000
0100
0000
0010
1000
0000
0000
0001
0000
0100
0000
,
0001
0010
0000
0000
0001
0000
0100
0000
0001
0010
0000
0000
0001
0000
0100
0000
,
1000
0100
0000
0000
0001
0000
0010
0000
1000
0010
0000
0000
0001
0000
0100
0000
,
1000
0001
0000
0000
1000
0000
0100
0000
0001
1000
0000
0000
0110
0000
0000
0000
,
0001
0010
0100
0101
,
1000
0100
0010
1010
,
0011
0110
1100
0101
,
0110
0011
1100
1001
,
0100
0010
0100
0010
0100
0000
1001
0000
,
0010
0000
0100
0000
1000
0000
0100
0000
0010
0000
0000
0000
1001
0000
0000
0100
,
0010
0000
1000
0000
0100
0000
0001
0000
0100
0000
0000
0000
1001
0000
0000
0010
,
0100
0000
0001
0000
1000
0000
0010
0000
0010
0000
0000
0000
0101
0000
0000
0100
,
0010
0000
1000
0000
0001
0000
1000
0000
0001
0000
0010
0000
0100
1000
0000
0010
,
0100
0001
1000
0000
0000
0000
1000
0010
,
1000
0000
0100
0001
0100
0000
0010
0001
,
0010
0000
2000
0000
3000
0000
0001
0100
,
0001
0100
0010
1000
0010
1000
0100
0001
,
0100
0001
2000
0000
3000
0010
0001
0100
,
0010
1000
0001
0010
0100
1000
0001
0100
,
1000
0100
0002
0000
0003
1000
0100
0010
,
0001
0001
0100
0010
1000
1000
0010
0100
,
0010
0000
0001
0000
0020
0000
0000
0000
1030
0000
0000
0000
0100
0001
0000
0000
,
0100
0000
0000
0000
1000
0000
0010
0000
0001
0000
0010
0000
1000
0001
0000
0001
,
1000
0000
0100
0000
0010
0000
0001
0000
1001
0000
0000
0000
0010
1000
0000
0000
,
0010
0000
0000
0000
0001
0000
0100
0000
1000
0000
0100
0000
0001
1000
0000
1000
,
0001
0000
0010
0000
0200
0000
0010
0000
0310
0000
0000
0000
0001
0100
0000
0100
,
0001
0000
0010
0000
0100
0000
1000
0000
0001
0000
0010
0000
0001
0100
0000
0100
,
0001
0000
1000
0000
0010
0000
0100
0000
0110
0000
0000
0000
1000
0100
0000
0010
,
0001
0000
1000
0000
0100
0000
0001
0000
0100
0000
1000
0000
0001
0100
0000
0010
,
1000
0001
0100
0010
1001
0000
0000
0000
;

//---------------dance-double - ----------------
#NOTES:
     dance-double:
     :
     Easy:
     5:
     0.341,0.365,0.139,0.238,0.000,245.000,17.000,29.000,0.000,0.000,0.000,0.341,0.365,0.139,0.238,0.000,245.000,17.000,29.000,0.000,0.000,0.000:
00000000
00000000
00000000
00000000
,
00000000
00000000
00000000
00000000
,
10000000
00010000
01000000
00010000
,
00100000
01000000
10000000
00000000
,
00000000
00010000
01010000
00100000
,
00001000
00010000
00010000
00010000
,
00000100
00000010
00000100
00001000
,
00000100
00000010
00000100
00020000
,
00031000
00100000
00110000
01000000
,
10100000
00010000
00010000
00010000
,
01000000
00100000
00001000
00100000
,
01000000
10000000
10010000
00010000
,
00000000
00001000
00001000
00100000
,
00100000
01000000
01000000
20000000
,
30000000
00010000
00010000
00001000
,
00001000
00000010
00000010
00000200
,
00000300
00000100
00000100
00000001
,
00000001
00001000
00001000
00001001
,
00000000
00001000
00001000
00100000
,
00100000
10000000
10000000
00020000
,
01030000
10010000
01000000
00010000
,
10000000
00000000
01000000
00000000
00100000
00000000
00010000
01000000
,
01000000
01000000
00010000
00100000
,
00001000
00000000
00010000
00000000
00001000
00010000
00002000
00000000
,
00003000
00000000
00000000
00000200
,
00001000
00001000
00001300
00002000
,
00000001
00000001
00000001
00003002
,
00000010
00000100
00001000
00002003
,
00000100
00000010
00000100
00003200
,
00001000
00010000
00001000
00020300
,
00001000
01000000
00001000
00030200
,
00000000
00000000
00000000
00000000
,
00000000
00000300
00000000
00000001
,
00001001
00000010
00001100
00000001
,
00001000
00000020
00000030
00010000
,
01000000
10000000
01000000
00010000
,
01000000
20000000
30000000
00020000
,
00230000
02300000
23000000
30020000
,
02030000
03002000
00203000
00301000
,
00010000
00000100
00010000
00000010
,
00010000
00000100
00010000
00001000
,
00010000
00001000
00100000
00001000
,
01000000
00001000
00011000
02000000
,
00000000
00000000
00000000
03200000
,
00000000
00000000
00000000
10300000
,
10000000
00010000
00010000
01000000
,
01000000
00100000
10000000
10010000
,
00010000
00100000
00010000
00010100
,
00000010
00000100
00000010
00001001
,
00000010
00000100
00001000
00010100
,
01000000
00010000
00010000
00110000
,
00001000
00010000
00001000
00101000
,
00100000
01000000
00000000
00001000
,
00001000
00100000
00100000
01000000
,
01000000
20000000
30000000
00010000
,
00010000
00001000
00001000
00000010
,
00000010
00000200
00000300
00000100
,
00000100
00000001
00000001
00001000
,
00001000
00001001
00000000
00001000
,
00001000
00100000
00100000
10000000
,
10000000
00020000
01030000
10010000
,
01000000
00010000
10000000
01000000
,
00100000
00000000
00010000
01000000
01000000
00000000
01000000
00000000
,
00010000
00100000
00001000
00010000
,
00001000
00010000
00002000
00000000
00003000
00000000
10000000
00000000
,
00010000
01000000
00010000
00100000
,
01000000
00000000
10000000
00010000
00010000
00000000
01000000
00000000
,
00001000
00010000
00000100
00001000
,
00000001
00000100
00000001
00001000
00000200
00000300
00000000
00000000
,
00000000
00000000
00000000
00000000
;

//---------------dance-double - ----------------
#NOTES:
     dance-double:
     :
     Medium:
     9:
     0.410,0.450,0.303,0.156,0.000,294.000,37.000,19.000,0.000,0.000,0.000,0.410,0.450,0.303,0.156,0.000,294.000,37.000,19.000,0.000,0.000,0.000:
00000000
00000000
00000000
00000000
,
00000000
00000000
00000000
00000000
,
00010000
00001000
00010000
00100000
,
01000000
00000000
00010000
00100000
10000000
00000000
00000000
00000000
,
00000000
00000000
00010000
00000000
00010000
01000000
00010000
00000000
,
00100000
00000000
00001000
00010000
00001000
00000000
00001100
00000000
,
00000010
00000000
00000001
00000100
00001000
00000000
00000100
00000000
,
00000010
00000000
00001000
00000100
00000001
00000100
00020000
00000000
,
00031000
00000000
01000000
00000000
00010000
00100000
01000000
00000000
,
10000000
00000000
00100000
01000000
00100000
00000000
01000000
00000000
,
00010000
00000000
00001000
00000010
00000001
00000000
00001000
00000100
,
00000001
00000000
00010000
00001000
00010000
00001000
00010000
00000000
,
00000000
00011000
00011000
00101000
,
00101000
00110000
00110000
00101000
,
00101000
00011000
00011000
00010100
,
00010100
00000000
00000001
00000010
00000100
00001000
00000002
00000000
,
00000003
00000000
00000100
00000010
00000100
00000000
00001100
00000000
,
00000110
00000000
00001000
00010000
00001000
00000000
00101000
00000000
,
00000000
00000000
00010000
00100000
00010000
00000000
11000000
00000000
,
00110000
00000000
00100000
00001000
00010000
00000100
00002000
00000000
,
00003010
00000000
00001001
00000000
00000001
00000000
00000100
00000010
,
00001000
00000100
00001000
00000000
00011000
00000000
00010000
00100000
,
00100000
00000000
10010000
00000000
01000000
00000000
00010000
01000000
,
00100000
01000000
10000000
00000000
01000000
00000000
00020000
00000000
,
00030000
00000000
00000000
00000100
,
00001000
00000100
00010000
00001000
,
00100000
00001000
00010000
00100000
,
10000000
01000000
10000000
00100000
,
00100000
00010000
00010000
00001000
,
00000010
00000001
00000100
00010000
,
00001000
00010000
00000200
00000000
,
00000000
00000000
00000000
00000000
,
00000000
00000300
00000000
00001001
,
00000001
00000100
00000100
00000000
00000010
00000000
00001000
00000100
,
00001000
00000000
00010000
00000000
00001000
00000000
00100000
00010000
,
01000000
00000000
00100000
00010000
01000000
00000000
00010000
00100000
,
01000000
10000000
00020000
00000000
00030000
00000000
02000000
00000000
,
03020000
00230000
20300000
30020000
,
00032000
00203000
00310000
00011000
,
00000100
00011000
00000100
00011000
,
00000100
00011000
00000100
00101000
,
10000000
00101000
10000000
00101000
,
01000000
00110000
00000100
00002000
,
00000000
00000000
00000000
00023000
,
00000000
00000000
00000000
00000000
00000000
00000000
00000000
00000000
00000000
00000000
00000000
00000000
00000000
00000000
00000000
00000000
00000000
00000000
00000000
00000000
00000000
00000000
00000000
00000000
00000000
00000000
00000000
00000000
00000000
00000000
00000000
00000000
00000000
00000000
00000000
00000000
00000000
00000000
00000000
00000000
00000000
00000000
00000000
00000000
00000000
00000000
00000000
00000000
00000100
00030000
00000000
00000000
00000000
00000000
00000000
00000000
00000000
00000000
00000000
00000000
00000000
00000000
00000000
00000000
,
00001000
00000010
00000001
00001000
,
00010000
00000010
00001000
00001100
,
00010000
00100000
00010000
00001100
,
00000010
00000100
00000010
00010100
,
00001000
00001000
01000000
00110000
,
10000000
00000000
00100000
01000000
00010000
00000000
00100000
00000000
,
00001000
00000000
00010000
00001000
00010000
00001000
00100000
00000000
,
00001000
00000000
00000010
00000000
00000000
00000000
00000001
00000100
,
00000010
00000000
00000010
00000100
00001000
00000000
00000100
00001000
,
00010000
00000000
00020000
00000000
00030000
00000000
00010000
00100000
,
01000000
00000000
00100000
01000000
10000000
00000000
01000000
00010000
,
00001000
00000000
00200000
00000000
00300000
00000000
00010000
00001000
,
00000010
00000000
00001000
00000100
00000010
00000000
00000001
00000100
,
00000010
00001000
00000100
00000000
00000000
00000000
00000100
00010000
,
00100000
00000000
00100000
10000000
01000000
00000000
01000000
00010000
,
00001000
00200000
00300000
00011000
,
00001000
00000000
00010000
00100000
00010000
00000000
00010000
00000000
,
00011000
00000000
00001000
00000100
00001000
00000000
00010000
00000000
,
01010000
00000000
00010000
00100000
01000000
00100000
01000000
00000000
,
00010000
00001000
00100000
00010000
,
00000010
00000000
00000001
00000010
00000100
00001000
00000001
00000000
,
00001000
00000000
00000100
00010000
00010000
00000000
00001000
00000000
,
01000000
00000000
00010000
00100000
01000000
10000000
00010000
00000000
,
01000000
00100000
00020000
00030000
,
00000000
00000000
00000000
00000000
;

//---------------dance-double - ----------------
#NOTES:
     dance-double:
     :
     Hard:
     12:
     0.564,0.563,0.205,0.180,0.184,435.000,25.000,22.000,0.000,0.000,0.000,0.564,0.563,0.205,0.180,0.184,435.000,25.000,22.000,0.000,0.000,0.000:
00000000
00000000
00000000
00000000
,
00000000
00000000
00000000
00000000
,
01000000
00010000
00100000
00001000
,
00000010
00000001
00000000
00000001
00000100
00000010
00001000
00000000
00001001
00000000
00000000
00000000
00000200
00000000
00000000
00000000
,
00000000
00000000
00010300
00000000
00001000
00010000
00100000
00000000
,
00100000
00000000
10000000
00000000
01000000
00000000
10000000
00000000
00100000
00000000
00000000
01000000
00000000
00000000
00010000
00000000
,
00010000
00000000
00100000
00000000
00001000
00000000
00100000
00000000
00010000
00100000
00000000
00000000
00001000
00000000
01000000
00000000
,
00001000
00100000
00000000
00000000
00010000
00000000
00100000
00000000
01000000
00000000
10000000
00000000
00020000
00000000
01000000
00000000
,
01030000
00000000
00001000
00000000
00001000
00000010
00000001
00000000
,
00001000
00000000
00000010
00000000
00000100
00000000
00000010
00000000
00001000
00000000
00000000
00000100
00000000
00000000
00010000
00000000
,
00010000
00000000
00001000
00000000
01000000
00000000
00001000
00000000
00010000
00000100
00000000
00000000
00010000
00000000
00001000
00000000
,
01000000
00010000
00000000
00000000
00001000
00000000
00000100
00000000
00000001
00000000
00000100
00000000
00001000
00000000
00000010
00000000
,
00000110
00000000
00000010
00001000
00000010
00001000
00000100
00010000
,
00000100
00010000
00001000
01000000
00001000
01000000
00100000
10000000
,
00100000
10000000
01000000
00100000
01000000
00100000
00010000
01000000
,
00010000
01000000
00001000
00000010
00001000
00000010
00000001
00001000
,
00000001
00001000
00000001
00000010
00000100
00001000
00000001
00000010
,
00000100
00001000
00000010
00001000
00010000
01000000
20000000
00000000
,
31000000
00000000
00010000
01000000
00100000
10000000
00010000
01000000
,
00100000
10000000
00010000
00001000
00000010
00000001
00000020
00000030
,
00000100
00000010
00000100
00000010
00000100
00000000
00000000
00000000
01001000
00000000
00000000
00000000
00010000
00000000
01000000
00000000
,
10000000
01000000
00010000
00000000
00001010
00000000
00000010
00000100
,
00000110
00000000
00001000
00000000
01001000
00000000
00001000
00000010
,
00000001
00000000
00000010
00000000
00000100
00000010
00000000
00000010
00000100
00000000
00001000
00000000
00002000
00000000
00100000
00000000
,
00100000
01003000
00010000
20000000
,
00100000
00010000
00001000
30020000
,
00100000
00001000
00100000
02030000
,
00001000
00010000
00100000
03200000
,
10000000
00010000
10000000
00320000
,
00000010
00000100
00000010
00032000
,
00000100
00000001
00000010
00003002
,
00001000
00001000
00001000
00001003
,
00100000
00000000
00000000
00000000
00100000
00000000
00000000
00100000
10000000
01000000
00100000
00010000
10000000
00000000
00000000
00000000
,
00010000
00100000
01000000
00000000
00010000
00100000
00001000
00000100
,
00000010
00001000
00000000
00000100
00000000
00000000
00000000
00000000
00000100
00000000
00001000
00000000
00010000
00000000
00001000
00000000
,
00000010
00001000
00100000
00001000
00000100
00000001
00000100
00001000
,
00100000
10000000
01000000
00000000
01010000
00000000
20000000
00000000
,
30200000
00320000
00032000
00003020
,
00000032
00000000
00000000
00000000
00000203
00000000
00000000
00000000
00020300
00000000
00000000
00000000
10030000
00000000
00010000
01000000
,
00010000
00000000
10000000
00100000
10000000
00000000
00010000
00000000
01000000
00000000
00001000
00000000
00000010
00000000
00000001
00000100
,
00000001
00000000
00001000
00000010
00001000
00000000
00000001
00000000
00001000
00000000
00000100
00000000
00010000
00000000
00000010
00001000
,
00000010
00000000
00010000
00001000
00010000
00000000
00001000
00000000
00010000
00000000
01000000
00000000
10000000
00000000
00010000
01000000
,
00010000
00000000
00100000
00001000
00010000
00000000
00000100
00001000
00000010
00000000
00000100
00000000
00000001
00000000
00000000
00000000
,
00000000
00000000
00000000
10000000
,
00000000
00000000
00000000
00000110
,
00011000
00110000
00001100
01100000
,
10010000
01010000
00101000
00010010
,
00000001
00000001
00000100
00000001
00000100
00000000
00010100
00000000
,
00010000
00010000
01000000
00010000
10000000
00000000
10010000
00000000
,
01000000
00010000
00000010
00000011
,
00001000
00000000
00000000
00000000
01000000
00000000
00010000
00000000
00010000
00000000
00000000
00000000
10000000
01000000
00000000
01000000
,
00100000
00000000
00010000
00000000
01000000
00000000
00100000
00000000
10000000
00000000
00010000
00000000
01000000
00001000
00000000
00001000
,
00010000
00000100
00000010
00000000
00000000
00000000
00000100
00001000
,
00000100
00001000
00000010
00001000
00000010
00001000
00000100
00001000
,
00010000
00001000
00000100
00000000
00000000
00000000
01000000
00100000
,
01000000
00100000
10000000
00010000
10000000
00010000
00001000
00010000
,
00001000
00010000
00000010
00000000
00000000
00000010
00000001
00001000
,
00000001
00001000
00000001
00000010
00001000
00010000
00000100
00001000
,
00100000
01000000
00010000
00000000
00000000
01000000
10000000
00010000
,
10000000
00010000
10000000
01000000
00010000
00001000
00000010
00010000
,
00000010
00000000
00000001
00000000
00002000
00000000
00003000
00000000
00010000
00001000
00010000
00001000
00010000
00000000
00000000
00000000
,
01001000
00000000
00100000
00010000
10000000
00001000
00100000
00000000
,
00101000
00000000
00000100
00010000
00010100
00000000
00000001
00000000
,
00010010
00000000
00000000
00000000
00000001
00000000
00000010
00000000
00001000
00000000
00000100
00000000
00010000
01000000
00000000
01000000
,
00010000
00000000
00001000
00000000
00010000
00000000
00001000
00000000
00001100
00000000
00000000
00000000
00000100
00000010
00000000
00000010
,
00000100
00000000
00000001
00000000
00000100
00000000
00000010
00000000
00001000
00000000
00000100
00000000
00010000
00100000
00000000
00100000
,
00010000
00000000
00000010
00000000
00000100
00000000
00001000
00000000
00011000
00000000
00000000
00000000
10000000
00010000
00000000
10000000
,
00010000
00000000
01000000
00000000
00001000
00000000
00100000
00000000
00010000
00000000
00001000
00000000
00000010
00000001
00000000
00000001
,
00000010
00000000
00000100
00000000
00010000
00001000
00010000
00001000
00000200
00000000
00000000
00000000
00000300
00000000
00000000
00000000
,
00000000
00000000
00000000
00000000
;

//---------------dance-single - Blank----------------
#NOTES:
     dance-single:
     :
     Challenge:
     14:
     0.728,0.898,0.246,0.254,0.672,561.000,30.000,31.000,0.000,0.000,44.000,0.728,0.898,0.246,0.254,0.672,561.000,30.000,31.000,0.000,0.000,44.000: // measure 0
1000
0000
0010
0000
0000
0000
0100
0010
0100
0000
0000
0000
0001
0000
0000
0000
1000
0000
0000
0000
0001
0000
0000
0000
0010
0000
0000
0000
0100
0000
0000
0000
,  // measure 1
1000
0010
0000
0010
0100
0000
0001
0000
1000
0000
0100
0000
0110
0000
0000
0000
,  // measure 2
0001
0000
0010
0000
0000
0000
0100
0010
0100
0000
0000
0000
1000
0000
0000
0000
0001
0000
0000
0000
1000
0000
0000
0000
0010
0000
0000
0000
0100
0000
0000
0000
,  // measure 3
0001
0010
0000
0100
1000
0001
0010
0000
0001
0000
0000
0000
0201
0000
0000
0000
,  // measure 4
0000
0000
0310
0000
0100
0001
0010
0000
,  // measure 5
0100
0000
1000
0000
1000
0000
0010
0000
0100
0010
0000
0010
0000
0000
1010
0000
,  // measure 6
1010
0000
1000
0000
0001
0000
0010
0000
0100
0001
0000
0000
0100
0000
0010
0000
,  // measure 7
0001
1000
0000
0000
0010
0000
1000
0001
1000
0000
0010
0000
0100
0000
1000
0000
,  // measure 8
1001
0000
0001
0010
1000
1100
0000
0100
,  // measure 9
0010
0000
0001
0000
0010
0000
1000
0000
0010
0100
0000
0100
0000
0000
1000
0000
,  // measure 10
1001
0000
0001
0000
0100
0000
1000
0000
0001
0010
0000
0000
1000
0000
0100
0000
,  // measure 11
0010
0001
0000
0000
1000
0000
0001
1000
0001
0000
0010
0000
0100
0000
0101
0000
,  // measure 12
1100
1000
0010
0010
0010
0010
1000
1000
,  // measure 13
1000
1000
0001
0001
0001
0001
0200
0000
,  // measure 14
0300
0100
0010
0010
0010
0010
1000
1000
,  // measure 15
1000
0000
0000
0000
0000
0000
1000
0000
0001
0010
0000
0000
0010
0000
0000
0000
0010
0000
0000
0000
0010
0000
0000
0000
0200
0000
0000
0000
0000
0000
0000
0000
,  // measure 16
0300
0000
0000
0000
0100
0000
0000
0000
4000
0400
0000
0000
0000
0000
0000
0000
0000
0000
0000
0000
3300
0000
0000
0000
0400
0040
0000
0000
0000
0000
0000
0000
,  // measure 17
0000
0000
0000
0000
0330
0000
0000
0000
0040
0004
0000
0000
0000
0000
0000
0000
0000
0000
0000
0000
0033
0000
0000
0000
2002
0000
0000
0000
0000
0000
0000
0000
,  // measure 18
3003
0000
0000
0000
0000
0000
0000
0000
4000
0040
0000
0000
0000
0000
0000
0000
0000
0000
0000
0000
3030
0000
0000
0000
0040
0400
0000
0000
0000
0000
0000
0000
,  // measure 19
0000
0000
0000
0000
0330
0000
0000
0000
0400
0004
0000
0000
0000
0000
0000
0000
0000
0000
0000
0000
0303
0000
0000
0000
2002
0000
0000
0000
3003
0000
0000
0000
,  // measure 20
1000
0100
0010
0001
1000
0010
0000
0010
0100
0000
0010
0000
1000
0000
0001
0000
,  // measure 21
0010
0000
0100
0000
1000
0010
0000
0010
0100
0000
0001
0000
1000
0000
0110
0000
,  // measure 22
0110
0000
0000
0000
0010
1000
0000
1000
0001
0000
0010
0000
0100
0000
0001
0000
,  // measure 23
1000
0000
0010
0001
0010
0010
0000
0100
1000
0001
0100
0000
0010
0000
1010
0000
,  // measure 24
1010
1001
0101
0002
,  // measure 25
2003
0000
0000
0000
3200
0000
0000
0000
0301
0000
0100
1000
0020
0000
0000
0000
,  // measure 26
0032
0000
0000
0000
2003
0000
0000
0000
3100
0000
0010
0100
0002
0000
0000
0000
,  // measure 27
0023
0000
0000
0000
2030
0000
0000
0000
3001
0000
0100
1000
0002
0000
0000
0000
,  // measure 28
0203
0000
0000
0000
2300
0000
0000
0000
3001
0000
0010
0100
0020
0000
0000
0000
,  // measure 29
2030
0000
0000
0000
3002
0000
0000
0000
0013
0000
0001
1000
0200
0000
0000
0000
,  // measure 30
0320
0000
0000
0000
0230
0000
0000
0000
1300
0000
0100
0001
0200
0000
0000
0000
,  // measure 31
2300
0000
3020
0000
0031
0010
0010
1000
,  // measure 32
0010
0000
0001
0000
0010
0000
0000
1000
0010
0100
0001
1000
0001
0000
1000
0001
,  // measure 33
0000
0000
1000
0001
0000
0000
0100
0001
0100
0010
1000
0000
0000
0000
0010
0100
,  // measure 34
0000
0000
0010
0100
0000
0000
1000
0100
0001
0100
1000
0000
0000
0000
0100
0001
,  // measure 35
0000
0000
0100
0001
0000
0000
0010
0001
0100
0010
1000
0000
0000
0000
1000
0001
,  // measure 36
0000
0000
1000
0001
0000
0000
0100
0001
0010
0100
1000
0000
0000
0000
0100
0010
,  // measure 37
0000
0000
0100
0010
0000
0000
0100
1000
0001
0100
0010
0000
0000
0000
1000
0010
,  // measure 38
0000
0000
1000
0010
0000
0000
1000
0010
0100
0001
1000
0001
1000
0100
0010
0001
,  // measure 39
1000
0100
0010
0001
1000
0100
0010
0001
1000
0100
0010
0001
0100
0010
1000
0001
,  // measure 40
0100
0010
1000
0001
0100
0010
1000
0001
0100
0010
1000
0001
0010
0001
1000
0100
,  // measure 41
0010
0001
1000
0100
0010
0001
1000
0100
0010
0001
1000
0100
1000
0010
1000
0010
,  // measure 42
0100
0001
0100
0001
0010
0001
0010
0001
0010
0100
0010
0100
1000
0100
0000
0010
,  // measure 43
0100
0000
1000
0000
0001
0000
0100
0000
0010
0000
1000
0000
0001
1000
0000
1000
,  // measure 44
0010
0000
0000
0100
0000
0000
0001
0000
0000
1000
0000
0000
1001
0000
0000
0000
0000
0000
0400
4000
0000
3300
0000
0000
,  // measure 45
4000
0004
0000
3003
0000
0000
0004
0400
0000
0303
0000
0000
0400
0040
0000
0330
0000
0000
0040
4000
0000
3030
0000
0000
,  // measure 46
4000
0004
0000
3003
0000
0000
0004
0040
0000
0033
0000
0000
0040
0400
0000
0330
0000
0000
1100
0000
0000
0000
0000
0000
,  // measure 47
1000
0100
0001
0100
1000
0000
0010
0000
0001
0000
0010
0000
0110
0000
0000
0000
,  // measure 48
0001
0000
0100
0000
1000
0000
0100
0000
0001
0000
0000
0000
0010
0000
0000
0000
1000
0000
0000
0000
0010
0000
0000
0000
0110
0000
0000
0000
0000
0000
0100
1000
,  // measure 49
0100
0000
1000
0000
0001
0000
0100
0000
0010
0000
1000
0000
0110
0000
0000
0100
,  // measure 50
0001
0000
0000
0000
0100
0000
0000
0000
1000
0000
0000
0000
0100
0000
0000
0000
0110
0000
0000
0000
0000
0000
0000
0000
0010
0000
1000
0000
0000
0000
0001
1000
,  // measure 51
0001
0000
0010
0000
0100
0000
1000
0000
0010
0000
0100
0000
0010
1000
0000
0001
,  // measure 52
1000
0100
0010
0000
0110
0000
0000
0000
0200
0000
0000
0000
1300
0000
1000
0000
,  // measure 53
1000
1000
0010
0010
0010
0010
0100
0100
,  // measure 54
0100
0100
0002
0000
0000
0003
1000
1000
,  // measure 55
1000
1000
0100
0100
0100
0100
1000
0010
,  // measure 56
0010
0000
0000
0010
0000
0000
0200
0000
0000
0000
0000
0000
0000
0000
0000
0301
0000
0000
0400
0040
0000
0000
0000
0000
,  // measure 57
0000
0000
0000
0330
0000
0000
0040
4000
0000
0000
0000
0000
0000
0000
0000
3030
0000
0000
4000
0004
0000
0000
0000
0000
,  // measure 58
0000
0000
0000
3003
0000
0000
0004
0400
0000
0000
0000
0000
0000
0000
0000
0303
0000
0000
0400
0040
0000
0000
0000
0000
,  // measure 59
0000
0000
0000
0330
0000
0000
0040
4000
0000
0000
0000
0000
0000
0000
0000
3030
0000
0000
4000
0004
0000
0000
0000
0000
,  // measure 60
0000
0000
0000
0000
0000
0000
3003
0000
0000
0000
0000
0000
0004
0000
0400
0000
0000
0000
0000
0000
0000
0000
0303
0000
0001
0000
0000
0100
0000
0000
0001
0000
0000
0100
0000
0000
0010
0000
0000
1000
0000
0000
0000
0000
0000
0001
0000
0000
,  // measure 61
1000
0000
0100
0000
0010
0000
0100
0000
0001
0000
1000
0000
0010
0001
0000
0001
,  // measure 62
0100
0000
0010
0000
1000
0000
1001
0000
1001
0000
0000
0000
1000
0100
0000
0001
,  // measure 63
0100
0000
1000
0000
0010
0000
0001
0000
1000
0000
0100
0000
0010
0100
0000
0010
,  // measure 64
1000
0001
0010
0000
0100
0000
0110
0000
0011
0000
0001
1000
0010
1000
0000
0100
,  // measure 65
0001
0000
1000
0000
0010
0000
0100
0000
1000
0000
0001
0000
0100
0010
0000
0010
,  // measure 66
1000
0000
0001
0000
0010
0000
0110
0000
0110
0000
0000
0000
0100
1000
0000
0010
,  // measure 67
0001
0000
0010
0000
1000
0000
0100
0000
0001
0000
0100
0010
0100
0010
0000
0001
,  // measure 68
0010
0100
1000
0000
0010
1000
0100
0001
0100
0000
0000
0000
0000
0000
0000
0000
;
