#TITLE:Party With Pinkie;
#SUBTITLE:;
#ARTIST:Alex S.;
#TITLETRANSLIT:;
#SUBTITLETRANSLIT:;
#ARTISTTRANSLIT:;
#GENRE:Modern Dubstep;
#CREDIT:;
#BANNER:Party With Pinkie.png;
#BACKGROUND:Party With Pinkie-bg.png;
#LYRICSPATH:;
#CDTITLE:;
#MUSIC:Party With Pinkie.ogg;
#OFFSET:-0.120;
#SAMPLESTART:15.440;
#SAMPLELENGTH:15.000;
#SELECTABLE:YES;
#BPMS:0.000=125.000
;
#STOPS:62.000=0.440,
125.000=0.500
;
#BGCHANGES:;
#KEYSOUNDS:;
#ATTACKS:;

//---------------dance-single - ----------------
#NOTES:
     dance-single:
     :
     Beginner:
     3:
     0.136,0.143,0.060,0.030,0.000,86.000,6.000,3.000,0.000,0.000,0.000,0.136,0.143,0.060,0.030,0.000,86.000,6.000,3.000,0.000,0.000,0.000: // measure 0
0000
0000
0000
0000
,  // measure 1
0000
0000
0000
0000
,  // measure 2
0000
0000
0000
0000
,  // measure 3
0000
0000
0000
0000
,  // measure 4
0010
0000
0000
0000
,  // measure 5
1000
0000
0000
0000
,  // measure 6
0100
0000
0000
0000
,  // measure 7
0002
0000
0003
0000
,  // measure 8
0100
0000
0100
0000
,  // measure 9
0100
0000
0100
0000
,  // measure 10
0010
0000
0010
0000
,  // measure 11
0010
0000
0010
0000
,  // measure 12
1000
0000
1000
0000
,  // measure 13
1000
0000
1000
0000
,  // measure 14
0001
0000
0001
0000
,  // measure 15
0001
0000
0001
0100
,  // measure 16
0000
0010
0000
0100
,  // measure 17
0000
0010
0000
1000
,  // measure 18
0000
0001
0000
1000
,  // measure 19
0000
0001
0000
1000
,  // measure 20
0000
0100
0000
0010
,  // measure 21
0000
0001
0000
0100
,  // measure 22
0000
0010
0000
1000
,  // measure 23
0000
0001
0000
1001
,  // measure 24
0000
0000
0000
0110
,  // measure 25
0000
0000
0000
1001
,  // measure 26
0000
0000
0000
0110
,  // measure 27
0000
0000
0000
2002
,  // measure 28
0000
0000
0000
0000
,  // measure 29
0000
0000
0000
0000
,  // measure 30
0000
0000
0000
0000
,  // measure 31
0000
3003
0100
0100
,  // measure 32
0100
0000
0010
0010
,  // measure 33
0010
0000
1000
1000
,  // measure 34
1000
0000
1000
1000
,  // measure 35
1000
0000
0001
0001
,  // measure 36
0001
0000
0010
0010
,  // measure 37
0010
0000
0100
0100
,  // measure 38
0100
0000
0100
0100
,  // measure 39
0100
0000
1000
0000
,  // measure 40
0100
0000
0010
0000
,  // measure 41
0001
0000
0010
0010
,  // measure 42
0010
0000
0100
0100
,  // measure 43
0100
0000
1000
0000
,  // measure 44
0100
0000
0001
0000
,  // measure 45
0010
0000
1000
1000
,  // measure 46
1000
0000
0001
0001
,  // measure 47
0001
0000
1001
0000
;

//---------------dance-single - ----------------
#NOTES:
     dance-single:
     :
     Easy:
     5:
     0.229,0.380,0.200,0.170,0.000,123.000,20.000,17.000,0.000,0.000,0.000,0.229,0.380,0.200,0.170,0.000,123.000,20.000,17.000,0.000,0.000,0.000:
0000
0000
0000
0000
,
0000
0000
0000
0000
,
0000
0000
0000
0000
,
0000
0000
0000
0000
,
1000
0000
0100
0000
,
1000
0000
0100
0000
,
0010
0000
0001
0000
,
0010
0000
0002
0000
,
0103
0000
0001
0000
,
0100
0000
0001
0000
,
1000
0000
0010
0000
,
1000
0010
0100
0001
,
0010
0000
0001
0000
,
0100
0000
0010
0000
,
1000
0000
0010
0000
,
0100
0001
0100
1000
,
0000
0100
0000
0001
,
0000
0100
0000
0010
,
0000
1000
0000
0010
,
1000
0001
0100
1000
,
0000
0100
0000
0001
,
0000
1000
0000
0010
,
0000
1000
0000
0001
,
0100
0001
0010
1001
,
0000
0000
0000
1001
,
0000
0000
0000
0110
,
0000
0000
0000
0110
,
0000
0000
0000
1001
,
1001
1001
1001
1001
,
1001
1001
1001
1001
,
1001
1001
1001
1001
,
1001
1001
2000
3100
,
0020
0031
0002
0103
,
0020
1030
0010
1000
,
0100
0000
0010
0001
,
0100
0000
0020
0031
,
2000
3100
0200
0301
,
2000
3010
1000
0010
,
0001
0000
1000
0100
,
0001
0000
0002
1003
,
0200
0310
0020
0031
,
0200
0301
0100
0001
,
1000
0000
0100
0010
,
0100
0000
0200
0310
,
0002
1003
2000
3010
,
0002
0103
0001
0100
,
0010
0000
1000
0001
,
0010
0000
1001
0000
;

//---------------dance-single - ----------------
#NOTES:
     dance-single:
     :
     Medium:
     7:
     0.336,0.380,0.260,0.030,0.000,206.000,26.000,3.000,0.000,0.000,0.000,0.336,0.380,0.260,0.030,0.000,206.000,26.000,3.000,0.000,0.000,0.000:
0000
0000
0000
0000
,
0000
0000
0000
0000
,
0000
0000
0000
0000
,
0000
0000
0000
0000
,
0010
1000
0010
0000
,
0100
0001
0100
0000
,
0010
1000
0100
0010
,
0001
0100
0220
0330
,
1000
0000
0001
0000
0000
0100
0010
0000
,
1000
0000
0100
0000
0000
0010
0001
0000
,
0010
0000
0100
0000
0000
1000
0100
0000
,
0001
0000
0100
0000
0000
0010
1000
0000
,
0010
0000
0100
0000
0001
0100
0001
0000
,
0010
0000
0100
0000
1000
0100
1000
0000
,
0010
0000
0001
0000
0100
0001
0100
0000
,
0010
0000
1000
2000
0010
0000
3001
0000
,
0100
0100
0010
0000
1000
0000
0100
0010
,
0000
0010
0100
0000
1000
0000
0001
0100
,
0000
0100
0001
0000
0010
0000
0100
1000
,
0000
1000
0100
0000
0010
0000
0001
0100
,
0000
0010
1000
0000
0010
0000
0100
0001
,
0000
0010
0100
0000
1000
0000
0100
0010
,
0000
0001
1000
0000
0100
0000
1000
0010
,
0000
0100
0001
0000
0100
0000
0110
0000
,
0000
1001
0000
1100
,
0000
0011
0000
0101
,
0000
1010
0000
1001
,
0000
0000
0110
0000
0000
0000
1000
0001
,
1000
0001
1000
0001
1000
0001
1000
0001
,
1000
0001
1000
0001
1000
0001
1000
0001
,
1000
0001
1000
0001
1000
0001
1000
0001
,
1000
0001
1000
0000
0001
0000
0101
0000
,
1000
1100
0001
0011
,
1000
0000
1010
0000
1000
0100
0000
0100
,
1000
0010
1000
0000
0001
0100
0000
0001
,
0010
0001
0010
0000
0100
0000
0101
0000
,
0010
0011
0100
1100
,
0010
0000
1010
0000
0010
0001
0000
0001
,
0010
1000
0010
0000
0100
0001
0000
0100
,
1000
0100
1000
0000
1000
0000
1010
0000
,
0100
0110
1000
1001
,
0100
0000
0101
0000
0100
0010
0000
0010
,
0100
0001
0100
0000
1000
0010
0000
1000
,
0001
1000
0001
0000
1000
0000
1010
0000
,
0100
0110
1000
1001
,
0100
0000
0101
0000
0100
0010
0000
0010
,
0100
0001
0100
0000
1000
0010
0000
1000
,
0001
1000
0001
0000
1001
0000
0000
0000
;

//---------------dance-single - ----------------
#NOTES:
     dance-single:
     :
     Hard:
     10:
     0.462,0.428,0.190,0.170,0.185,287.000,19.000,17.000,0.000,0.000,0.000,0.462,0.428,0.190,0.170,0.185,287.000,19.000,17.000,0.000,0.000,0.000:
0000
0000
0000
0000
,
0000
0000
0000
0000
,
0000
0000
0000
0000
,
0000
0000
0000
0000
,
1000
0100
0000
0100
1000
0010
0100
0000
,
0001
0010
0000
0010
0001
0100
0010
0000
,
1000
0010
0000
0100
0001
0010
0100
0000
,
1000
0001
0110
0000
,
1000
0000
0001
0000
0000
0000
0001
0000
1000
0000
1000
0010
0000
0000
0100
0000
,
0001
0000
0010
0000
0000
0000
0100
0000
1000
0000
1000
0001
0000
0000
0100
0000
,
0010
0000
0100
0000
0000
0000
0100
0000
0010
0000
0010
1000
0000
0000
0001
0000
,
0100
0000
1000
0000
0000
0000
0001
0000
0010
0000
0010
0100
0000
0000
1000
0000
,
0100
0000
1000
0000
0000
0000
1000
0000
0100
0000
0100
0001
0000
0000
0010
0000
,
1000
0000
0001
0000
0000
0000
0010
0000
0100
0000
0100
1000
0000
0000
0010
0000
,
0100
0000
0001
0000
0000
0000
0001
0000
0100
0000
0100
0010
0000
0000
1000
0000
,
0100
0010
0000
0001
0010
0000
0001
0100
,
0010
0000
1000
0000
0100
0000
0010
0100
0000
1000
0001
0000
0100
0000
0001
0000
,
0010
0000
0100
0000
1000
0000
0100
0010
0000
0010
0100
0000
1000
0000
0001
0000
,
0100
0000
0010
0000
1000
0000
0010
0100
0000
0001
0010
0000
0001
0000
0100
0000
,
0010
0000
1000
0000
0100
0000
1000
0010
0000
0000
0010
0000
0100
0000
0001
0000
,
0010
0000
0100
0000
1000
0000
0100
0010
0000
0100
0010
0000
0001
0000
0100
0000
,
0010
0000
1000
0000
0010
0000
0100
0001
0000
0010
0001
0000
0100
0000
0010
0000
,
1000
0000
0100
0000
0010
0000
0100
1000
0000
1000
0100
0000
0010
0000
0001
0000
,
0100
0000
0010
0000
1000
0000
0001
0010
0000
0010
0001
0000
1001
0000
0000
0000
,
1001
0110
0110
0101
,
0101
1010
1010
1100
,
1100
0011
0011
0110
,
0110
0000
1001
0000
1001
0000
1000
0100
,
0010
0001
1000
0010
0100
0001
1000
0100
,
0010
0001
1000
0010
0100
0001
0010
1000
,
0100
0001
0100
1000
0010
0100
0001
0010
,
0100
0000
1000
0000
2001
0000
0000
0000
3002
0000
0000
0000
0100
0003
0000
0000
,
0002
0103
0020
1030
,
0020
0000
1030
0000
0010
1000
0000
0100
,
1000
0000
0001
0100
0000
0100
0010
0000
1000
0000
0100
0000
0000
0000
0010
0000
,
0100
0000
1000
0001
0000
0100
0010
0000
0200
0000
0000
0000
0301
0000
0000
0000
,
0200
0301
2000
3010
,
2000
0000
3010
0000
1000
0010
0000
0100
,
0001
0000
0100
0010
0000
1000
0001
0000
0010
0000
0001
0000
0000
0000
1000
0000
,
0001
0000
0010
0100
0000
1000
0000
0001
0020
0000
0000
0000
0001
0030
0000
0000
,
0020
0000
0000
0000
1000
0030
0000
0000
0200
0000
0000
0000
0301
0000
0000
0000
,
0200
0000
0000
0000
0001
0300
0000
0000
0100
0000
0001
0000
0000
0000
1000
0000
,
0001
0000
0100
0010
0000
1000
0010
0000
0100
0000
0001
0000
0000
0000
0100
0000
,
1000
0000
0010
0100
0000
0001
0100
0000
0020
0000
0000
0000
1030
0000
0000
0000
,
2000
3010
0002
0103
,
0002
0000
0103
0000
0001
0100
0000
0010
,
1000
0000
1000
0010
0000
0100
0001
0000
0100
0000
0010
0000
1000
0000
0001
0000
,
0010
0100
1000
0001
1001
0000
0000
0000
;

//---------------dance-single - ----------------
#NOTES:
     dance-single:
     :
     Challenge:
     13:
     0.556,0.646,0.070,0.090,0.386,373.000,7.000,9.000,0.000,0.000,0.000,0.556,0.646,0.070,0.090,0.386,373.000,7.000,9.000,0.000,0.000,0.000:
0000
0000
0000
0000
,
0000
0000
0000
0000
,
0000
0000
0000
0000
,
0000
0000
0000
0000
,
0100
0000
1000
0000
0100
0000
0010
0000
0001
0000
1000
0001
0000
0100
0010
0000
,
1000
0000
0100
0000
1000
0000
0001
0000
0010
0000
0001
1000
0000
1000
0001
0000
,
0010
0000
0100
0000
0001
0000
1000
0000
0010
0000
1000
0100
0000
0100
1000
0000
,
0100
0001
1001
0000
2020
0000
3030
0000
,
1000
0000
0100
0000
0010
0000
0001
0000
1000
0000
0010
0100
0000
0010
1000
0000
,
0001
0000
0010
0000
0100
0000
1000
0000
0100
0000
0010
0001
0000
0100
0010
0000
,
1000
0000
0010
0000
0100
0000
0001
0000
0010
0000
0001
0100
0000
0001
1000
0000
,
0100
0000
0010
0000
0100
0000
1000
0000
0010
0100
0000
0001
0000
1000
0010
0000
,
0100
0000
0001
0000
0010
0000
0100
0000
1000
0000
0100
0010
0000
0100
1000
0000
,
0001
0000
0100
0000
0010
0000
1000
0000
0010
0000
0100
0001
0000
0010
0001
0000
,
0100
0000
0010
0000
1000
0000
0100
0000
0010
0000
0100
1000
0000
0100
0010
0000
,
0001
0100
0010
1000
2100
0000
3010
0001
,
1000
0000
0100
0000
0010
0000
0001
0100
0000
0010
1000
0000
0100
0000
1000
0000
,
0001
0000
0010
0000
0001
0000
1000
0100
0000
0100
1000
0000
0010
0000
1000
0000
,
0001
0000
0100
0000
1000
0000
0100
1000
0000
0010
0100
0000
0001
0000
1000
0000
,
0001
0000
0100
0000
0010
0000
1000
0001
0000
0100
0010
0000
1000
0000
0100
0000
,
0010
0000
0001
0000
0010
0000
0100
1000
0000
0001
0010
0000
0100
0000
1000
0000
,
0100
0000
0010
0000
0001
0000
0100
0010
0000
0010
1000
0000
0100
0000
0010
0000
,
0001
0000
0100
0000
0010
0000
1000
0010
0000
0100
0001
0000
0100
0000
0010
0000
,
1000
0000
0001
0000
0010
0000
0100
1000
0000
1000
0001
0000
0102
0000
0000
0000
,
1000
0000
0000
0000
0100
0000
0000
0000
1000
0003
0000
0000
2100
0000
0000
0000
,
0001
0100
3001
2010
,
0001
0010
3001
1020
,
0100
0000
1000
0000
0130
0000
0001
0100
,
0010
1000
0010
0100
0001
0010
0100
1000
,
0010
0000
0100
0000
0001
0000
0010
0000
0100
0000
1000
0000
0001
1000
0001
1000
,
0001
1000
0001
1000
0001
1000
0001
1000
0001
1000
0001
1000
0010
0100
0001
0010
,
0100
1000
0010
0100
0002
0000
0000
0000
1003
0000
0100
0000
0001
0000
0100
0000
,
1000
0010
0001
0010
1000
0100
0010
0100
,
0001
1000
0010
0100
0001
1000
0010
0100
,
0001
0000
0100
0001
0000
0100
0001
0000
0010
0000
0100
0000
1000
0000
0010
0000
,
0100
0000
0001
0010
0000
0100
1000
0000
0010
0000
0001
0000
0100
0000
0001
0000
,
0010
1000
0100
1000
0010
0001
1000
0001
,
0100
0001
0000
0010
0000
0100
0000
1000
0100
0000
1000
0000
0010
0000
1000
0000
,
0100
0000
0001
0100
0000
0001
0100
0000
1000
0000
0001
0000
0010
0000
0001
0000
,
0100
0000
1000
0100
0000
0010
0001
0000
0100
0000
1000
0000
0010
0000
1000
0000
,
0001
0100
0010
0100
0001
1000
0100
1000
,
0010
1000
0010
1000
0000
0001
0100
0000
0010
0000
1000
0000
0100
0000
0001
0000
,
0100
0000
1000
0010
0000
0010
1000
0000
0001
0000
1000
0000
0100
0000
0010
0000
,
0001
0000
0010
0100
0000
1000
0001
0000
0100
0000
0010
0000
1000
0000
0010
0000
,
0100
0001
1000
0010
0100
0001
0010
0100
,
1000
0100
0010
0001
0000
0010
0100
0000
1000
0000
0001
0000
0010
0000
0100
0000
,
1000
0000
0001
0100
0000
0010
1000
0000
0001
0000
0010
0000
0100
0000
1000
0000
,
0010
0100
0001
1000
0100
1000
0010
0100
0002
0000
0000
0000
0000
0000
0000
0000
,
0000
0000
0000
0000
,
0000
0000
0000
0000
0000
0003
0000
0000
;
