#TITLE:Party 4U;
#SUBTITLE:;
#ARTIST:cranky;
#TITLETRANSLIT:;
#SUBTITLETRANSLIT:;
#ARTISTTRANSLIT:;
#GENRE:;
#CREDIT:;
#BANNER:Party 4U.png;
#BACKGROUND:Party 4U-bg.png;
#LYRICSPATH:;
#CDTITLE:;
#MUSIC:Party 4U.mp3;
#OFFSET:-12.243;
#SAMPLESTART:45.430;
#SAMPLELENGTH:15.000;
#SELECTABLE:YES;
#BPMS:0.000=159.000
;
#STOPS:
;
#BGCHANGES:-32.500=Party 4U.avi=1.000=0=0=0=StretchNoLoop====,
99999=-nosongbg-=1.000=0=0=0 // don't automatically add -songbackground-
;
#KEYSOUNDS:;
#ATTACKS:;

//---------------dance-single - ----------------
#NOTES:
     dance-single:
     :
     Beginner:
     2:
     0.151,0.169,0.010,0.000,0.000,107.000,1.000,0.000,0.000,0.000,0.000,0.151,0.169,0.010,0.000,0.000,107.000,1.000,0.000,0.000,0.000,0.000:
1000
0000
0000
0000
,
1000
0000
0000
0000
,
0001
0000
0000
0000
,
0001
0000
0000
0000
,
1000
0000
0000
0000
,
1000
0000
0000
0000
,
0001
0000
0000
0000
,
0001
0000
0000
0000
,
0000
0000
0000
0000
,
0010
0010
0010
0010
,
0010
0000
0010
0000
,
0010
0000
0010
0000
,
0001
0000
0001
0000
,
0001
0000
0001
0000
,
0100
0000
0100
0000
,
0100
0000
0100
0000
,
1000
0000
1000
0000
,
1000
0000
1000
0000
,
0010
0000
1000
0000
,
0010
0000
1000
0000
,
0001
0000
0100
0000
,
0001
0000
0100
0000
,
0010
0000
1000
0000
,
0100
0000
0001
0000
,
0010
0000
0001
0000
,
0100
0000
0010
0000
,
1000
0000
0001
0000
,
1000
0000
0000
0000
,
0001
0000
1000
0000
,
0001
0000
0000
0000
,
0100
0000
0010
0000
,
0100
0000
0000
0000
,
0010
0000
0100
0000
,
0010
0000
0000
0000
,
1000
1000
1000
0000
,
1000
0000
1000
0000
,
0001
0001
0001
0000
,
0001
0000
0001
0000
,
0100
0100
0100
0000
,
0100
0000
0100
0000
,
0010
0010
0010
0000
,
0010
0000
0010
0000
,
1000
0000
0100
0000
,
1000
0000
0000
0000
,
0001
0000
0100
0000
,
0001
0000
0000
0000
,
0010
0000
0100
0000
,
0010
0000
0000
0000
,
1000
0000
0001
0000
,
1000
0000
0000
0000
,
0001
0000
0100
0000
,
0001
0000
0100
0000
,
0010
0000
1000
0000
,
0010
0000
1000
0000
,
0001
0001
0001
0000
,
1000
1000
1000
0000
,
0010
0010
0010
0000
,
0100
0000
0000
1001
;

//---------------dance-single - ----------------
#NOTES:
     dance-single:
     :
     Easy:
     5:
     0.177,0.225,0.020,0.020,0.000,123.000,2.000,2.000,0.000,0.000,0.000,0.177,0.225,0.020,0.020,0.000,123.000,2.000,2.000,0.000,0.000,0.000:
1000
0000
0100
0000
,
1000
0000
0000
0000
,
0010
0000
0001
0000
,
0010
0000
0000
0000
,
0100
0000
1000
0000
,
0100
0000
0000
0000
,
0001
0000
0100
0000
,
0001
0000
0000
0000
,
2002
3003
0000
0000
0000
0000
0000
0000
0000
0000
0000
0000
0000
0000
0000
0000
0000
0000
0000
0000
0000
0000
0000
0000
0000
0000
0000
0000
0000
0000
0000
0000
0000
0000
0000
0000
0000
0000
0000
0000
0000
0000
0000
0000
0000
0000
0000
0000
0000
0000
0000
0000
0000
0000
0000
0000
0000
0000
0000
0000
0000
0000
0000
0000
0000
0000
0000
0000
0000
0000
0000
0000
0000
0000
0000
0000
0000
0000
0000
0000
0000
0000
0000
0000
0000
0000
0000
0000
0000
0000
0000
0000
0000
0000
0000
0000
0000
0000
0000
0000
0000
0000
0000
0000
0000
0000
0000
0000
0000
0000
0000
0000
0000
0000
0000
0000
0000
0000
0000
0000
0000
0000
0000
0000
0000
0000
0000
0000
0000
0000
0000
0000
0000
0000
0000
0000
0000
0000
0000
0000
0000
0000
0000
0000
0000
0000
0000
0000
0000
0000
0000
0000
0000
0000
0000
0000
0000
0000
0000
0000
0000
0000
0000
0000
0000
0000
0000
0000
0000
0000
0000
0000
0000
0000
0000
0000
0000
0000
0000
0000
0000
0000
0000
0000
0000
0000
0000
0000
0000
0000
0000
0000
,
0001
0001
0001
0001
,
0001
0000
0100
0000
,
0010
0000
1000
0000
,
0001
0000
0010
0000
,
0100
0000
1000
0000
,
1000
0000
0100
0000
,
0010
0000
0001
0000
,
1000
0000
0010
0000
,
0100
0000
0001
0000
,
1000
0100
1000
0010
,
0100
0001
0010
0000
,
0010
0001
0100
0010
,
1000
0100
1000
0000
,
1000
0001
0100
0010
,
0100
0001
1000
0000
,
0001
0100
0010
1000
,
0010
0000
0000
0000
,
0100
0100
0100
0000
,
0001
0000
0000
0000
,
0010
0010
0010
0000
,
1000
0000
0000
0000
,
0010
0010
0010
0000
,
0001
0000
0000
0000
,
0100
0100
0100
0000
,
1000
0000
0000
0000
,
0001
0000
0100
0000
,
0010
0000
1000
0000
,
0010
0000
0100
0000
,
0001
0000
1000
0000
,
0001
0000
0010
0000
,
0100
0000
1000
0000
,
0010
0000
0100
0000
,
0001
0000
1000
0000
,
0001
0000
0100
0000
,
0010
0000
0000
0000
,
1000
0000
0100
0000
,
0010
0000
0000
0000
,
0001
0000
0100
0000
,
1000
0000
0000
0000
,
1000
0000
0100
0000
,
0001
0000
0000
0000
,
1000
0100
1000
0000
,
0010
0000
0100
0000
,
0001
0010
0001
0000
,
0010
0000
0100
0000
,
1000
0001
0100
0000
,
0010
0000
1000
0000
,
0001
0010
0100
0000
,
1000
0000
0000
1001
;

//---------------dance-single - ----------------
#NOTES:
     dance-single:
     :
     Medium:
     7:
     0.353,0.338,0.088,0.000,0.000,244.000,9.000,0.000,0.000,0.000,0.000,0.353,0.338,0.088,0.000,0.000,244.000,9.000,0.000,0.000,0.000,0.000:
0001
0000
0100
0000
0001
0000
0000
0100
,
0000
0000
0010
0000
1000
0000
0000
0010
,
0000
1000
0100
1000
,
0001
0100
0010
0000
,
1000
0010
1000
0010
,
0100
0001
0100
0000
,
0001
0010
0001
0010
,
0100
1000
0100
0000
,
0010
0000
0000
0000
,
1001
1001
1001
1001
,
0010
1000
0100
0000
0010
0000
0100
0000
,
1000
0001
0100
0010
,
1000
0001
0010
0000
0100
0000
1000
0000
,
0100
0010
0001
1000
,
0010
0100
0010
0000
1000
0000
0001
0000
,
0010
0001
0100
0010
,
1000
0001
0010
0000
0100
0000
1000
0000
,
0100
0010
0001
1000
,
0010
0000
1000
0000
0100
0010
0100
0000
,
1000
0000
0001
0000
0100
0010
1000
0000
,
0001
0000
0010
0000
0001
0100
0010
0000
,
1000
0000
0100
0000
0010
0100
1000
0000
,
0001
0000
0100
0000
0010
1000
0001
0000
,
0010
0000
0100
0000
1000
0100
0010
0000
,
0001
0000
1000
0000
0010
0100
0001
0000
,
0010
0000
0000
0000
,
0001
0000
0100
0000
0001
0100
0001
0000
,
0100
0100
0100
0000
,
0010
0000
1000
0000
0010
1000
0010
0000
,
1000
1000
1000
0000
,
0100
0000
1000
0000
0100
1000
0100
0000
,
1000
1000
1000
0000
,
0001
0000
0010
0000
0001
0010
0001
0000
,
0010
0010
0010
0000
,
0001
0000
0100
0000
0010
1000
0001
0000
,
0010
0000
0100
0000
1000
0001
0100
0000
,
0010
0000
1000
0000
0010
0100
0001
0000
,
0010
0000
0100
0000
1000
0100
0010
0001
,
1000
0000
0010
0000
0100
0001
1000
0001
,
0010
0000
0100
0000
1000
0100
0010
0001
,
1000
0000
0010
0000
0100
0001
0100
0010
,
1000
0010
0100
0001
,
1000
0000
0100
0000
0010
0001
0100
0000
,
0110
0000
0000
0000
,
0010
0000
1000
0000
0001
0010
0100
0000
,
1100
0000
0000
0000
,
0010
0000
1000
0000
0001
0100
0010
0000
,
0110
0000
0000
0000
,
0010
0000
0001
0000
1000
0010
0100
0000
,
0101
0000
0000
0000
,
0010
0000
0001
0000
0100
1000
0100
0000
,
0010
0000
0001
0000
0100
0010
1000
0000
,
0001
0000
0010
0000
0100
1000
0010
0000
,
1000
0000
0001
0000
0010
0100
1000
0100
,
0010
0000
0001
0000
1000
0010
0100
0000
,
0001
0000
0100
0000
0010
1000
0001
0000
,
0010
0000
0100
0000
1000
0100
0010
0001
,
1000
0010
0100
1001
;

//---------------dance-single - ----------------
#NOTES:
     dance-single:
     :
     Hard:
     11:
     0.524,0.451,0.127,0.010,0.117,362.000,13.000,1.000,0.000,0.000,0.000,0.524,0.451,0.127,0.010,0.117,362.000,13.000,1.000,0.000,0.000,0.000:
1000
0000
0100
0000
0010
0001
0010
0001
,
0000
0100
0010
0000
1000
0100
1000
0000
,
0010
0000
0100
0000
0001
0010
0001
0100
,
0000
0010
1000
0000
0100
1000
0001
0000
,
0100
0010
0100
0000
0001
1000
0001
1000
,
0000
0001
0100
0000
0010
1000
0100
0000
,
1000
0010
0100
0000
0001
0010
0001
0100
,
0000
0010
1000
0000
0001
0010
0100
1000
,
0000
0000
0001
0000
,
0101
0101
1010
1010
,
0010
1000
0100
0001
1000
0001
0100
0000
,
0010
0001
0100
0010
0100
0010
1000
0000
,
0100
0010
0001
0100
0001
0010
0001
0000
,
0001
0100
1000
0100
0001
0010
1000
0000
,
0010
0001
0100
0001
0010
0100
0001
0000
,
0010
0001
0100
1000
0100
0001
0010
0000
,
0010
0001
0100
0010
1000
0001
0010
0000
,
0100
1000
0100
0010
0001
0100
0010
0000
,
1000
0000
0000
0100
0000
0000
1000
0000
0000
0010
0000
0000
0100
0000
0001
0000
,
0010
0000
0000
0100
0000
0000
1000
0000
0000
0100
0000
0000
0010
0000
0001
0000
,
0100
0000
0000
0010
0000
0000
1000
0000
0000
0001
0000
0000
0010
0000
0001
0000
,
0100
0000
0000
0010
0000
0000
1000
0000
0000
0001
0000
0000
0010
0000
0100
0000
,
1000
0000
0000
0100
0000
0000
0010
0000
0000
0001
0000
0000
0100
0000
0010
0000
,
1000
0000
0000
0100
0000
0000
0001
0000
0000
0100
0000
0000
0010
0000
1000
0000
,
0001
0000
0000
0100
0000
0000
0010
0000
0000
0001
0000
0000
0010
0000
0001
0000
,
0100
0000
0000
0010
1000
0000
0001
0000
0020
0000
0000
0000
0000
0000
0000
0000
,
0130
0000
1000
0000
0010
0100
0001
0000
,
0100
0010
1000
0001
0010
0100
1000
0000
,
0100
0000
0010
0000
0001
0100
0001
0000
,
1000
0100
1000
0010
0100
0001
0010
0000
,
0001
0000
0100
0000
0010
0100
0001
0000
,
0010
0100
1000
0100
0010
0001
1000
0000
,
0010
0000
0100
0000
0010
1000
0001
0000
,
0010
0100
1000
0010
0100
0001
0010
0100
,
1000
0010
1000
0010
0100
0001
0100
0001
,
0010
0001
0010
0001
1000
0100
1000
0100
,
1000
0010
0100
0001
0010
0100
1000
0100
,
0010
0001
1000
0010
0100
0001
0010
0000
,
0001
0010
0001
0010
0100
1000
0100
1000
,
0010
1000
0010
1000
0001
0100
0001
0100
,
0001
0010
0100
1000
0010
0100
0001
0010
,
0100
1000
0010
0100
0010
1000
0001
0010
,
0001
0000
0000
0100
0000
0000
0010
0000
0000
1000
0000
0000
0001
0000
0010
0000
,
0100
1100
1000
1010
,
0010
0000
0000
0100
0000
0000
0001
0000
0000
0010
0000
0000
0100
0000
0010
0000
,
0001
0101
0100
0110
,
0010
0000
0000
1000
0000
0000
0100
0000
0000
1000
0000
0000
0001
0000
0100
0000
,
0010
1010
1000
1100
,
0100
0000
0000
0010
0000
0000
0001
0000
0000
0100
0000
0000
0010
0000
1000
0000
,
0001
1001
0100
0110
,
0010
1000
0100
0001
0100
1000
0010
0000
,
0010
0001
1000
0100
1000
0001
0010
0000
,
0001
0010
1000
0001
0010
0100
1000
0000
,
1000
0010
0100
0001
0010
0001
0100
0000
,
0010
1000
0001
0010
0100
1000
0100
0000
,
0010
0001
1000
0010
0100
0001
0010
0000
,
0001
0100
0010
1000
0001
0010
0100
0000
,
1000
0000
0000
1000
0001
0000
0100
0000
0010
0000
0000
0000
1001
0000
0000
0000
;

//---------------dance-single - ----------------
#NOTES:
     dance-single:
     :
     Challenge:
     17:
     0.864,0.817,1.000,0.039,0.722,494.000,122.000,4.000,0.000,0.000,0.000,0.864,0.817,1.000,0.039,0.722,494.000,122.000,4.000,0.000,0.000,0.000:
1000
0100
1000
0001
0100
0001
1000
1010
,
0001
0010
0001
1000
0010
1000
0001
0101
,
1000
0001
1000
0010
0100
0010
1000
1001
,
0001
1000
0001
0010
0100
0010
0001
1001
,
1000
0100
0010
0001
0100
0010
1000
1100
,
0100
0010
0001
0100
0010
1000
0100
0110
,
0100
1000
0010
0100
0001
0010
0100
0110
,
0100
0000
1000
0000
0001
0000
0010
0000
0100
1000
0100
1000
0001
0010
0100
1000
,
0002
0000
0000
0000
0000
0000
0000
0000
0103
0001
0100
0001
0100
0001
0100
0001
,
0101
1100
0011
1010
,
1000
0000
0001
0000
0010
0001
0000
0001
1000
0000
1000
0010
0000
0010
0100
0000
,
0001
0010
0100
1000
1001
0000
0100
0010
,
0001
0000
0100
0000
0001
0100
0000
0100
1000
0000
1000
0100
0000
0100
0010
0000
,
1000
0010
0100
0001
0011
0000
0010
0100
,
1000
0000
0010
0000
0100
0001
0000
0001
0010
0000
0100
0010
0000
0010
1000
0000
,
0010
0100
1000
0001
0101
0000
0100
0010
,
1000
0000
0010
0000
1000
0100
0000
0100
0010
0000
0001
0100
0000
0100
0010
0000
,
1000
0010
0000
0000
0100
0001
0000
0000
0110
0000
0100
0000
1100
0000
0000
0000
,
1100
0000
0000
0011
0000
0000
0101
0000
0000
1010
0000
0000
1001
0000
0110
0000
,
2010
0000
0000
0001
0000
0000
0100
0000
0000
0001
0000
0000
0010
0000
3001
0000
,
1001
0000
0000
0011
0000
0000
0110
0000
0000
1100
0000
0000
1010
0000
0110
0000
,
0102
0000
0000
1000
0000
0000
0010
0000
0000
0100
0000
0000
0010
0000
1003
0000
,
1001
0000
0000
1010
0000
0000
0011
0000
0000
1100
0000
0000
0101
0000
1001
0000
,
2100
0000
0000
0001
0000
0000
0010
0000
0000
0100
0000
0000
0001
0000
3010
0000
,
1010
0000
0000
0101
0000
0000
1100
0000
0000
0011
0000
0000
1010
0000
0110
0000
,
0100
0000
0001
0100
0001
0000
0100
0010
0100
0000
0010
1000
0010
0000
1000
0100
,
1000
0100
0000
0010
0100
0000
1000
0100
0000
0010
0100
0000
1000
0000
0100
0000
,
0010
0001
0100
0010
1000
0010
0100
0001
0010
0000
0100
0000
0110
0000
0000
0000
,
0001
0100
0000
0010
0100
0000
0001
0100
0000
0010
0100
0000
0010
0000
1000
0000
,
0001
0010
0100
1000
0010
0100
0001
1000
0100
0000
0010
0000
0110
0000
0000
0000
,
1000
0010
0000
0100
0010
0000
1000
0010
0000
0100
0010
0000
0100
0000
0001
0000
,
0010
0001
0100
0010
1000
0100
0010
0001
1000
0010
1000
0010
1000
0000
0001
1000
,
0010
0100
0000
0001
0100
0000
0010
0100
0000
0001
0100
0000
0001
0000
0100
0010
,
1000
0000
0001
0000
1001
0000
0001
0000
0011
0000
0010
0100
1000
0000
0010
0000
,
0100
0000
0100
0000
0010
1000
0000
0010
0001
0000
0010
1000
0000
0010
0001
0000
,
0010
0000
0110
0000
0100
0001
0000
0100
1000
0000
0100
0001
0000
0100
1000
0000
,
0001
0000
1001
0000
0001
0010
0000
1000
0010
0000
0001
0010
0000
1000
0010
0000
,
0100
0000
0110
0000
1000
0100
0000
0001
0100
0000
1000
0100
0001
0000
0100
0000
,
0010
1000
0010
0000
1000
0001
1000
0000
0001
0010
0001
0000
0010
0100
0010
0100
,
1000
0100
1000
0000
0001
1000
0001
0000
0100
0001
0100
0000
0010
0100
0010
0100
,
0010
1000
0001
0000
0010
0001
1000
0000
0100
1000
0001
0000
0100
0001
1000
0010
,
0100
0001
0100
0001
0010
0001
0010
0001
0010
0100
0010
0100
1000
0100
1000
0100
,
0110
0000
0000
1001
0000
0000
0011
0000
0000
0110
0000
0000
1100
0000
1100
0000
,
1001
0000
0000
1001
0000
0000
1001
0000
0000
1000
0010
0000
0100
0000
0010
0000
,
0110
0000
0000
0101
0000
0000
0011
0000
0000
0110
0000
0000
1001
0000
1001
0000
,
1100
0000
0000
1100
0000
0000
1100
0000
0000
0000
0100
0000
0010
0000
0100
0000
,
1100
0000
0000
0011
0000
0000
1010
0000
0000
0101
0000
0000
0110
0000
0110
0000
,
0011
0000
0000
0011
0000
0000
0011
0000
0000
0000
1001
0000
0000
0000
1000
0000
,
1010
0000
0000
0101
0000
0000
1001
0000
0000
1100
0000
0000
0011
0000
0011
0000
,
0110
0000
0000
0110
0000
0000
0110
0000
0000
0100
0000
0000
1000
0000
0100
0000
,
0110
0000
0000
0011
0000
0000
1100
0000
0000
1001
0000
0000
0101
0000
0110
0000
,
1010
0000
0000
0011
0000
0000
1100
0000
0000
0101
0000
0000
0011
0000
0110
0000
,
1100
0000
0000
0110
0000
0000
1001
0000
0000
0011
0000
0000
0110
0000
1001
0000
,
1100
0100
1100
0100
0110
0100
0110
0010
,
0011
0000
0000
1001
0000
0000
1010
0000
0000
0110
0000
0000
0101
0000
1001
0000
,
1100
0000
0000
0110
0000
0000
0011
0000
0000
0101
0000
0000
0110
0000
0110
0000
,
0010
1000
0010
1000
0100
0010
0100
0010
0001
0100
0001
0100
0010
1000
0010
1000
,
0001
0000
0000
0010
0100
0000
1000
0000
0001
0000
1000
0000
0110
0000
0000
0000
;
