#TITLE:GOLD DUST;
#SUBTITLE:;
#ARTIST:DJ Fresh;
#TITLETRANSLIT:;
#SUBTITLETRANSLIT:;
#ARTISTTRANSLIT:;
#GENRE:Electro-Pop;
#CREDIT:;
#BANNER:GOLD DUST.png;
#BACKGROUND:GOLD DUST-bg.png;
#LYRICSPATH:;
#CDTITLE:cdtitle.png;
#MUSIC:GOLD DUST.mp3;
#OFFSET:-0.087;
#SAMPLESTART:44.813;
#SAMPLELENGTH:15.000;
#SELECTABLE:YES;
#BPMS:0.000=177.000
;
#STOPS:
;
#BGCHANGES:;
#KEYSOUNDS:;
#ATTACKS:;

//---------------dance-single - ----------------
#NOTES:
     dance-single:
     :
     Beginner:
     4:
     0.137,0.165,0.020,0.000,0.000,92.000,2.000,0.000,0.000,0.000,0.000,0.137,0.165,0.020,0.000,0.000,92.000,2.000,0.000,0.000,0.000,0.000: // measure 0
0000
0000
0000
0000
,  // measure 1
0000
0000
0000
0000
,  // measure 2
0000
0000
0000
0000
,  // measure 3
0000
0000
0000
0000
,  // measure 4
0000
0000
0000
0000
,  // measure 5
0000
0000
0000
0000
,  // measure 6
0000
0000
0000
0000
,  // measure 7
0000
0000
0000
0000
,  // measure 8
0000
0000
0000
0000
,  // measure 9
1000
0000
0000
0000
,  // measure 10
0100
0000
0000
0000
,  // measure 11
1000
0000
0000
0000
,  // measure 12
0001
0000
0000
0000
,  // measure 13
0100
0000
0000
0000
,  // measure 14
0010
0000
0000
0000
,  // measure 15
1000
0000
1000
0000
,  // measure 16
1000
0000
0000
0000
,  // measure 17
0110
0000
0000
0000
,  // measure 18
0010
0000
0000
0000
,  // measure 19
0001
0000
0000
0000
,  // measure 20
0001
0000
0000
0000
,  // measure 21
1000
0000
0000
0000
,  // measure 22
1000
0000
0000
0000
,  // measure 23
0010
0000
0010
0000
,  // measure 24
1000
0000
1000
0000
,  // measure 25
1001
0000
0000
0000
,  // measure 26
0100
0000
0000
0000
,  // measure 27
1000
0000
0000
0000
,  // measure 28
0001
0000
0000
0000
,  // measure 29
0100
0000
0000
0000
,  // measure 30
0010
0000
0000
0000
,  // measure 31
1000
0000
1000
0000
,  // measure 32
1000
0000
0000
0000
,  // measure 33
0010
0010
0000
0000
,  // measure 34
0001
0000
0001
0000
,  // measure 35
1000
1000
1000
0000
,  // measure 36
0100
0000
0100
0000
,  // measure 37
0010
0010
0000
0000
,  // measure 38
0001
0000
0001
0000
,  // measure 39
1000
1000
1000
0000
,  // measure 40
0000
0000
0000
0000
,  // measure 41
0100
0100
0000
0000
,  // measure 42
1000
0000
0001
0000
,  // measure 43
0100
0100
0100
0000
,  // measure 44
0001
0000
1000
0000
,  // measure 45
0010
0010
0000
0000
,  // measure 46
1000
0000
0100
0000
,  // measure 47
1000
1000
1000
0000
,  // measure 48
0000
0000
0000
0000
,  // measure 49
1000
0000
1000
0000
,  // measure 50
0100
0000
0100
0000
,  // measure 51
0010
0000
0010
0000
,  // measure 52
0001
0000
0001
0000
,  // measure 53
1000
0000
1000
0000
,  // measure 54
0100
0000
0100
0000
,  // measure 55
0010
0000
0010
0000
,  // measure 56
0001
0000
0001
0000
,  // measure 57
0100
0000
0100
0000
,  // measure 58
0100
0000
0100
0000
,  // measure 59
0001
0000
0001
0000
,  // measure 60
1000
0000
1000
0000
,  // measure 61
0010
0000
0010
0000
,  // measure 62
0010
0000
0010
0000
,  // measure 63
0010
0000
0000
0000
,  // measure 64
0000
1000
1000
1000
;

//---------------dance-single - ----------------
#NOTES:
     dance-single:
     :
     Medium:
     9:
     0.386,0.410,0.204,0.224,0.000,223.000,20.000,22.000,0.000,0.000,0.000,0.386,0.410,0.204,0.224,0.000,223.000,20.000,22.000,0.000,0.000,0.000:
0000
0000
0000
0000
,
0000
0000
0000
0000
,
0000
0000
0000
0000
,
0000
0000
0000
0000
,
0000
0000
0000
0000
,
0000
0000
0000
0000
,
0000
0000
0000
0000
,
0000
0000
0000
0000
,
0000
0000
0000
0000
,
0200
0302
0000
0000
,
0003
0000
0010
0001
,
1000
0100
1000
0000
,
0000
0000
0010
0000
,
1001
1001
0000
0000
,
0001
0000
0100
0000
,
0010
2000
0200
0000
,
3300
0000
0000
0000
,
0101
0100
0010
1000
,
0001
0000
0010
0000
0001
0100
0001
0000
,
0010
0001
0100
0010
,
0010
0000
1000
0000
0100
1000
0100
0000
,
1000
0001
0100
0010
,
0010
0000
1000
0000
0001
0010
0001
0000
,
2000
0000
3200
0000
,
0320
0000
0032
0000
,
0103
0001
1000
0101
,
0010
0001
1000
1100
,
0010
1000
0001
0110
,
1000
0001
0010
0011
,
1000
0001
0100
0110
,
1000
0001
0010
1100
,
0020
0000
2030
0000
,
3200
0000
0000
0000
,
0310
0000
0010
0000
0001
0010
0100
0000
,
1000
0001
0100
0010
,
1010
1010
1010
0000
,
0001
0000
1000
0000
0100
0010
0001
0000
,
1001
1001
0000
0100
,
0001
0010
0100
1000
,
0010
0100
0020
0000
2030
0000
0000
0000
,
3100
0000
0000
0000
,
1001
2002
3000
0103
,
0000
0000
0010
0000
0100
0001
0010
0000
,
0100
1000
0002
0000
,
0003
0000
0100
0000
0010
1000
0100
0000
,
1010
2020
3030
0000
,
0100
0000
0001
0000
0010
0000
0100
1000
,
0100
1000
0002
0000
0203
0000
0000
0000
,
0310
0000
0000
0000
,
1000
0001
1000
0001
1000
0001
1000
0001
,
1000
0001
1000
0001
1000
0001
1000
0001
,
1000
0100
0010
0001
,
0100
0010
1000
0001
,
0010
0100
0010
0100
0010
0100
0010
0100
,
0010
0100
0010
0100
0010
0100
0010
0100
,
0010
0001
1000
0010
,
0100
0001
1000
1000
,
0001
0100
0001
0100
0001
0100
0001
0100
,
0001
0100
0001
0100
0001
0100
0001
0100
,
0001
0010
0001
0100
,
0010
0010
0100
0010
,
1000
0100
1000
0100
1000
0100
1000
0100
,
1000
0100
1000
0100
1000
0100
1000
0100
,
1000
0010
1000
0001
,
0100
0000
1001
0220
,
0000
0000
0000
0000
,
0000
0000
0000
0000
,
0330
0000
0000
0000
;

//---------------dance-single - ----------------
#NOTES:
     dance-single:
     :
     Hard:
     11:
     0.573,0.546,0.397,0.295,0.000,326.000,39.000,29.000,0.000,0.000,0.000,0.573,0.546,0.397,0.295,0.000,326.000,39.000,29.000,0.000,0.000,0.000:
0000
0000
0000
0000
,
0000
0000
0000
0000
,
0000
0000
0000
0000
,
0000
0000
0000
0000
,
0000
0000
0000
0000
,
0000
0000
0000
0000
,
0000
0000
0000
0000
,
0000
0000
0000
0000
,
0000
0000
0000
0000
,
0210
0302
0000
0100
,
0000
0000
1003
0100
1000
0000
0001
0010
,
0002
2003
3200
0310
,
0000
0000
0010
0100
1000
0000
0010
1000
,
1001
0102
0000
1003
,
0000
0000
0010
1000
0001
0000
0010
0000
,
1100
0101
2001
0000
,
3000
0000
0000
0000
0001
0010
0100
1000
,
0010
1000
0100
1000
0001
0100
0010
0100
,
0001
0010
0100
1000
0010
1000
0101
0000
,
0010
0001
1000
0100
0010
0001
0100
1000
,
0100
0010
1000
0001
0010
0100
1001
0000
,
0010
1000
0100
1000
0001
0100
0010
0100
,
0001
0010
1000
0010
0001
1000
0101
0000
,
0020
1030
2000
3100
,
0200
0301
0002
0013
,
1000
0100
0100
1000
1000
0001
0001
0100
,
0100
0010
1000
0001
0011
0000
1001
0000
,
0100
0010
0010
1000
1000
0001
0001
0010
,
0010
0100
1000
0001
0101
0000
1010
0000
,
0100
0010
0010
0100
0100
1000
1000
0001
,
0001
0100
1000
0100
0110
0000
1001
0000
,
0200
0310
0020
0031
,
0002
0000
0103
0000
0000
0010
1000
0000
,
1100
0000
0102
0000
1003
0100
0010
0000
,
0001
0010
0100
0010
0001
1000
0010
0100
,
0210
0302
1003
1100
,
0010
1000
0100
1000
0001
0010
0100
0000
,
0011
0000
1100
0000
0010
1000
0100
0000
,
0001
0000
0100
1000
0100
0000
0010
1000
,
0100
0010
0002
0000
0203
0000
0010
0000
,
0001
0000
0010
0000
0310
0100
0001
0000
,
0101
0000
2001
0000
3010
1000
0100
0000
,
1000
0100
0010
0001
0100
0010
0100
0001
,
0021
0230
1300
1010
,
0001
0000
0100
0001
0100
0010
1000
0000
,
0110
0000
1001
0000
0010
1000
0001
0000
,
0100
0000
1000
0100
0001
0000
0010
0001
,
0010
0100
2000
0000
3002
0000
0103
0000
,
0010
0010
1001
0101
,
1000
0100
0001
0001
1000
0010
0001
0001
,
1000
0100
0001
0001
1000
0010
0001
0100
,
0020
0000
1030
0000
0100
1000
0001
0000
,
0100
0010
1000
0000
1010
0000
1100
0000
,
0001
0010
1000
1000
0001
0100
1000
1000
,
0001
0010
1000
1000
0001
0100
1000
0010
,
0100
0000
1001
0000
0010
1000
0001
0100
,
0010
0100
0101
1001
,
1000
0100
0001
0001
1000
0010
0001
0001
,
0100
1000
0001
0001
0010
1000
0001
0001
,
0010
0000
1100
0000
0001
1000
0010
0000
,
0100
0001
0010
0100
0110
0000
0011
0000
,
1000
0010
0001
0001
1000
0100
0001
0001
,
0010
1000
0001
0001
0100
1000
0001
0001
,
0200
0010
0302
0100
,
0003
0000
1000
0001
0101
0000
2001
0000
,
3020
0000
0000
0000
,
0000
0000
0000
0000
,
0030
0000
0000
0000
;

//---------------dance-single - ----------------
#NOTES:
     dance-single:
     :
     Easy:
     7:
     0.244,0.341,0.010,0.132,0.000,154.000,1.000,13.000,0.000,0.000,0.000,0.244,0.341,0.010,0.132,0.000,154.000,1.000,13.000,0.000,0.000,0.000:
0000
0000
0000
0000
,
0000
0000
0000
0000
,
0000
0000
0000
0000
,
0000
0000
0000
0000
,
0000
0000
0000
0000
,
0000
0000
0000
0000
,
0000
0000
0000
0000
,
0000
0000
0000
0000
,
0000
0000
0000
0000
,
1000
0000
1000
0000
,
1000
0000
0001
0000
,
0100
0000
0100
0000
,
0100
0000
0001
0000
,
0010
0000
0010
0000
,
0010
0000
0100
0000
,
1000
0000
0001
0000
,
0100
0000
0000
0000
,
0001
0000
0000
0010
0000
0000
0001
0000
,
0000
0100
0000
0000
0010
0000
0000
0010
,
1000
0000
0000
0100
0000
0000
0010
0000
,
0000
0100
0000
0000
1000
0000
0000
0001
,
0100
0000
0000
0010
0000
0000
0100
0000
,
0000
0001
0000
0000
1000
0000
0000
0100
,
0020
0030
0002
0003
,
0200
0300
0020
0030
,
1000
0000
0000
0100
0000
0000
1000
0000
,
0000
0010
0000
0000
0100
0000
0000
0001
,
0010
0000
0000
0001
0000
0000
0100
0000
,
0000
0010
0000
0000
1000
0000
0000
0100
,
0010
0000
0000
0100
0000
0000
1000
0000
,
0000
0010
0000
0000
0100
0000
0000
0000
,
0002
0003
2000
3000
,
0200
0300
0000
0000
,
1000
0100
0000
1000
,
0000
0001
0100
0010
,
0000
1000
0000
0001
,
0000
0010
0100
1000
,
0000
0010
0000
0010
,
0000
1000
0001
0100
,
0000
0010
0000
0001
,
0000
0010
0100
1000
,
0000
0010
0000
0010
,
0000
1000
0100
0010
,
0000
0001
0000
1000
,
0000
0010
0100
0001
,
0000
0010
0000
0010
,
0000
0100
1000
0001
,
0000
0100
0000
0010
,
0000
1000
0000
0001
,
1000
0100
1000
0100
,
1000
0100
1000
0000
0100
1000
0100
0000
,
1000
0000
0100
0000
,
1000
0000
0010
0000
,
0100
0001
0100
0001
,
0100
0001
0100
0000
0001
0100
0001
0000
,
1000
0000
0001
0000
,
0010
0000
0100
0000
,
1000
0010
1000
0010
,
1000
0010
1000
0000
0010
1000
0010
0000
,
1000
0000
0001
0000
,
0100
0000
0001
0000
,
0010
0100
0010
0100
,
0010
0100
0010
0000
0100
0010
0100
0000
,
0020
0030
0200
0300
,
2000
3000
0002
0003
,
2002
0000
0000
0000
,
0000
0000
0000
0000
,
3003
0000
0000
0000
;
