#TITLE:Diamond Dogs (Euro-Dirt Mix);
#SUBTITLE:;
#ARTIST:Eurobeat Brony;
#TITLETRANSLIT:;
#SUBTITLETRANSLIT:;
#ARTISTTRANSLIT:;
#GENRE:Eurobeat;
#CREDIT:;
#BANNER:Diamond Dogs (Euro-Dirt Mix).png;
#BACKGROUND:Diamond Dogs (Euro-Dirt Mix)-bg.png;
#LYRICSPATH:;
#CDTITLE:;
#MUSIC:Diamond Dogs (Euro Dirt Mix).mp3;
#OFFSET:-0.030;
#SAMPLESTART:64.880;
#SAMPLELENGTH:15.000;
#SELECTABLE:YES;
#BPMS:0.000=148.000
;
#STOPS:
;
#BGCHANGES:;
#KEYSOUNDS:;
#ATTACKS:;

//---------------dance-single - Blank----------------
#NOTES:
     dance-single:
     :
     Challenge:
     15:
     0.787,0.790,0.376,0.079,0.594,579.000,43.000,9.000,0.000,0.000,0.000,0.787,0.790,0.376,0.079,0.594,579.000,43.000,9.000,0.000,0.000,0.000:
1000
0010
0100
0010
1000
0100
1000
0010
,
0100
0010
1000
0100
0010
0001
0010
0001
,
0100
0010
1000
0100
0010
1000
0010
0100
,
1000
0001
0100
0001
0100
1000
0100
0010
,
1000
0100
0010
0100
1000
0010
0100
1000
,
0100
0010
1000
0100
0010
0100
1000
0001
,
0100
0001
0010
0001
0100
0010
0001
0010
,
0100
0000
0001
0000
1000
0000
0001
0000
0100
0000
1000
0000
0100
0001
0100
0001
,
0010
0000
0000
0000
0110
0000
0000
0000
0100
1000
0100
1000
0001
0000
0100
0000
,
0000
0000
0001
0000
0100
0001
0100
0001
1000
0000
0100
0000
0010
0000
0001
0000
,
1000
0000
0010
0000
1000
0010
0000
1000
0001
0000
1000
0010
1000
0100
0010
0001
,
0100
0000
0001
0010
0100
1000
0010
0000
1000
0010
0100
0001
0010
0000
0100
0000
,
0010
0000
0000
0000
0110
0000
0000
0000
0100
1000
0010
0100
0010
0000
0100
0000
,
0000
0000
0001
0000
0100
0001
0010
0100
0010
0000
0100
0000
1000
0000
0010
0000
,
0100
0000
0001
0000
0001
1000
0000
0001
0100
0000
0001
1000
0010
1000
0100
0010
,
0001
0000
1000
0000
0010
0000
1010
0000
0000
0000
1000
0000
0100
0010
0100
0010
,
0001
0000
0000
0000
1001
0000
0000
0000
1000
0010
0100
0001
0100
0000
0010
0000
,
0000
0000
1000
0000
1000
0010
0100
0001
0100
0000
0010
0000
0100
0000
0001
0000
,
0010
0000
0100
0000
1000
0100
0000
0001
0100
0000
1000
0100
0010
0001
0100
0010
,
1000
0000
0001
1000
0001
0100
1000
0000
0100
0000
0010
0100
0010
1000
0000
0100
,
0010
0000
0000
0000
0110
0000
0000
0000
0100
0010
0001
1000
0010
0000
1000
0000
,
0000
0000
0100
0000
0100
0010
0001
1000
0010
0000
1000
0000
0010
0000
0100
0000
,
0001
0000
0010
0000
0001
0010
0000
1000
0010
0000
0001
0010
0100
1000
0010
0100
,
0001
0000
1000
0000
0001
0000
0101
0000
0000
0000
0100
0000
0010
0100
0010
0100
,
0001
0010
0010
0100
0010
0000
0100
1000
,
0010
0000
0000
1000
0000
0000
1001
0000
0000
0000
1000
0000
0100
0000
1000
0000
,
0010
0100
0010
1000
0100
0001
0100
0010
,
0001
0000
0011
0000
0001
1000
0000
1010
,
1000
0000
0000
0001
0000
0000
1000
0000
0000
0010
0000
0000
1000
0010
0100
0001
,
1000
0000
0000
0100
0000
0000
1000
0000
0000
0001
0000
0000
0100
0001
0010
0100
,
1000
0000
0000
0010
0000
0000
1000
0000
0000
0100
0000
0000
0010
0100
0010
0001
,
0100
0000
0000
0101
0000
0000
0001
0000
0000
1001
0000
0000
1000
0100
1000
0100
,
0010
0000
0100
0000
0100
0000
0000
0000
0010
0100
0000
0100
0000
0000
1100
0000
,
1000
0000
0001
0000
0001
0000
0000
0000
1000
0001
0000
0001
0000
0000
0101
0000
,
0001
0000
0010
0000
0010
0000
0000
0000
0001
0010
0000
0010
0000
0000
0110
0000
,
0100
0000
1000
0000
1000
0000
0000
0000
0100
1000
0000
1000
0000
0000
1100
0000
,
1000
0010
1000
0001
0010
0001
0000
1001
,
0000
1000
0100
0001
1000
0010
0001
0200
,
0301
0000
0100
0000
0110
0000
0010
0000
1010
0000
1000
0000
0100
0010
0100
0010
,
0200
0000
2300
0000
3200
0000
2300
0000
3010
1000
0010
0000
1000
0001
1000
0001
,
0100
0001
0010
0000
0011
0000
0001
0010
,
0100
0110
0000
0200
0310
0000
0000
0000
,
0010
0100
1000
0010
0100
0001
0100
0101
,
0000
0011
0000
0210
0000
1300
0000
1000
,
1010
0010
0100
0000
0110
0000
0100
0010
,
1000
1100
0000
1200
0310
0000
0000
0010
,
0001
0100
0001
1000
0100
0010
0001
0011
,
0000
0000
0110
0000
0000
0000
0200
0000
0000
0000
1300
0000
0100
1000
0010
0100
,
0001
0000
0000
0000
0101
0000
0000
0000
0001
0100
0010
0100
0001
0000
0010
0000
,
0000
0000
0110
0000
0100
1000
0010
1000
0100
0000
0010
0000
0001
0000
0100
0000
,
0010
0000
1000
0000
0100
1000
0000
0100
0010
0000
0100
1000
0100
0010
0100
0010
,
0001
0000
1000
0001
1000
0010
0100
0010
0000
0000
1000
0100
0010
0001
0000
0010
,
0100
0000
0000
0000
0110
0000
0000
0000
0100
1000
0100
0010
0001
0000
1001
0000
,
0000
0000
1001
0000
0001
0100
0010
1000
0010
0000
1000
0000
0100
0000
0010
0000
,
0100
0000
0100
0000
0010
0100
0000
0010
0001
0000
0010
0100
1000
0010
0100
0000
,
0010
0100
0010
1000
0010
1000
0100
0010
0100
0010
0001
0010
0001
0010
0100
1000
,
0010
0000
0000
0000
1010
0000
0000
0000
1000
0001
0010
0001
0100
0000
0110
0000
,
0000
0000
0110
0000
0100
0001
0010
0001
1000
0000
0010
0000
0100
0000
1000
0000
,
0100
0000
0010
0000
1000
0010
0000
1000
0001
0000
0100
0001
0100
0010
1000
0000
,
0010
0000
1000
0100
1000
0100
0010
0000
0100
0000
0010
0100
1000
0001
0000
0000
,
0101
0000
0000
0000
0110
0000
0000
0000
0010
1000
0100
0010
0100
0000
0110
0000
,
0000
0000
0110
0000
0100
1000
0010
0100
0010
0000
0100
0000
0001
0000
0010
0000
,
0100
0000
1000
0000
0001
1000
0000
1000
0100
0000
0100
0010
0001
0100
0001
0000
,
0101
0000
0100
0000
0010
0000
0110
0000
0000
0000
0010
0000
1000
0100
1000
0100
,
0010
0001
0100
0010
0100
0001
0010
0100
,
0010
0001
0100
0010
0100
0001
0010
0100
,
1000
0010
0100
0010
1000
0100
0010
0001
,
0100
0000
0000
0000
;

//---------------dance-single - Blank----------------
#NOTES:
     dance-single:
     :
     Medium:
     9:
     0.474,0.419,0.245,0.044,0.035,347.000,28.000,5.000,0.000,0.000,0.000,0.474,0.419,0.245,0.044,0.035,347.000,28.000,5.000,0.000,0.000,0.000:
1000
0000
0001
1000
0000
0001
1000
0000
,
1000
0000
0001
1000
0000
0001
1000
0000
,
0010
0000
0100
0010
0000
0100
0010
0000
,
1000
0000
0010
1000
0000
0010
1000
0000
,
0001
0000
1000
0001
0000
1000
0001
0000
,
0001
0000
1000
0001
0000
1000
0001
0000
,
0100
0000
0010
0100
0000
0010
0100
0000
,
0010
0000
0001
0010
0000
0001
0010
0000
,
1000
0000
0100
0000
0010
0001
0010
0000
,
0001
0000
0010
0001
0010
0000
0100
0000
,
1000
0000
0001
1000
0000
0001
1000
0000
,
0100
0000
0010
0100
0000
0010
0100
0000
,
0001
0000
0100
0000
1000
0010
0100
0000
,
0010
0000
1000
0010
0100
0000
0001
0000
,
1000
0000
0001
1000
0000
0001
1000
0000
,
0100
0010
0100
0010
0000
0000
0110
0000
,
1001
0000
0011
0000
0010
0100
0010
0000
,
0011
0000
0010
0100
0010
0000
0100
0000
,
1000
0000
0010
0000
0000
0100
0000
0000
0001
0000
0010
0000
0100
0000
1000
0000
,
0001
0100
0010
1000
0001
1000
0001
0000
,
1001
0000
1010
0000
0010
0100
0010
0000
,
1010
0000
0010
0100
0010
0000
0100
0000
,
0001
0000
0010
0000
0000
0100
0000
0000
1000
0000
0010
0000
0100
0000
0001
0000
,
1000
0100
0010
0001
0000
0001
1001
0000
,
0000
1000
0010
0100
0010
0000
0100
0001
,
0100
0000
0000
0001
0000
0000
0001
0000
0000
0000
0001
0000
1000
0000
0000
0000
,
0100
1000
0100
0010
0100
1000
0010
0100
,
0100
0010
0010
0010
,
0100
0001
0010
0100
0010
0000
0001
1000
,
0001
0000
0000
1000
0000
0000
1010
0000
0000
0000
0000
0000
1000
0000
0100
0000
,
0010
0001
0100
0010
1000
0100
0010
0002
,
0000
0000
1000
1003
,
0000
0100
0100
0010
0100
0000
0010
0001
,
0100
0010
0001
1000
0000
1001
0000
0000
,
0000
0001
0010
1000
0100
1000
0000
0100
,
0010
0000
0010
0000
0010
0100
0000
0000
,
0000
0100
1000
0001
1000
0100
0000
0110
,
0000
0010
0001
0100
0010
1000
0100
1000
,
0200
0000
0000
0000
0320
0000
0000
0030
,
2002
0000
0000
0000
0000
0000
0000
3003
,
1000
0100
0010
0000
0110
0000
0100
1000
,
0010
0110
0000
0110
0000
0000
0000
0000
,
0100
0001
0100
0001
1000
0001
1000
0100
,
0000
0010
0000
0110
0000
1001
0000
0000
,
0001
0100
0010
0000
0110
0000
0100
0001
,
0010
0110
0000
0110
0000
0000
0000
0000
,
0100
1000
0100
1000
0001
1000
0001
0100
,
0000
0010
0000
0110
0000
1001
0000
0000
,
1000
0000
0100
0000
0010
0001
0010
0000
,
0001
0000
0010
0001
0010
0000
0100
0000
,
1000
0000
0010
0000
0000
0100
0000
0000
0001
0000
0010
0000
0100
0000
1000
0000
,
0001
0100
0010
1000
0001
0010
0100
1000
,
0010
0000
0110
0000
0100
0001
1000
0000
,
0110
0000
0100
0001
1000
0000
0100
0000
,
1000
0000
0100
0000
0000
0010
0000
0000
0100
0000
1000
0000
0001
0000
0010
0000
,
0100
0010
0100
0010
0100
1000
0001
0010
,
0001
0000
0100
0000
0010
1000
0010
0000
,
0100
0000
0010
1000
0010
0000
0100
0000
,
0001
0000
1000
0000
0000
0100
0000
0000
0010
0000
0001
0000
0100
0000
0001
0000
,
0010
0010
0100
0100
1000
0001
1000
0001
,
0100
0000
0101
0000
0001
0010
0001
0000
,
0101
0000
0001
0010
0001
0000
0010
0000
,
0100
0000
0000
1000
0000
0000
0010
0000
0100
0000
0001
0000
0010
0000
0100
0000
,
1000
0100
0010
0011
0000
0000
0001
0000
,
1001
0000
0000
0000
;

//---------------dance-single - Blank----------------
#NOTES:
     dance-single:
     :
     Easy:
     6:
     0.276,0.335,0.157,0.070,0.000,195.000,18.000,8.000,0.000,0.000,0.000,0.276,0.335,0.157,0.070,0.000,195.000,18.000,8.000,0.000,0.000,0.000:
0010
0000
0000
0010
0000
0000
0000
0000
,
0001
0000
0000
0001
0000
0000
0000
0000
,
0100
0000
0000
0100
0000
0000
0000
0000
,
1000
0000
0000
1000
0000
0000
0000
0000
,
0010
0000
0000
0010
0000
0000
0000
0000
,
1000
0000
0000
1000
0000
0000
0000
0000
,
0100
0000
0000
0100
0000
0000
0000
0000
,
0001
0000
0000
0001
0000
0000
0000
0000
,
1001
0000
1000
0001
,
1000
0001
1000
0001
,
0100
0000
0100
0000
,
0010
1000
0100
0000
,
0110
0000
0010
0100
,
0010
0100
0010
0100
,
1000
0000
1000
0000
,
0100
1000
0010
1000
,
0100
0000
0100
0010
,
0100
0010
0100
0010
,
0001
1000
0001
0000
,
1000
0001
0011
0000
,
1100
0000
0100
1000
,
0100
1000
0100
1000
,
0010
0000
0010
0000
,
0100
0001
1001
0000
,
0000
1000
1000
0001
,
0200
0000
0310
0000
,
0010
1000
0100
0001
,
0101
0000
0100
0000
,
0010
0000
0000
0010
0000
0000
0000
0000
,
0100
0000
0000
0100
0000
0000
0000
0000
,
1000
0000
0000
1000
0000
0000
0000
0000
,
0001
0000
0000
0001
0000
0000
0000
0000
,
0000
1000
1010
0000
,
0000
0001
0101
0000
,
0000
0010
0011
0000
,
0000
0100
1100
0000
,
0000
1000
0010
0001
,
1000
0100
0001
1000
,
2002
3003
0220
0330
,
2002
0000
0000
3003
,
1000
0010
1000
0001
,
0010
0001
1000
0000
,
0001
0100
0001
1000
,
0100
1000
0001
0000
,
1010
1000
0010
1000
,
0001
0010
0110
0000
,
0100
1000
0100
0001
,
0100
0010
0002
1003
,
1001
1000
0010
1000
,
0010
1000
0010
0100
,
0001
0001
1000
1000
,
0100
0010
0100
0100
,
1000
0001
1000
1000
,
0010
1000
1000
0100
,
0010
0001
0010
0001
,
0100
0000
0110
0010
,
1000
0100
1000
1000
,
0001
1000
1000
0100
,
0010
0001
0010
0100
,
1000
0010
1000
0001
,
0010
0100
0001
0001
,
1000
0001
0001
0100
,
0010
0010
0001
1000
,
0010
0010
0100
0000
,
0110
0000
0000
0000
;

//---------------dance-single - Blank----------------
#NOTES:
     dance-single:
     :
     Beginner:
     2:
     0.095,0.112,0.070,0.000,0.000,68.000,8.000,0.000,0.000,0.000,0.000,0.095,0.112,0.070,0.000,0.000,68.000,8.000,0.000,0.000,0.000,0.000:
0001
0000
0000
0000
,
0100
0000
0000
0000
,
0001
0000
0000
0000
,
0010
0000
0000
0000
,
1000
0000
0000
0000
,
0100
0000
0000
0000
,
1000
0000
0000
0000
,
0010
0000
0000
0100
,
0100
0000
0000
0000
,
0100
0000
0000
0000
,
0010
0000
0000
0000
,
0010
0000
0000
0000
,
1000
0000
0000
0000
,
1000
0000
0000
0000
,
0001
0000
0000
0000
,
0001
0000
1001
0000
,
1000
0000
0000
0000
,
0100
0000
0000
0000
,
0010
0000
0000
0000
,
0001
0000
0000
0000
,
1000
0000
0000
0000
,
0100
0000
0000
0000
,
0001
0000
0000
0000
,
0100
0000
0000
0000
,
0010
0000
0010
0000
,
0010
0000
0000
0000
,
0100
0000
0000
0000
,
0000
0000
0000
0000
,
1000
0000
1000
0000
,
1000
0000
0000
0000
,
0001
0000
0000
0000
,
0000
0000
0000
0000
,
1000
0000
0001
0000
,
1000
0000
0000
0000
,
0001
0000
0000
0000
,
0001
0000
0000
0000
,
0010
0000
0100
0000
,
0010
0000
0000
0000
,
0100
0000
0000
0000
,
0010
0000
0000
0000
,
0110
0000
0000
0000
,
0000
0000
0000
0000
,
1001
0000
0000
0000
,
0000
0000
0000
0000
,
1010
0000
0000
0000
,
0101
0000
0000
0000
,
0011
0000
0000
0000
,
1100
0000
0000
0000
,
1000
0000
0000
0000
,
0010
0000
0000
0000
,
0100
0000
0000
0000
,
0001
0000
0000
0000
,
0001
0000
0000
0000
,
0010
0000
0000
0000
,
1000
0000
0000
0000
,
0010
0000
0000
0000
,
0100
0000
0000
0000
,
1000
0000
0000
0000
,
0010
0000
0000
0000
,
0001
0000
0000
0000
,
0100
0000
0000
0000
,
1000
0000
0000
0000
,
0010
0000
0000
0000
,
1001
0000
0000
0100
,
0100
0000
0000
0000
;

//---------------dance-single - ----------------
#NOTES:
     dance-single:
     :
     Hard:
     12:
     0.570,0.559,0.454,0.061,0.135,398.000,52.000,7.000,0.000,0.000,0.000,0.570,0.559,0.454,0.061,0.135,398.000,52.000,7.000,0.000,0.000,0.000:
1000
0000
0100
0010
0000
0100
0010
0000
,
0001
0000
0100
0010
0000
0100
0010
0000
,
1000
0000
0001
0010
0000
0001
0010
0000
,
0001
0000
1000
0010
0000
1000
0010
0000
,
1000
0000
0010
0100
0000
0010
0100
0000
,
0001
0000
0010
0100
0000
0010
0100
0000
,
1000
0000
0001
0100
0000
0001
0100
0000
,
0001
0000
1000
0100
0000
1000
0100
1000
,
0010
0000
0110
0000
0100
0001
0100
0001
,
0000
0010
0100
1000
0100
1000
0100
0010
,
0001
0000
1000
0000
0000
0001
0000
0000
1000
0000
0000
0000
1100
0000
0000
0000
,
1000
0100
0001
0100
1000
0010
0001
0010
,
1000
0000
0110
0000
0100
1000
0100
1000
,
0000
0010
0100
0001
0100
0001
0100
0010
,
1000
0000
0001
0000
0000
1000
0000
0000
0001
0000
0000
0000
0101
0000
0000
0000
,
0001
0000
0010
0000
0100
0000
1000
0000
0000
0000
0000
0000
0100
0010
0100
0010
,
0100
0000
1100
0000
0100
1000
0001
0010
,
0000
0010
0100
1000
0001
0010
0001
0100
,
1000
0000
0100
0000
0000
0001
0000
0000
0010
0000
0000
0000
0110
0000
0000
0000
,
0100
1000
0010
1000
0100
0010
0001
0010
,
0100
0000
1100
0000
0100
0001
1000
0010
,
0000
0010
0100
0001
1000
0010
0100
1000
,
0001
0000
1000
0000
0000
0100
0000
0000
0010
0000
0000
0000
0110
0000
0000
0000
,
1100
0000
0100
0000
0010
0000
0110
0000
0000
0000
0000
0000
0100
0010
0100
0010
,
0100
1000
0001
0100
0010
0000
0010
1000
,
0010
0000
0000
0100
0000
0000
0101
0000
0000
0000
0001
0000
0010
0000
0000
0000
,
0100
1000
0100
0001
1000
0010
0001
0100
,
0010
0000
1010
0000
0010
0100
0010
0100
,
0010
0000
0000
1100
0000
0000
0010
0000
0000
0101
0000
0000
0010
0000
1000
0000
,
0100
0000
0000
0011
0000
0000
0100
0000
0000
1010
0000
0000
0100
0000
0001
0000
,
0010
0000
0000
0101
0000
0000
0010
0000
0000
1100
0000
0000
0010
0000
0001
0000
,
1000
0000
0000
0011
0000
0000
1000
0000
0000
0101
0000
0000
0001
0000
0010
0000
,
0000
0000
0100
0000
0100
0000
0000
0000
0110
0000
0000
0110
0000
0000
0110
0000
,
0000
0000
0001
0000
0001
0000
0000
0000
1001
0000
0000
1001
0000
0000
1001
0000
,
0000
0000
0100
0000
0100
0000
0000
0000
0110
0000
0000
0110
0000
0000
0110
0000
,
0000
0000
1000
0000
1000
0000
0000
0000
1001
0000
0000
1001
0000
0000
1001
0000
,
0000
1000
0100
0010
0001
0100
0000
0101
,
0000
0001
0100
1000
0001
0010
1000
0100
,
0010
0010
0100
0100
1000
0100
0010
0001
,
2000
3001
0002
1003
2000
3001
0002
1003
,
1001
1000
0100
0000
0110
0000
0100
1000
,
0010
0100
0000
0210
0301
0000
0001
0000
,
0010
0100
1000
0010
0001
0010
1000
0100
,
0000
0110
0000
1001
0000
0110
0000
0000
,
0010
1000
0100
0000
0110
0000
0010
0001
,
0100
0010
0000
0210
1300
0000
1000
0000
,
0100
0001
0010
1000
0010
0001
0100
0110
,
0000
1010
0000
0101
0000
0021
0000
0000
,
0130
0000
1000
0000
0100
1000
0001
0010
,
0000
0010
0100
1000
0001
0010
0001
0100
,
0010
0000
1000
0000
0000
0001
0000
0000
1000
0000
0000
0000
0100
0000
0000
0000
,
0010
0001
0100
0001
0010
0100
1000
0010
,
1000
0000
1001
0000
0001
0010
0100
1000
,
0000
1000
0001
0010
0100
1000
0010
0100
,
0010
0000
1000
0000
0000
0100
0000
0000
0010
0000
0000
0000
1001
0000
0000
0000
,
0100
1000
0100
1000
0100
0000
1000
0000
0100
1000
0100
1000
0100
0000
0010
0000
,
0001
0000
1001
0000
1000
0010
0100
0001
,
0000
0001
1000
0010
0100
0001
0010
0100
,
0010
0000
0100
0000
0000
1000
0000
0000
0001
0000
0000
0000
0101
0000
0000
0000
,
0100
0010
1000
0100
0001
1000
0010
0100
,
1000
0000
1001
0000
0010
0001
1000
0100
,
0000
0100
0010
0001
1000
0100
1000
0010
,
1000
0000
0010
0000
0000
0100
0000
0000
0001
0000
0000
0000
0010
0000
0000
0000
,
0110
0000
0100
0000
1000
0000
1100
0000
0000
0000
1000
0000
0001
1000
0001
1000
,
0001
0000
0000
0000
;
