#TITLE:Dedede Invades Equestria;
#SUBTITLE:;
#ARTIST:Interrobang Pie befriends StormWolf;
#TITLETRANSLIT:;
#SUBTITLETRANSLIT:;
#ARTISTTRANSLIT:;
#GENRE:Chiptune;
#CREDIT:;
#BANNER:Dedede Invades Equestria.png;
#BACKGROUND:Dedede Invades Equestria-bg.png;
#JACKET:Dedede Invades Equestria-jacket.png;
#LYRICSPATH:;
#CDTITLE:;
#MUSIC:Dedede Invades Equestria.mp3;
#OFFSET:-0.114;
#SAMPLESTART:36.752;
#SAMPLELENGTH:15.000;
#SELECTABLE:YES;
#BPMS:0.000=172.786
,1.000=158.381
,2.000=156.428
,3.000=162.979
,4.000=178.483
,5.000=163.330
,6.000=156.106
,7.000=170.555
,8.000=170.193
,9.000=160.777
,10.000=158.407
,11.000=163.367
,12.000=170.233
,13.000=156.428
,14.000=170.495
,15.000=160.455
,16.000=158.468
,17.000=165.517
,18.000=167.842
,19.000=149.945
,20.000=178.971
,21.000=164.675
,22.000=154.506
,23.000=163.339
,24.000=163.034
,25.000=175.385
,26.000=168.283
,27.000=160.481
,28.000=156.428
,29.000=170.515
,30.000=158.398
,31.000=154.052
,32.000=162.960
,33.000=181.566
,34.000=167.803
,35.000=160.921
,36.000=165.204
,37.000=156.326
,38.000=168.283
,39.000=167.364
,40.000=160.894
,41.000=152.003
,42.000=173.139
,43.000=151.827
,44.000=163.395
,45.000=162.979
,46.000=181.532
,47.000=165.204
,48.000=160.903
,49.000=160.750
,50.000=149.984
,51.000=170.203
,52.000=163.395
,53.000=170.193
,54.000=156.335
,55.000=175.856
,56.000=158.459
,57.000=175.449
,58.000=158.477
,59.000=156.335
,60.000=162.951
,61.000=170.667
,62.000=162.970
,63.000=155.937
,64.000=170.657
,65.000=163.358
,66.000=163.432
,67.000=162.528
,68.000=162.868
,69.000=156.047
,70.000=163.284
,71.000=178.616
,72.000=167.803
,73.000=158.765
,74.000=149.969
,75.000=170.193
,76.000=172.994
,77.000=154.424
,78.000=170.193
,79.000=162.960
,80.000=165.536
,81.000=167.832
,82.000=158.756
,83.000=173.025
,84.000=149.938
,85.000=165.565
,86.000=169.781
,87.000=156.735
,88.000=162.970
,89.000=170.636
,90.000=155.962
,91.000=163.358
,92.000=163.007
,93.000=178.594
,94.000=162.951
,95.000=156.343
,96.000=162.970
,97.000=170.535
,98.000=156.013
,99.000=162.997
,100.000=170.626
,101.000=162.878
,102.000=165.622
,103.000=167.715
,104.000=156.522
,105.000=162.997
,106.000=162.970
,107.000=170.555
,108.000=156.021
,109.000=162.970
,110.000=173.473
,111.000=160.383
,112.000=170.667
,113.000=156.309
,114.000=163.090
,115.000=170.535
,116.000=158.390
,117.000=167.832
,118.000=156.369
,119.000=163.016
,120.000=173.004
,121.000=148.095
,122.000=175.503
,123.000=157.955
,124.000=163.804
,125.000=170.223
,126.000=162.970
,127.000=165.546
,128.000=168.126
,129.000=160.526
,130.000=167.832
,131.000=158.346
,132.000=158.381
,133.000=176.007
,134.000=152.212
,135.000=170.173
,136.000=170.444
,137.000=156.513
,138.000=162.767
,139.000=170.748
,140.000=163.007
,141.000=165.185
,142.000=154.399
,143.000=163.007
,144.000=175.824
,145.000=160.526
,146.000=162.960
,147.000=160.804
,148.000=156.420
,149.000=170.082
,150.000=163.071
,151.000=163.358
,152.000=162.997
,153.000=170.193
,154.000=156.343
,155.000=162.951
,156.000=165.546
,157.000=167.920
,158.000=156.335
,159.000=162.979
,160.000=170.616
,161.000=165.128
,162.000=168.224
,163.000=158.433
,164.000=160.455
,165.000=165.536
,166.000=160.894
,167.000=162.988
,168.000=162.942
,169.000=170.657
,170.000=155.962
,171.000=170.545
,172.000=162.970
,173.000=150.250
,174.000=170.263
,175.000=162.960
,176.000=163.302
,177.000=162.933
,178.000=170.334
,179.000=170.555
,180.000=158.364
,181.000=162.970
,182.000=167.822
,183.000=163.414
,184.000=165.194
,185.000=154.035
,186.000=165.985
,187.000=167.364
,188.000=163.367
,189.000=158.407
,190.000=167.842
,191.000=159.380
,192.000=174.662
,193.000=156.021
,194.000=165.631
,195.000=154.044
,196.000=170.657
,197.000=162.979
,198.000=160.795
,199.000=158.381
,200.000=170.667
,201.000=155.920
,202.000=162.859
,203.000=168.382
,204.000=158.407
,205.000=170.193
,206.000=144.216
,207.000=156.335
,208.000=178.605
,209.000=177.954
,210.000=170.768
,211.000=184.888
;
#STOPS:
;
#BGCHANGES:0.000=Dedede Invades Equestria.avi=1.000=0=0=0=StretchNoLoop====,
99999=-nosongbg-=1.000=0=0=0 // don't automatically add -songbackground-
;
#KEYSOUNDS:;
#ATTACKS:;

//---------------dance-single - ----------------
#NOTES:
     dance-single:
     :
     Easy:
     6:
     0.300,0.336,0.128,0.038,0.000,151.000,10.000,3.000,0.000,0.000,0.000,0.300,0.336,0.128,0.038,0.000,151.000,10.000,3.000,0.000,0.000,0.000:
1000
1000
0001
0001
,
0010
0000
0010
0000
,
0100
0000
0100
1000
,
0010
0000
0010
0000
,
0100
0000
0100
0001
,
1000
0000
1000
0000
,
0001
0000
0001
0100
,
1000
0000
1000
0000
,
0001
0000
0001
0010
,
1000
0000
0100
0000
,
0001
0000
0010
0000
,
1000
0000
0010
0000
,
0001
0000
0100
0000
,
1000
0000
0001
0000
,
0100
0000
0010
0000
,
1000
0000
0010
0000
,
0100
0000
0001
1000
,
1001
0000
0100
0000
,
0010
0000
0100
0000
,
1010
0000
0100
0000
,
0011
0000
0100
0000
,
1000
0100
0010
0000
,
1000
0100
0010
0000
,
0001
0100
0010
0000
,
0001
1000
0001
0100
,
0110
0010
1000
0100
,
1000
0010
0100
0001
,
1000
1000
0100
0010
,
0001
0001
0100
0010
,
0110
0010
1000
1000
,
0100
0010
0100
1000
,
0010
0100
0010
0002
,
0023
2030
3100
0001
,
0100
0100
0010
0010
,
0001
1000
0001
0000
,
0100
0100
0010
0010
,
1000
0001
1000
0000
,
0010
0010
0100
0100
,
0001
1000
0001
0000
,
0010
0010
0100
0100
,
1000
0001
1000
0001
,
1001
0000
1000
0000
,
0100
0000
1000
0000
,
0001
0000
0100
0000
,
0001
0000
0010
0100
,
0110
0000
1000
0000
,
0001
0000
1000
0000
,
0010
0000
0100
0000
,
0001
0000
1000
0001
,
1001
1000
0001
0001
,
0000
0000
0000
0000
,
1001
0000
1000
0010
,
0100
0001
1001
0000
,
0000
0000
0000
0000
;

//---------------dance-single - Blank----------------
#NOTES:
     dance-single:
     :
     Hard:
     15:
     0.805,0.815,0.218,0.013,0.506,422.000,17.000,1.000,0.000,0.000,0.000,0.805,0.815,0.218,0.013,0.506,422.000,17.000,1.000,0.000,0.000,0.000: // measure 0
1000
0010
1000
0000
0000
0000
0010
0100
0010
0000
0000
0000
0100
0001
0100
0000
,  // measure 1
0001
0000
0010
0100
0001
0100
0010
0000
,  // measure 2
1000
0000
0000
1000
0000
0000
0010
0000
1000
0000
0100
0000
0010
0100
0010
0100
,  // measure 3
1000
0000
0001
0000
0100
0000
0001
0000
1000
0000
0000
0000
0100
0010
0001
1000
,  // measure 4
0100
0000
0010
0000
0100
0010
0000
0001
0000
0000
0000
0000
1001
0000
1000
0000
,  // measure 5
0010
0000
0000
0100
0000
0000
0001
0000
0100
0000
0010
0000
1000
0000
0100
0000
,  // measure 6
0010
0000
0000
0100
0000
0000
0100
0000
0010
0000
0001
0000
1000
0100
0010
0001
,  // measure 7
1000
0000
0001
0000
0010
0000
0001
0000
1000
0000
0000
0000
0010
1000
0100
1000
,  // measure 8
0100
0000
0000
0010
0000
0000
0001
0000
1001
0000
0000
0000
0010
0000
1000
0100
,  // measure 9
1000
0000
0001
0100
0001
0000
1000
0100
,  // measure 10
0001
0000
1000
0010
1000
0001
0000
0010
,  // measure 11
1000
0000
0010
0100
1000
0000
0000
1000
,  // measure 12
0001
0000
0100
0001
0100
0010
0000
0000
,  // measure 13
1000
1000
0010
0100
0001
0000
0001
0010
,  // measure 14
0001
0000
0010
0100
1000
0010
0000
1000
,  // measure 15
0010
0000
1000
0100
1000
0000
1001
1000
,  // measure 16
0100
0000
0100
0000
0010
0000
0001
0000
0100
0000
0010
0000
1000
0000
0001
1000
,  // measure 17
0001
0000
1000
0100
1000
0000
0100
0000
0010
0000
0001
0010
0001
0000
0100
0000
,  // measure 18
0001
0000
1000
0100
1000
0000
0010
0000
0100
0000
0001
0100
0001
0000
1000
0000
,  // measure 19
0100
0000
0010
0100
0010
0000
0100
0000
1000
0000
0001
1000
0001
0000
0100
0000
,  // measure 20
0100
0000
0010
0100
0010
0000
0100
0000
0001
0000
1000
0100
1000
0000
0100
0000
,  // measure 21
0010
0000
0001
0010
0001
0000
0100
0000
0010
0000
1000
0010
1000
0000
0100
0000
,  // measure 22
0010
0000
0100
1000
0001
0000
0100
0000
0010
0000
0100
0001
1000
0000
0100
0000
,  // measure 23
0000
0020
0100
0100
1000
1000
0001
0031
,  // measure 24
0010
0001
0010
0001
0010
0100
0010
0100
1000
0000
0001
0000
0001
0000
1000
0010
,  // measure 25
1000
0000
0001
0010
0001
0000
1000
0000
0001
0000
1001
0000
1001
0000
1000
0000
,  // measure 26
0010
0000
0100
0001
0100
0000
0001
0000
0010
0000
0001
0010
0001
0000
0010
0000
,  // measure 27
0100
0000
1000
0000
0010
0000
0100
0001
0000
0000
0000
0000
0011
0000
0010
0000
,  // measure 28
0100
0000
1000
0010
0100
0000
0010
0000
0100
0000
0001
0010
0100
0000
1000
0000
,  // measure 29
0010
0000
0010
1000
0100
0000
0010
0000
0100
0000
0110
0000
0110
0000
0010
0000
,  // measure 30
0001
0000
0100
0001
0100
0000
0010
0000
1000
0000
0100
1000
0100
0000
0010
0000
,  // measure 31
0100
0000
1000
0000
0001
0000
0010
0100
0000
0010
0100
0000
0110
0000
0000
0000
,  // measure 32
0011
0000
1100
0000
1010
0000
0101
0001
,  // measure 33
1000
0000
0100
0000
1000
0000
0100
0010
0000
0100
0010
0000
0001
0000
1000
0000
,  // measure 34
0100
1000
0100
0010
0100
0000
0010
0001
,  // measure 35
1000
0000
0010
0000
1000
0000
0001
1000
0000
0001
1000
0000
0100
0000
0010
0000
,  // measure 36
0010
0000
0000
0001
0000
0000
1000
0000
0001
0000
0000
0000
1001
0000
0000
0000
,  // measure 37
1000
0000
0010
0000
0100
0000
0010
1000
0000
0010
1000
0000
0001
0000
0010
0000
,  // measure 38
0100
1000
0001
0010
0001
0100
1000
0100
,  // measure 39
0010
0000
1000
0000
0100
0000
0010
0100
0000
0010
0100
0000
1000
0000
0100
0000
,  // measure 40
0010
0000
0000
0100
0000
0000
1000
0000
0010
0000
1000
0000
1000
0000
0001
1000
,  // measure 41
0001
1000
0100
0010
0100
1000
0001
0010
,  // measure 42
0100
0000
0010
0000
0001
0000
1000
0000
0010
0000
0100
0000
0001
1000
0010
0100
,  // measure 43
0001
0000
0100
0000
0010
0000
1000
0000
0100
0000
1000
0000
0010
1000
0010
1000
,  // measure 44
0001
0000
0010
0000
0001
0100
0000
0010
0000
0000
1000
0000
1000
0000
0010
0000
,  // measure 45
0100
0000
0000
0001
0000
0000
0100
0000
0010
0000
1000
0000
0100
0000
0010
0000
,  // measure 46
0001
0000
0000
0000
0001
0000
1000
0000
0000
0000
0010
0000
1000
0010
0100
0001
,  // measure 47
1000
0000
0100
0000
1000
0000
0010
0000
0100
0000
0000
0000
0001
0100
0001
0010
,  // measure 48
0100
0000
0000
1000
0000
0000
0010
0000
0110
0000
0000
0000
0010
0000
1000
0001
,  // measure 49
0100
0001
0100
0000
0000
0000
0010
0100
0010
0000
0000
0000
1000
0010
1000
0000
,  // measure 50
0000
0000
0000
0000
,  // measure 51
1001
0000
0000
0000
0000
0000
1000
0000
0100
1000
0000
1000
,  // measure 52
0010
0100
0001
1000
0000
0100
0010
0000
0000
0000
0000
0000
,  // measure 53
0110
0000
0000
0000
;

//---------------dance-single - Blank----------------
#NOTES:
     dance-single:
     :
     Medium:
     10:
     0.577,0.543,0.102,0.064,0.032,302.000,8.000,5.000,0.000,0.000,0.000,0.577,0.543,0.102,0.064,0.032,302.000,8.000,5.000,0.000,0.000,0.000:
1000
0001
0000
1000
0001
0000
1000
0001
,
0010
0100
0010
0001
,
1000
0000
0010
0000
1000
0010
1000
0010
,
0100
0000
0001
0000
1000
0000
0100
0010
,
0100
0000
1000
0000
0010
0000
0100
0010
,
0100
0000
0001
0000
0010
0001
0010
0001
,
0010
0000
0100
0000
1000
0000
0010
1000
,
0010
0000
1000
0000
0100
0000
0010
0100
,
1000
0001
0101
0000
,
1001
0000
1000
0100
1000
0000
0001
0100
,
0001
0000
0010
0001
0010
0001
0000
0000
,
0010
0000
0100
1000
0010
0000
0100
0001
,
0010
0000
0100
1000
0010
0100
0000
0000
,
0001
0010
0001
0100
0010
0000
1000
0010
,
1000
0000
0100
0010
0100
0010
0000
0000
,
0100
1000
0100
1000
0010
0100
0010
0000
,
0100
0000
0100
0000
0010
0010
0010
0010
,
1000
0001
0010
0001
,
1000
0001
0100
0001
,
1000
0001
0010
0001
1000
0001
0100
0001
,
1000
0001
0010
0001
1000
0001
0100
0001
,
0010
0100
0010
0100
1000
0010
1000
0010
,
0100
0001
0100
0001
0010
0001
0010
0100
,
1000
0001
1000
0001
0001
1000
0001
1000
,
0001
0010
0100
1000
0100
0010
0001
1000
,
0010
0000
0100
0000
0010
0100
0010
0000
,
1000
0000
0100
0000
0010
0100
0010
0000
,
0010
0001
0100
0001
1000
0000
1001
0000
,
0100
1000
0100
1000
0010
0000
1000
0000
,
0001
1000
0001
1000
0100
0010
0010
0000
,
0100
1000
0010
0100
0001
1000
0100
1000
,
0001
0000
0100
0000
0001
0100
0002
0000
,
0023
0230
2300
3200
,
0310
0100
0010
0000
0100
1000
0100
0000
,
1000
0001
1000
0000
0001
0100
0001
0000
,
0100
0010
1000
0001
0100
0010
1000
0001
,
0100
0000
0000
0100
0000
0000
0010
0000
0010
0000
0000
0000
0000
0000
0000
0000
,
1000
0010
1000
0000
0010
0100
0010
0000
,
0100
0001
0100
0000
0001
0010
0001
0000
,
0010
0100
1000
0001
0010
0100
1000
0001
,
1000
0000
0000
1000
0000
0000
1000
0000
0001
0000
0000
0000
1001
0000
0000
0000
,
1000
0000
0100
0000
0010
0100
0010
0000
,
0100
1000
0001
1000
0100
0000
0010
0001
,
0010
0000
0001
0000
0100
0000
0010
1000
,
0010
0000
1000
0000
0100
0000
0010
0010
,
0100
0000
1000
0000
0001
0100
0001
0100
,
0001
0000
1000
0000
0100
0010
0001
0100
,
0010
0000
1000
0000
0001
1000
0001
0000
,
1000
0000
0000
1000
0000
0000
1000
0000
0001
0000
0000
0000
1001
0000
0000
0000
,
1000
0001
0000
1000
0001
0000
1000
0001
,
0000
0000
0000
0000
,
1001
0000
0000
0000
0000
0000
1000
0000
0100
0010
0000
0000
,
0001
0000
0100
0010
0000
0000
0110
0000
0000
0000
0000
0000
,
1001
0000
0000
0000
;

//---------------dance-single - Blank----------------
#NOTES:
     dance-single:
     :
     Beginner:
     4:
     0.203,0.204,0.141,0.000,0.000,100.000,11.000,0.000,0.000,0.000,0.000,0.203,0.204,0.141,0.000,0.000,100.000,11.000,0.000,0.000,0.000,0.000:
0000
0000
0000
0000
,
1000
0000
0001
0000
,
1000
0000
0000
0000
,
1000
0000
0100
0010
,
0100
0000
0000
0000
,
0001
0000
1000
0000
,
0001
0000
0000
0000
,
0001
0000
0100
0010
,
0100
0000
0000
0000
,
1001
0000
0000
0000
,
0110
0000
0000
0000
,
1001
0000
0000
0000
,
0110
0000
0000
0000
,
0010
0000
1000
0000
,
0100
0000
0000
0000
,
0001
0000
0100
0000
,
1000
0000
0000
0000
,
0000
1000
1000
0000
,
0000
0001
0001
0000
,
0000
0010
0010
0000
,
0000
0110
0110
0000
,
0000
1000
0001
0000
,
0000
0001
1000
0000
,
0000
0010
0100
0000
,
1000
0100
0010
0001
,
1000
0000
1000
0000
,
0001
0000
0001
0000
,
0100
0000
0100
0000
,
0010
0100
0010
0000
,
1000
0000
1000
0000
,
0100
0000
0100
0000
,
0010
0000
0010
0000
,
0001
0100
0001
0100
,
0010
0000
0010
0000
,
1000
0000
0001
0000
,
0010
0000
0010
0000
,
0001
1000
0001
0000
,
0100
0000
0100
0000
,
0001
0000
1000
0000
,
0100
0000
0100
0000
,
1000
0001
1000
0000
,
1001
0000
1000
0000
,
0100
0000
0000
0000
,
1001
0000
0001
0000
,
0100
0010
0100
0000
,
0110
0000
0010
0000
,
0100
0000
0000
0000
,
0110
0000
0010
0000
,
0100
0001
0100
0000
,
0001
0000
0000
1000
0000
0000
0001
0000
,
0000
0000
0000
0000
,
1001
0000
0000
0000
,
0000
0000
0000
0000
,
0010
0000
0000
0000
;
