#TITLE:Death on Two Legs;
#SUBTITLE:;
#ARTIST:Queen;
#TITLETRANSLIT:;
#SUBTITLETRANSLIT:;
#ARTISTTRANSLIT:;
#GENRE:Rock;
#CREDIT:;
#BANNER:Death on Two Legs.png;
#BACKGROUND:;
#LYRICSPATH:;
#CDTITLE:;
#MUSIC:Death on Two Legs.mp3;
#OFFSET:-0.035;
#SAMPLESTART:52.880;
#SAMPLELENGTH:15.000;
#SELECTABLE:YES;
#BPMS:0.000=120.327
,1.000=117.199
,3.000=122.279
,4.000=122.296
,5.000=117.199
,6.000=122.279
,7.000=122.296
,9.000=115.003
,10.000=121.309
,11.000=120.404
,12.000=122.279
,13.000=118.104
,14.000=132.771
,15.000=127.857
,16.000=117.199
,17.000=122.279
,18.000=127.857
,19.000=127.838
,20.000=122.296
,21.000=127.838
,22.000=133.927
,23.000=127.857
,24.000=117.183
,25.000=117.199
,26.000=127.857
,27.000=127.838
,28.000=129.161
,29.000=120.147
,30.000=128.916
,31.000=117.199
,32.000=127.857
,33.000=122.279
,34.000=133.927
,35.000=122.285
,36.000=117.199
,37.000=133.927
,38.000=127.838
,39.000=122.285
,40.000=127.838
,41.000=122.285
,42.000=127.838
,43.000=122.285
,44.000=122.296
,45.000=127.838
,47.000=127.857
,48.000=127.838
,49.000=133.927
,50.000=117.194
,51.000=122.285
,52.000=127.838
,53.000=126.785
,54.000=123.265
,55.000=127.845
,56.000=122.279
,58.000=117.621
,59.000=119.453
,60.000=120.850
,61.000=126.277
,62.000=120.613
,63.000=118.772
,64.000=127.838
,65.000=122.285
,67.000=122.291
,68.000=127.838
,69.000=117.194
,70.000=128.359
,71.000=120.153
,72.000=127.567
,73.000=122.540
,74.000=134.807
,75.000=133.320
,76.000=123.749
,77.000=133.623
,78.000=126.319
,79.000=129.439
,80.000=122.540
,81.000=127.838
,82.000=133.927
,83.000=127.845
,84.000=122.279
,85.000=127.845
,86.000=122.279
,87.000=127.845
,88.000=126.518
,89.000=125.510
,90.000=125.778
,91.000=117.194
,92.000=126.785
,93.000=138.737
,94.000=112.500
,95.000=127.838
,96.000=119.458
,97.000=133.927
,98.000=127.838
,99.000=122.285
,100.000=117.189
,101.000=117.183
,102.000=133.934
,103.000=133.927
,104.000=122.279
,105.000=136.589
,106.000=137.813
,107.000=127.838
,109.000=122.285
,110.000=127.838
,111.000=122.285
,112.000=127.838
,113.000=122.285
,114.000=133.927
,115.000=117.189
,116.000=127.838
,117.000=117.189
,118.000=133.927
,119.000=117.189
,120.000=127.845
,121.000=127.838
,122.000=122.285
,123.000=127.838
,124.000=124.494
,125.000=125.510
,126.000=127.838
,127.000=122.285
,128.000=127.838
,129.000=127.845
,130.000=122.279
,132.000=127.838
,133.000=127.845
,134.000=122.279
,137.000=127.838
,138.000=122.285
,140.000=130.261
,141.000=127.561
,142.000=125.778
,143.000=132.174
,144.000=122.790
,145.000=123.270
,146.000=127.838
,147.000=127.845
,148.000=127.838
,150.000=132.174
,151.000=117.423
,152.000=128.916
,153.000=128.117
,154.000=121.315
,155.000=127.838
,156.000=133.934
,157.000=118.088
,158.000=127.845
,159.000=127.838
,161.000=122.285
,163.000=132.466
,164.000=123.524
,165.000=127.801
,166.000=122.319
,167.000=130.506
,168.000=125.284
,169.000=127.845
,170.000=127.838
,171.000=127.377
,172.000=128.353
,173.000=127.845
;
#STOPS:
;
#BGCHANGES:-1.500=Death On Two Legs.avi=1.000=0=0=0=StretchNoLoop====,
99999=-nosongbg-=1.000=0=0=0 // don't automatically add -songbackground-
;
#KEYSOUNDS:;
#ATTACKS:;

//---------------dance-single - ----------------
#NOTES:
     dance-single:
     :
     Hard:
     11:
     0.563,0.699,0.309,0.262,0.179,283.000,26.000,22.000,0.000,0.000,0.000,0.563,0.699,0.309,0.262,0.179,283.000,26.000,22.000,0.000,0.000,0.000:
1000
0000
1000
0000
1000
0100
1000
0001
,
0000
0100
0001
0000
0010
0000
0010
0000
,
0100
0000
0100
0000
0100
1000
0010
0100
,
0001
0000
0000
0000
1000
0000
0001
0000
0000
0000
0010
0100
0010
0000
0000
0000
,
0200
0000
1000
0000
0310
0100
1000
0010
,
0100
0000
0100
0000
0100
0001
1000
0100
,
0010
0000
0010
0000
0001
0010
0001
0100
,
0010
0000
0000
0000
1000
0000
0000
0010
1000
0000
0001
0000
0010
0000
0110
0000
,
0200
1000
1000
1300
,
1001
0101
1010
1001
,
0200
0001
0001
0301
,
0110
1010
1001
0011
,
0020
0001
0001
0031
,
0011
0000
0000
0000
0000
0000
0110
0000
0000
0100
1000
0100
1000
0000
0000
0001
0000
0000
0100
0000
0000
0000
0000
0000
,
0010
0000
1000
0000
0001
0010
0001
0100
,
0000
0010
0100
0001
0010
0100
1000
0010
,
0000
0100
0010
1000
0001
0010
0001
0100
,
0000
0000
0000
0010
0000
0000
1000
0010
1000
0010
0000
0000
1000
0000
0000
0000
0000
0000
0001
0000
0000
1000
0000
0000
,
1001
0000
0001
0010
0011
0000
0010
0100
,
0110
0000
0100
1000
1100
0000
1000
0001
,
0100
0000
0010
0100
0010
0100
0010
0100
,
0001
1000
0100
0010
0001
0010
0002
2003
,
3100
0000
1000
1000
0010
0100
0020
2030
,
3001
0000
1000
0100
0010
0001
0010
1000
,
0010
0000
0000
0001
0000
0000
0100
0010
0100
0010
0000
0000
2000
0000
0000
0000
0000
0000
3010
0000
0000
0000
0000
0000
,
0102
0013
0210
1300
,
0100
0000
0000
1000
0000
0000
0010
0000
0000
0000
0000
0000
0100
0000
0000
0001
0000
0000
0010
0000
0000
0100
0010
0100
,
0020
0000
0000
0030
0110
0100
1000
0002
,
0000
0103
0001
2000
0000
3100
1000
0010
,
0100
0000
0010
0000
1000
0000
0100
0000
0020
0000
0000
0000
0031
0000
0010
0100
,
0010
0100
1000
0001
0100
0000
0010
0100
,
0000
0000
0001
1000
0002
0000
0000
0000
1003
0000
0001
0000
0010
0000
0200
0000
,
0000
0310
0100
0002
0000
0103
0001
0100
,
1000
0000
0010
0000
0100
0000
0001
0000
2000
0000
0000
0000
3100
1000
0100
0000
,
0000
0000
1000
0000
0010
0000
1000
0001
0020
0000
0000
0000
0130
0000
0000
0010
,
0001
0000
0100
0000
0010
0000
1000
0000
1001
0000
0000
0000
0011
0000
0000
0010
,
0100
0000
0000
0000
0000
0000
1000
0000
0000
0000
0000
0000
0001
0000
1000
0000
0001
0000
1000
0000
0000
0000
0000
0000
1001
0000
0000
0000
0000
0000
0000
0000
0000
0000
0000
0000
1100
0000
0000
0000
0000
0000
0000
0000
0000
0100
0000
0000
,
0010
0100
0010
0100
0010
0100
0010
0100
0010
0100
0010
0100
0010
0000
0000
0001
0000
0000
0100
0000
0000
0001
0000
0000
,
1000
0010
0000
0010
1000
0000
0100
0000
0010
0000
0000
0000
0001
0000
0000
0010
,
0100
1000
0001
0100
0010
0000
0110
0000
,
0010
1000
0001
0010
0100
0000
0110
0000
,
0100
1000
0001
0100
0010
0000
1010
0000
,
0010
1000
0001
0100
0001
0000
2002
0000
,
0000
0000
3003
0000
;

//---------------dance-single - ----------------
#NOTES:
     dance-single:
     :
     Medium:
     7:
     0.378,0.414,0.143,0.190,0.006,194.000,12.000,16.000,0.000,0.000,0.000,0.378,0.414,0.143,0.190,0.006,194.000,12.000,16.000,0.000,0.000,0.000:
1000
0000
1000
0000
1000
0001
0010
0100
,
0000
0010
0100
0000
1000
0000
1000
0000
,
0100
0000
0100
0000
0100
0010
0001
1000
,
0010
0000
0010
0000
0010
0100
0010
0000
,
0100
0000
0100
0000
0100
0001
1000
0000
,
0100
0000
0100
0000
0100
1000
0100
1000
,
0010
0000
0010
0000
0010
1000
0001
0000
,
0010
0000
0010
0000
0010
0001
0010
0001
,
0200
0000
0010
0010
,
0001
0010
1000
0310
,
0020
0000
1000
0100
,
0001
0100
1000
1030
,
2000
0000
0001
0010
,
0100
0010
0001
3001
,
1000
0000
0010
0000
0100
0010
0100
0010
,
0000
0000
1000
0000
0100
0010
0100
0010
,
0000
0000
0001
0000
0100
0010
1000
0010
,
0000
1000
1100
0000
,
0011
0000
0101
0000
,
1001
0000
2000
0000
,
3002
0000
1000
1000
1003
0001
1000
0001
,
0010
0100
0010
0100
1000
0100
1000
0100
,
0000
0000
1000
0000
0001
0100
0001
0100
,
0000
0000
0001
0000
0010
0100
1000
0100
,
0010
0100
0001
0100
0020
0000
0000
0000
,
0230
0000
2300
0000
,
3002
0000
0203
0000
,
0310
0000
0000
0000
0010
1000
0001
0100
,
0000
0001
1000
0001
0000
1000
0001
0000
,
0000
0010
0200
0000
,
0310
0100
1000
0010
0100
0000
0010
0100
,
0000
0010
0100
0000
0001
0100
0010
1000
,
0000
0100
1000
0100
0000
1000
0100
0000
,
0010
0010
0200
0000
,
2300
0000
3002
0000
,
0000
0003
1010
1010
,
0000
1000
0100
1000
0011
0000
0011
0000
,
0000
0000
0001
0100
0010
1000
0010
0100
,
0001
0000
1000
0000
0100
0000
0100
0000
0010
0000
0000
0001
0000
0000
0010
0000
,
0000
0001
0100
0010
0100
0000
0110
0000
,
0010
1010
1000
1001
,
0001
0011
0010
0100
,
0010
0100
0010
0100
2000
0000
0002
0000
,
0000
0000
3003
0000
;

//---------------dance-single - ----------------
#NOTES:
     dance-single:
     :
     Easy:
     5:
     0.274,0.259,0.095,0.262,0.000,131.000,8.000,22.000,0.000,0.000,0.000,0.274,0.259,0.095,0.262,0.000,131.000,8.000,22.000,0.000,0.000,0.000:
0000
0000
0000
0000
,
0000
0000
0000
0010
,
0020
0000
0000
0000
,
0030
0000
0000
1000
,
0002
0000
0000
0013
,
0100
0100
0100
0100
,
2000
0000
0000
3010
,
1000
0001
1000
0000
,
0022
0000
0000
0033
,
0001
0010
0100
1000
,
2020
0000
0000
3030
1000
0000
1000
0000
,
1000
0010
0100
0001
,
2002
0000
0000
3003
1000
0000
1000
0000
,
0001
0100
0000
0010
,
1000
0100
0010
0010
,
0010
0001
0100
0100
,
0100
0010
1000
1000
,
1000
0001
1001
0000
,
0011
0000
1001
0000
,
0000
1010
1000
0001
,
1000
0001
0010
0100
,
0010
0100
0010
0010
,
0010
0001
1000
1000
,
1000
0010
0100
0001
,
0100
0001
2000
0000
,
3002
0000
0203
0000
,
2300
0000
3200
0000
,
0310
0000
0100
0100
,
0100
0001
1000
0001
,
1000
0001
0200
0000
,
0310
0100
0010
1000
,
0010
1000
0001
0010
,
0001
0010
0100
0010
,
0100
1000
0002
0000
,
0103
0001
0200
0000
,
0310
0000
0100
0200
,
0000
0310
0100
0200
,
0000
0301
0100
0010
,
1000
0001
0010
0010
,
0010
0100
0010
0001
,
0010
0001
0100
0001
,
0100
0001
1000
0020
,
0000
0130
0010
0220
,
0000
0000
0330
0000
;

//---------------dance-single - ----------------
#NOTES:
     dance-single:
     :
     Beginner:
     2:
     0.112,0.152,0.048,0.119,0.000,52.000,4.000,10.000,0.000,0.000,0.000,0.112,0.152,0.048,0.119,0.000,52.000,4.000,10.000,0.000,0.000,0.000: // measure 0
0000
0000
0000
0000
,  // measure 1
0000
0000
0000
0000
,  // measure 2
2000
0000
0000
0000
,  // measure 3
3001
0000
0001
0000
,  // measure 4
2000
0000
0000
0000
,  // measure 5
3100
0000
0100
0000
,  // measure 6
2000
0000
0000
0000
,  // measure 7
3010
0000
0010
0000
,  // measure 8
0200
0000
0000
0000
,  // measure 9
0310
0000
0000
0000
,  // measure 10
0200
0000
0000
0000
,  // measure 11
0301
0000
0000
0000
,  // measure 12
0200
0000
0000
0000
,  // measure 13
1300
0000
0000
0000
,  // measure 14
0000
0000
0010
0000
,  // measure 15
0000
0000
0010
0000
,  // measure 16
0000
0000
1000
0000
,  // measure 17
0000
0000
1001
0000
,  // measure 18
0000
0000
1001
0000
,  // measure 19
0000
0000
0001
0000
,  // measure 20
0000
0000
0001
0000
,  // measure 21
0001
0000
0010
0000
,  // measure 22
0000
0000
0110
0000
,  // measure 23
0000
0000
0100
0000
,  // measure 24
0000
0000
0110
0000
,  // measure 25
0000
0000
0001
0000
,  // measure 26
0001
0000
2000
0000
,  // measure 27
3002
0000
0013
0000
,  // measure 28
0000
0000
0010
0000
,  // measure 29
0000
0000
0200
0000
,  // measure 30
0000
0000
1300
0000
,  // measure 31
0000
0000
0010
0000
,  // measure 32
0000
0000
0010
0000
,  // measure 33
0000
0000
0200
0000
,  // measure 34
0000
0000
0301
0000
,  // measure 35
0000
0000
0100
0100
,  // measure 36
0000
0000
0010
0010
,  // measure 37
0000
0000
1000
1000
,  // measure 38
0000
0000
0001
0001
,  // measure 39
0001
0000
1000
0000
,  // measure 40
0000
0000
1000
0000
,  // measure 41
0000
0000
0100
0000
,  // measure 42
0000
0000
0001
0000
;
