#TITLE:Cupcakes (Sweetbeat Mix);
#SUBTITLE:;
#ARTIST:Eurobeat Brony;
#TITLETRANSLIT:;
#SUBTITLETRANSLIT:;
#ARTISTTRANSLIT:;
#GENRE:Eurobeat;
#CREDIT:;
#BANNER:Cupcakes (Sweetbeat Mix).png;
#BACKGROUND:Cupcakes (Sweetbeat Mix)-bg.png;
#LYRICSPATH:;
#CDTITLE:;
#MUSIC:Cupcakes (Sweetbeat Mix).mp3;
#OFFSET:-0.071;
#SAMPLESTART:37.060;
#SAMPLELENGTH:15.000;
#SELECTABLE:YES;
#BPMS:0.000=162.020
;
#STOPS:63.750=1.481
;
#BGCHANGES:;
#KEYSOUNDS:;
#ATTACKS:;

//---------------dance-single - Blank----------------
#NOTES:
     dance-single:
     :
     Medium:
     10:
     0.538,0.490,0.354,0.227,0.019,252.000,28.000,18.000,0.000,0.000,0.000,0.538,0.490,0.354,0.227,0.019,252.000,28.000,18.000,0.000,0.000,0.000:
0000
1000
0000
1000
0000
1000
0000
1000
,
0000
0001
0000
0001
0000
0010
0000
0100
,
0000
1000
0000
1000
0000
1000
0000
1000
,
0000
0001
0000
0001
0000
0100
0000
0010
,
1000
0100
0000
0100
0000
0100
0000
0100
,
0000
0010
0000
0010
0000
0001
0000
1000
,
0000
0100
0000
0100
0000
0100
0000
0100
,
0010
0001
0010
1000
0010
0100
1000
0001
,
0100
0000
0000
0101
0000
0001
0010
0000
,
0110
0000
0000
1100
0000
1000
0010
0000
,
1010
0000
0000
0110
0000
0100
0001
0000
,
0011
0000
0000
0101
0000
0001
1000
0000
,
1010
0000
0000
1001
0000
1000
0001
0000
,
0110
0000
0000
1001
0000
1000
0100
0000
,
0110
0000
0000
1001
0000
0001
0100
0000
,
0010
1000
0010
1000
0100
0001
0100
0001
,
0000
1000
0000
1000
0010
1000
0100
0010
,
0001
1000
0000
1000
0020
0000
0000
0000
,
0130
0010
0000
0100
0001
0000
0011
0000
,
0001
0010
0100
1000
0010
0100
0010
1000
,
0100
0000
0010
0000
0001
0000
0010
0000
0100
0000
0000
0100
0000
0000
0100
0000
,
1000
0001
1000
0001
0010
0001
0100
0010
,
1000
0001
1000
0001
1001
0000
0110
0000
,
0001
0010
0000
0010
0001
0100
0010
1000
,
0100
0010
0100
0100
0010
0100
2000
0000
,
3001
0001
0000
0101
0000
0100
0010
0100
,
0010
0000
0010
1000
0000
1010
0000
2002
,
0000
3000
0100
0103
0000
0101
0000
0000
,
0010
0100
0010
0010
0100
0010
0002
0000
,
1003
1000
0000
0021
0000
0000
0130
0010
,
1000
0000
1000
0002
0000
0103
0001
0010
,
0000
0010
0100
0010
0000
0110
0000
0000
,
1000
0001
1000
1000
0001
1000
0020
0000
,
0130
0100
0000
0101
0000
0000
0001
1000
,
0001
0000
0010
0010
0000
0100
0000
0110
,
0000
0100
1000
0010
0000
0011
0000
0000
,
0010
0100
0001
0100
0010
1000
0200
0000
,
0310
0010
0000
0012
0000
0000
1003
0001
,
0010
0000
0110
0100
0000
1000
0100
0010
,
0000
0000
0001
1000
0001
1000
0001
0000
0000
0000
1001
0000
0000
0000
0000
0000
,
0000
1000
0000
1000
0000
1000
0000
1000
,
0000
0010
0000
0010
0000
0100
0000
0100
,
0000
0001
0000
0001
0000
0001
0000
0001
,
0000
0010
0000
0010
0000
0100
0000
0100
,
0000
1000
0000
1000
0000
1000
0000
1000
,
0000
0010
0000
0100
0000
0010
0000
0100
,
0000
0001
0000
0001
0000
0001
0000
0001
,
0000
0100
0000
0010
0000
0100
0000
0010
,
2000
3000
0200
0300
,
0002
0003
0020
0030
,
0002
0003
0200
0300
,
2000
3000
0020
0030
;

//---------------dance-single - Blank----------------
#NOTES:
     dance-single:
     :
     Beginner:
     4:
     0.225,0.261,0.139,0.215,0.000,97.000,11.000,17.000,0.000,0.000,0.000,0.225,0.261,0.139,0.215,0.000,97.000,11.000,17.000,0.000,0.000,0.000:
0000
0000
0000
0000
,
0000
0000
0000
0000
,
0000
0000
0000
0000
,
0000
0000
0000
0000
,
1000
0000
0000
0000
,
0001
0000
0010
0000
,
1000
0000
0000
0000
,
0001
0000
0100
0000
,
1000
0000
1000
0000
,
0100
0000
0100
0000
,
0001
0000
0001
0000
,
0010
0000
0010
0000
,
0100
0000
0100
0000
,
1000
0000
1000
0000
,
0001
0000
0001
0000
,
0010
0000
0010
0000
,
0000
0000
0110
0000
,
1001
0000
0110
0000
,
0000
0000
1001
0000
,
0110
0000
1001
0000
,
1000
0000
1000
0000
,
0010
0000
1000
0000
,
0001
0000
0001
0000
,
0020
0000
0100
0130
,
0100
0000
2000
0000
,
3001
0000
0002
0000
,
0103
0000
0100
0000
,
0110
0000
0110
0000
,
1000
0000
0020
0000
,
1030
0000
2000
0000
,
3100
0000
0100
0000
,
0110
0000
0010
0000
,
0001
0000
2000
0000
,
3001
0000
0002
0000
,
0103
0000
0100
0000
,
0110
0000
0010
0000
,
1000
0000
0002
0000
,
0013
0000
0200
0000
,
1300
0000
1100
0000
,
0100
0000
0100
0000
,
0010
0000
0010
0000
,
0010
0000
0010
0100
,
0010
0000
0010
0000
,
0010
0000
0010
0001
,
0010
0000
0010
0000
,
0010
0000
0010
1000
,
0010
0000
0010
0000
,
0010
0000
0010
0100
,
0020
0030
0200
0300
,
0020
0030
0002
0003
,
0020
0030
0200
0300
,
0020
0030
2000
3000
;

//---------------dance-single - Blank----------------
#NOTES:
     dance-single:
     :
     Easy:
     6:
     0.334,0.293,0.341,0.152,0.000,146.000,27.000,12.000,0.000,0.000,0.000,0.334,0.293,0.341,0.152,0.000,146.000,27.000,12.000,0.000,0.000,0.000:
1000
0000
1000
0000
,
0001
0000
0001
1000
,
0001
0000
0001
0000
,
1000
0000
1000
0001
,
1000
0000
0010
0000
,
0100
0000
0001
0010
,
0100
0000
1000
0000
,
0001
1000
0100
0010
,
0001
0001
0001
0000
,
1000
1000
1000
0000
,
0010
0010
0010
0000
,
0100
0100
0100
0000
,
0101
0001
0001
0000
,
0011
0010
0010
0000
,
0110
0100
0100
0000
,
1100
1000
1000
0000
,
0000
0000
1001
0000
,
0110
0010
0010
0000
,
0000
0000
1001
0000
,
0110
0110
1001
0000
,
1000
0100
0001
0010
,
0001
0100
1000
0010
,
1000
0001
0100
0010
,
0110
0000
0000
0000
,
0010
1000
0010
2000
,
3001
0000
0000
0010
0000
0000
0002
0000
,
1003
2000
3010
0010
,
0110
0000
0110
0000
,
0100
0001
0100
0002
,
1003
0000
0000
0100
0000
0000
2000
0000
,
3001
0002
0103
0100
,
0110
0000
1001
0000
,
0010
0001
0010
0002
,
1003
0000
0000
0010
0000
0000
2000
0000
,
3001
0002
0013
0010
,
0110
0000
0110
0000
,
0100
1000
0100
2000
,
3001
0000
0000
0100
0000
0000
0002
0000
,
1003
2000
3100
0100
,
0110
0000
1001
0000
,
1000
0000
1000
0000
,
1000
0000
1000
0001
,
1000
0000
0010
0000
,
1000
0000
0100
1000
,
0010
0000
0100
0000
,
0010
0000
0100
0100
,
0001
0000
1000
0000
,
0001
0000
0010
0010
,
0110
0000
1001
0000
,
0110
0000
1001
0000
,
0011
0000
1100
0000
,
1010
0000
0101
0000
;

//---------------dance-single - ----------------
#NOTES:
     dance-single:
     :
     Challenge:
     15:
     0.803,0.849,0.644,0.341,0.524,367.000,51.000,27.000,0.000,0.000,0.000,0.803,0.849,0.644,0.341,0.524,367.000,51.000,27.000,0.000,0.000,0.000:
0000
1000
0000
1000
0000
1000
0000
1000
,
0000
0001
0000
0001
0000
0010
0100
0010
,
0000
0001
0000
0001
0000
0001
0000
0001
,
0000
1000
0000
1000
0000
0010
0100
0010
,
0000
1000
0000
0100
0000
0010
0000
0001
,
0000
0010
0000
0010
0000
0100
1000
0001
,
0000
0001
0000
0100
0000
0010
0000
1000
,
0000
0010
0000
0010
0000
0100
0001
1000
,
0100
0000
0000
0010
0000
0000
0010
0000
0000
0000
0100
0000
1000
0000
0010
0000
,
0100
0000
0000
0010
0000
0000
0010
0000
0000
0000
0100
0000
0001
0000
0010
0000
,
0100
0000
0000
0100
0000
0000
0100
0000
0000
0000
0010
0000
0001
0000
0100
0000
,
0010
0000
0000
0100
0000
0000
0100
0000
0000
0000
0010
0000
1000
0000
0100
0000
,
0010
0000
0000
0001
0000
0000
0010
0000
0000
0000
0001
0000
1000
0000
0100
0000
,
1000
0000
0000
0010
0000
0000
1000
0000
0000
0000
0010
0000
1000
0000
0001
0000
,
0011
0000
0000
0001
0000
0000
1001
0000
0000
0000
1000
0000
0010
0000
1000
0000
,
1010
0000
0000
1000
0000
0000
1001
0000
0000
0000
1000
0100
1000
0100
0010
0001
,
1000
0001
0000
0001
0010
0100
0100
0010
,
0001
1000
0000
1000
2020
0000
3030
0000
,
1000
0001
0000
0001
0011
0000
0110
0000
,
1100
0000
1000
0100
0000
0100
1000
0000
0010
0100
0001
0100
0010
1000
0010
1000
,
0100
0000
0010
0000
0001
0000
0010
0000
0100
0000
1000
0001
0000
0001
0100
0000
,
0010
0000
1000
0000
0100
0000
1000
0000
0010
0000
0100
0010
0100
0000
0001
0000
,
1000
0000
0001
1000
0001
0000
1000
0000
1001
0000
0000
0000
0110
0000
0000
0000
,
0011
0000
0001
0000
0000
0000
0001
0000
0010
0100
1000
0001
0100
0010
1000
0100
,
1000
0000
0000
0100
0000
0000
1000
0000
0000
0100
0000
0000
0010
0000
0000
0000
0000
0000
0100
0000
0000
0010
0000
0000
0100
0000
0000
0010
0000
0000
0001
0000
0000
0000
0000
0000
0001
0000
1000
0000
0001
0000
1000
0000
0001
0000
1000
0000
,
0001
0000
0000
1000
0000
0000
0000
0000
0000
1001
0000
0000
0000
0000
0000
1000
0001
1000
0001
0000
0000
1000
0000
0000
,
0010
0000
0000
1000
0100
0010
0001
0000
0000
0011
0000
0000
0000
0000
0000
1100
0000
0000
0000
0000
0000
1001
0000
0000
,
0000
0000
1000
0001
1000
0001
0010
0000
0000
0000
0220
0000
0000
0000
0030
0000
,
1300
0000
0000
0100
0000
0000
1000
0000
0000
0100
0000
0000
0010
0000
0000
0000
0000
0000
0100
0000
0000
0010
0000
0000
0100
0000
0000
0010
0000
0000
0001
0000
0000
0000
0000
0000
0010
0000
0100
0000
0010
0000
0100
0000
0010
0000
0100
0000
,
0010
0000
0000
0100
0000
0000
0000
0000
0000
1200
0000
0000
0000
0000
0000
1300
0100
1000
0100
0000
0000
0010
0000
0000
,
0001
0000
0000
1000
0100
0010
0001
0000
0000
0011
0000
0000
0000
0000
0000
0001
0000
0000
0001
0000
0000
2001
0000
0000
,
0000
0000
3010
1000
0100
0010
0100
0000
0000
0000
0220
0000
0000
0000
0330
0000
,
0001
0000
0000
0010
0000
0000
0001
0000
0000
0010
0000
0000
0100
0000
0000
0000
0000
0000
0010
0000
0000
0100
0000
0000
0010
0000
0000
0100
0000
0000
1000
0000
0000
0000
0000
0000
0001
0000
1000
0000
0001
0000
1000
0000
0001
0000
1000
0000
,
0001
0000
0000
1000
0000
0000
0000
0000
0000
1010
0000
0000
0000
0000
0000
1000
0010
0100
0001
0000
0000
0001
0000
0000
,
1001
0000
0000
0001
0100
0010
1000
0000
0000
0100
0000
0000
0000
0000
0000
0010
0000
0000
0010
0000
0000
0210
0000
0000
,
0000
0000
1300
0100
1000
0100
0001
0000
0000
0000
0101
0000
0000
0000
0000
0000
,
0001
0000
0000
0100
0000
0000
1000
0000
0000
0100
0000
0000
1000
0000
0000
0000
0000
0000
1000
0000
0000
0010
0000
0000
1000
0000
0000
0010
0000
0000
0001
0000
0000
0000
0000
0000
0010
0000
0100
0000
0010
0000
0100
0000
0010
0000
0100
0000
,
0010
0000
0000
1000
0000
0000
0000
0000
0000
1100
0000
0000
0000
0000
0000
0010
0001
0010
0001
0000
0000
0001
0000
0000
,
0100
0000
0000
0010
1000
0010
1000
0000
0000
1010
0000
0000
0000
0000
0000
1000
0000
0000
1000
0000
0000
2002
0000
0000
,
3003
0000
0001
0010
0100
1000
0100
0000
0000
0000
1000
0001
1000
0001
1000
0000
,
0001
0010
0001
0010
0100
0010
1000
0010
,
0100
0010
0100
0010
0001
0010
1000
0010
,
0001
0100
0001
0100
0010
0100
1000
0100
,
0010
0100
0010
0100
0001
0100
1000
0100
,
0000
0110
0000
1001
0000
0110
0000
1001
,
0000
0011
0000
1100
0000
1010
0000
0101
,
0000
1001
0000
0110
0000
1001
0000
0110
,
0000
1010
0000
0101
0000
0011
0000
1100
,
2200
3300
0202
0303
,
0022
0033
2020
3030
,
0022
0033
0202
0303
,
2200
3300
2020
3030
;

//---------------dance-single - Blank----------------
#NOTES:
     dance-single:
     :
     Hard:
     13:
     0.593,0.585,0.164,0.227,0.126,298.000,13.000,18.000,0.000,0.000,0.000,0.593,0.585,0.164,0.227,0.126,298.000,13.000,18.000,0.000,0.000,0.000: // measure 0
0000
1000
0000
0001
0000
1000
0000
0001
,  // measure 1
0000
0100
0000
0010
0000
0100
0010
1000
,  // measure 2
0000
0001
0000
0010
0000
0100
0000
0010
,  // measure 3
0000
0001
0000
1000
0000
0010
0100
0001
,  // measure 4
1000
0100
0000
1000
0000
0010
0000
0100
,  // measure 5
0000
0001
0000
1000
0000
0100
0010
0100
,  // measure 6
0000
1000
0000
0001
0000
0100
0000
0010
,  // measure 7
0000
1000
0000
0100
0000
0010
0001
0100
,  // measure 8
0010
0000
0000
0010
0000
0000
0010
0000
0000
0000
1000
0000
0100
0000
1000
0000
,  // measure 9
0001
0000
0000
0001
0000
0000
0001
0000
0000
0000
0010
0000
0100
0000
0001
0000
,  // measure 10
0100
0000
0000
0100
0000
0000
0100
0000
0000
0000
0010
0000
0001
0000
0100
0000
,  // measure 11
1000
0000
0000
1000
0000
0000
1000
0000
0000
0000
0100
0000
0001
0000
0010
0000
,  // measure 12
0100
0000
0000
0010
0000
0000
0110
0000
0000
0000
0010
0000
0001
0000
0100
0000
,  // measure 13
0010
0000
0000
1000
0000
0000
1001
0000
0000
0000
0001
0000
0100
0000
0010
0000
,  // measure 14
1000
0000
0000
0100
0000
0000
1100
0000
0000
0000
1000
0000
0010
0000
0100
0000
,  // measure 15
0001
0000
0000
0010
0000
0000
0011
0000
0000
0000
0001
0000
0100
0000
0010
0000
,  // measure 16
1000
0100
0000
0100
1000
0010
0100
0001
,  // measure 17
0010
0100
0000
0100
0010
0000
0001
0000
,  // measure 18
0100
0010
0000
0010
1000
0001
0010
0100
,  // measure 19
1000
0001
0100
0010
,  // measure 20
1000
0100
0010
0000
0010
0100
1000
0001
,  // measure 21
0100
0010
0100
0000
0001
0010
0100
0001
,  // measure 22
0100
0010
0001
0000
0001
0100
0010
1000
,  // measure 23
0001
0010
0000
0000
0010
0000
0100
0000
,  // measure 24
1000
0001
1000
0000
0010
0000
0100
1000
0100
0000
0001
0000
0010
0000
0100
0000
,  // measure 25
1000
0001
0000
0201
0000
0301
0010
0100
,  // measure 26
1000
0000
0001
0100
0001
0000
1000
0000
0000
0000
0010
0000
0000
0000
0100
0000
,  // measure 27
0000
0001
0100
0010
0000
2002
0000
3003
,  // measure 28
0010
1000
0010
0000
0100
0000
0001
0010
0001
0000
0100
0000
0010
0000
1000
0000
,  // measure 29
0001
0010
0000
1001
0000
1000
0010
0100
,  // measure 30
0001
0000
1000
0001
1000
0000
0010
0000
0000
0000
0100
0000
0001
0000
0010
0000
,  // measure 31
0000
0100
1000
0001
0000
2002
0000
3003
,  // measure 32
1000
0010
0100
0000
0001
0000
0100
0010
1000
0000
0001
0000
0010
0000
0100
0000
,  // measure 33
1000
0001
0000
2001
0000
0000
3010
0100
,  // measure 34
0001
0000
0010
0100
0001
0000
0100
0000
0000
0000
0010
0000
0001
0000
1000
0000
,  // measure 35
0010
0100
0001
0010
0000
0022
0000
0033
,  // measure 36
0001
1000
0010
0000
0100
0000
1000
0100
0010
0000
1000
0000
0010
0000
1000
0000
,  // measure 37
0001
0010
0000
0210
0000
0310
0100
0001
,  // measure 38
0010
0000
0100
1000
0100
0000
0010
0000
0000
0000
0001
0000
0100
0000
0010
0000
,  // measure 39
0000
1000
0001
0010
0000
2200
0000
3300
,  // measure 40
1000
0100
0001
0000
0001
0100
1000
0000
,  // measure 41
1000
0010
0001
0000
0001
0010
1000
0100
,  // measure 42
0001
0100
0010
0000
0001
0100
0010
0000
,  // measure 43
1000
0001
0010
0000
0100
1000
0010
0100
,  // measure 44
0001
0010
0000
0100
0000
1000
0000
0001
,  // measure 45
0000
0100
0000
0010
0000
1000
0001
0010
,  // measure 46
0100
1000
0000
0010
0000
0100
0000
0001
,  // measure 47
0000
0100
0000
0010
0000
1000
0001
0100
,  // measure 48
0120
0000
2030
0000
,  // measure 49
3200
0000
2300
0000
,  // measure 50
3002
0000
0203
0000
,  // measure 51
0320
0000
1030
0000
;
