#TITLE:Cloudsdale EVOLVED (ver B);
#SUBTITLE:;
#ARTIST:xRGTMx Underground;
#TITLETRANSLIT:;
#SUBTITLETRANSLIT:;
#ARTISTTRANSLIT:;
#GENRE:Happy Hardcore;
#CREDIT:;
#BANNER:Cloudsdale EVOLVED (ver B).png;
#BACKGROUND:Cloudsdale EVOLVED (ver B)-bg.png;
#LYRICSPATH:;
#CDTITLE:;
#MUSIC:Cloudsdale EVOLVED (ver B).mp3;
#OFFSET:-0.055;
#SAMPLESTART:2.720;
#SAMPLELENGTH:15.000;
#SELECTABLE:YES;
#BPMS:0.000=175.000
;
#STOPS:
;
#BGCHANGES:;
#KEYSOUNDS:;
#ATTACKS:;

//---------------dance-single - ----------------
#NOTES:
     dance-single:
     :
     Hard:
     16:
     0.870,1.000,0.701,0.059,0.461,631.000,83.000,7.000,0.000,0.000,0.000,0.870,1.000,0.701,0.059,0.461,631.000,83.000,7.000,0.000,0.000,0.000:
0000
0000
0000
0000
,
2000
0000
0000
0000
0000
0000
0000
0000
3010
1000
0010
0000
1000
0000
0001
0000
,
0010
0000
0100
0010
0000
0001
1001
0000
,
0010
0000
0100
0010
0000
0001
1001
1000
,
0100
0000
0010
0100
0000
1000
1001
0001
,
0100
0000
0010
0100
0000
0001
1001
1000
,
0100
0000
0010
0011
0000
0010
0110
0000
,
0100
0000
1000
1010
0000
0010
0100
0001
,
1000
0100
0010
0000
0010
0100
0010
0000
0000
0000
0001
0000
0010
0000
0001
0000
,
0100
0010
1000
1100
0000
0100
0010
0001
,
1001
0000
1000
0010
0000
1000
0010
0001
,
0010
0000
0100
0001
0000
0001
0010
1000
,
0010
0100
0010
0000
0000
0000
0100
1000
0100
0000
0000
0000
1000
0000
0001
0000
,
0100
0001
0100
0000
0001
0000
0010
0000
0000
0000
0010
0000
0100
0000
0010
0000
,
0220
0000
0000
0330
,
0100
0000
0100
1000
0000
0010
0100
0001
,
1000
0100
1000
0000
1000
0001
0100
0000
0000
0000
0001
0010
0001
0000
0010
0000
,
0100
1000
0001
0010
0100
0010
0001
1000
0010
0100
0010
1000
0100
0000
0100
0000
,
0110
1000
1000
1000
,
0110
0001
0001
0001
,
1000
1000
0110
0001
0001
0001
0110
1000
,
1000
0001
1000
0001
0100
0010
1000
0100
0010
0000
0000
0000
0110
0000
0000
0000
,
0100
0000
0000
0000
0010
0001
0010
0000
0001
1000
0010
1000
0001
0000
0001
1000
,
0001
0000
1000
0000
0010
1000
0010
0100
0010
0000
0100
0001
0100
0000
0001
0010
,
0001
0000
0010
0000
0100
0010
0100
0000
0010
0001
0010
0001
1000
0000
0010
1000
,
0010
0000
1000
0000
0100
0010
0100
0000
0110
0000
0100
0000
1000
0001
1000
0001
,
2000
0000
0000
0000
0000
0000
0000
0000
0000
3001
0000
0000
1000
0001
0000
0000
1000
0001
0000
0000
1000
0010
0000
0000
,
0100
0001
0000
0000
0001
0010
0000
0000
0010
0100
0000
0000
1000
0100
0000
0000
0100
0010
0000
0000
0010
0001
0000
0000
,
1000
1000
0010
1000
1001
1000
0010
1000
,
0100
0110
0010
0100
0110
0100
1000
1001
,
0110
0000
0010
0000
1000
0000
0100
0000
1100
0000
0100
0010
0100
0000
0010
0001
,
0010
0000
0001
0000
1000
0001
1000
0000
0010
1000
0010
1000
0010
0000
0100
0001
,
0010
0000
0100
0000
0010
0001
0100
0000
0010
1000
0100
1000
0100
0000
0010
0100
,
1000
0000
0001
0000
0100
0001
0100
0000
0101
0000
0001
0010
0100
0000
1000
0000
,
0002
0000
0000
0000
0000
0000
0000
0000
0000
1003
0000
0000
0001
1000
0000
0000
0001
1000
0000
0000
0001
0010
0000
0000
,
0100
1000
0000
0000
1000
0010
0000
0000
0010
0100
0000
0000
0001
0100
0000
0000
0100
0010
0000
0000
0010
1000
0000
0000
,
0100
0000
0010
0000
0100
0000
1000
0000
1100
0000
1000
0001
1000
0000
0001
1000
,
0001
0000
0100
0000
0001
0000
0010
0000
0110
0000
0100
1000
0001
0000
0011
0000
,
0110
0100
1000
1100
0000
1000
1001
0001
,
0100
0010
1000
1010
0000
1000
0100
0010
,
0001
0001
0100
0110
0000
0010
1000
0001
,
1001
0000
1000
0100
0000
0100
0010
0001
,
1000
1000
0010
0110
0100
0001
0011
0010
,
0100
0100
1000
1010
0010
0100
0101
0001
,
0010
0010
0100
1100
1000
0001
0101
0001
,
1000
0100
1000
1100
0100
0010
0110
0100
,
1001
1000
0100
1100
0100
0010
0110
0010
,
0001
1000
0010
1010
1000
0001
1001
0001
,
1000
0100
0010
0110
0100
1000
1001
1000
,
0100
0010
0100
0110
0010
0001
0011
0001
,
0101
0000
0000
1010
0000
0100
0001
0010
,
0100
0000
0000
1100
0000
0100
0010
0001
,
0100
0000
0000
0000
0001
0000
0010
0000
0000
0000
0001
0000
0010
0100
0010
0100
,
1000
0100
0010
0001
1000
0010
0100
0001
1000
0001
1000
0001
0010
0000
0110
0000
,
1001
1000
0100
1000
0000
0001
0100
0001
,
1000
0010
0100
0001
0000
0001
0010
0100
,
1100
0100
0010
0100
0000
0010
0100
0010
,
0011
0001
0100
0010
0000
1000
0010
0100
,
0110
1000
1000
1000
,
0110
0001
0001
0001
,
1000
1000
0110
0001
0001
0001
0110
1000
,
1001
0000
0000
0000
,
0000
0000
0000
0000
,
0000
0000
0000
0000
0000
0000
0000
0000
1000
0001
1000
0001
0010
0100
1000
0010
,
0100
0001
0100
0101
0001
0010
0110
0100
,
1000
0010
1000
1010
1000
0001
0011
0001
,
1000
0010
1000
1010
0010
0100
0101
0001
,
1000
0100
1000
0000
0100
0000
0110
0000
0010
0000
0001
0000
0100
0000
0010
0000
,
1000
0001
1000
1001
0001
0010
0011
0010
,
0100
1000
0010
0110
0000
0010
1000
0001
,
1000
0100
1000
0000
0010
0000
0110
0000
0100
0000
0001
0000
0011
0000
0010
0000
,
0100
1000
0001
0101
0100
0010
0110
0100
,
0101
0001
0010
0100
1000
0010
0110
0100
,
0101
0001
0100
0010
1000
0100
0110
0100
,
1000
0000
0001
0000
1000
0000
0100
0000
0010
0100
0010
0100
0010
0000
0100
0000
,
1000
0001
1000
0010
0100
0001
0010
0100
,
1100
0000
0000
0000
0000
0000
0011
0000
0000
0000
1000
0001
1000
0000
0001
0010
,
0001
0000
0010
0100
0010
0000
0100
1000
0010
0100
0001
0010
0100
0000
1000
0000
,
0010
1000
0001
0100
0010
1000
0001
0100
0001
0010
0100
1000
0001
0010
0100
1000
,
0001
1000
0010
1000
0001
0010
0001
0010
0100
1000
0010
0100
0001
0000
1001
0000
,
0000
0000
2002
0000
,
0000
0000
0000
0000
,
0000
0000
3003
0000
;

//---------------dance-single - ----------------
#NOTES:
     dance-single:
     :
     Easy:
     11:
     0.339,0.523,0.025,0.085,0.051,268.000,3.000,10.000,0.000,0.000,0.000,0.339,0.523,0.025,0.085,0.051,268.000,3.000,10.000,0.000,0.000,0.000:
0000
0000
0000
0000
,
0000
0000
0000
0000
,
0010
0000
1000
0100
0000
0100
1000
0000
,
0001
0000
0100
0010
0000
0100
0001
0010
,
0100
0000
1000
0001
0000
0100
0010
1000
,
0001
0000
0010
0100
0000
0010
0001
1000
,
0010
0000
0100
0001
0000
0001
0100
0000
,
0010
0000
1000
0100
0000
0100
1000
0001
,
0100
0000
0010
0100
0000
0001
1000
0100
,
0010
0000
0100
1000
0000
0001
0100
0010
,
1000
0000
0001
0010
0000
0010
0001
0000
,
0100
0000
0010
1000
0000
1000
0010
0000
,
0100
0000
0001
0100
0000
0010
1000
0000
,
0001
0000
0010
0100
0000
1000
0001
0000
,
0200
0000
0000
0000
,
0310
0000
0000
1000
0000
0000
0001
0000
,
0100
0000
0010
0100
0000
0001
0010
0100
,
1000
0001
0100
0010
1000
0001
0010
0100
,
1000
1000
0001
0001
,
0100
0100
0010
0010
,
1000
1000
0100
0100
0010
0010
0001
0001
,
1000
0010
0100
0001
1000
0000
1001
0000
,
1000
0000
0002
0000
,
0000
0000
0103
0000
,
0010
0000
0000
1000
0100
0000
0000
0000
,
1000
0000
0000
0010
0100
0000
0001
0000
,
0010
0000
0000
0000
0000
0000
0100
0000
0100
0000
0010
0000
,
0001
0000
0010
0000
0100
0000
1000
0000
0010
0000
0100
0000
,
0001
0000
0001
0000
,
0100
0000
0010
0000
,
1000
0000
0002
0000
,
0000
0000
0000
0000
,
1003
0000
0010
0000
,
0000
0000
0000
0100
0001
0000
0000
0000
,
0010
0000
0000
0000
0000
0000
0001
0000
0100
0000
0010
0000
,
1000
0000
0100
0000
1000
0000
0010
0000
0100
0000
0001
0000
,
0010
0000
0000
0001
0100
0000
0010
0000
,
1000
0100
1000
0001
,
0010
0000
0001
0000
,
0100
0010
1000
0001
,
0010
0000
1000
0000
,
0010
0001
0100
1000
,
0100
0001
0010
0100
,
1000
0100
0010
0001
,
1000
0010
0100
0001
,
0100
0010
1001
0000
,
0010
1000
0100
0100
,
1000
0010
0100
0100
,
0001
0100
0010
0010
,
1000
0100
0010
0010
,
0200
0000
0000
0000
,
1300
0000
0000
0000
,
0002
0000
0000
0000
,
0013
0000
0000
0000
,
0010
0000
0000
0000
,
0000
0000
0000
0000
,
0001
0000
0000
0000
,
0010
0000
0000
0000
,
0100
0100
1000
1000
,
0010
0010
0001
0001
,
0010
0010
0100
0100
,
2000
0000
0000
0000
,
0000
0000
0000
0000
,
0000
3000
0000
0000
,
0001
0010
0000
0010
,
0100
1000
0001
0100
,
0010
0010
0000
0100
,
0001
0001
0000
0010
,
0100
0001
0100
0010
,
0001
1000
0010
0100
,
1000
1000
0000
0100
,
0001
0010
0000
0010
,
0100
1000
0001
0100
,
0010
1000
0001
0010
,
0100
0100
0000
1000
,
0010
0100
0001
0010
,
0200
0000
0000
0000
,
2300
0000
0000
0000
,
3010
0000
0100
0000
,
0001
0010
0100
1000
,
0000
0000
2002
0000
,
0000
0000
0000
0000
,
0000
0000
3003
0000
;

//---------------dance-single - FoRCeDNaTuRe----------------
#NOTES:
     dance-single:
     FoRCeDNaTuRe:
     Medium:
     14:
     0.565,0.697,0.287,0.473,0.089,378.000,34.000,56.000,0.000,0.000,0.000,0.565,0.697,0.287,0.473,0.089,378.000,34.000,56.000,0.000,0.000,0.000:
0000
0000
0000
0000
,
0000
0000
0000
0000
,
0000
0000
0000
0000
,
0000
0000
0000
0000
,
0000
0000
0000
0000
,
0000
0000
0000
0000
,
0020
1000
1000
1000
,
1000
0000
1030
0100
0000
0100
0010
0000
,
0020
0000
0001
0000
0001
0000
0001
0030
,
0002
0100
0100
0103
,
0020
1000
0001
1000
,
0001
1000
0001
1030
,
0200
0000
1000
0000
0001
0010
1000
0300
,
2000
0000
0100
0000
0001
0000
0010
3000
,
0002
0000
0100
0000
0100
0003
0000
0000
,
0200
0000
0010
0010
0300
0000
0000
0000
,
1000
0010
0100
0001
0010
0001
0100
0010
,
1000
0101
0000
1000
0000
0000
0101
0000
,
1000
0100
0001
0000
0001
0100
1000
0000
,
1010
0101
1010
0101
,
1000
0010
0001
0100
0000
0100
0001
0010
,
1000
1001
0110
0000
,
0020
0230
2300
3002
,
0203
0302
2003
3200
,
0320
0031
2000
3020
,
0230
0302
0023
0032
,
0203
0000
0000
0000
0320
0000
0000
0000
1030
0000
0000
0001
0000
0000
0100
0000
,
0000
0010
0000
0000
1000
0000
0000
0100
0000
0000
0010
0000
0000
0001
0000
0000
,
1000
0001
0010
1000
0001
0100
0010
0000
,
1001
0000
0100
0010
1000
0000
0000
0000
,
0001
0010
0100
1000
0010
0100
0001
0010
,
0001
0100
0010
1000
0001
0100
0010
1000
,
0001
0100
1000
0001
0010
1000
0001
1000
,
0100
0001
1000
0010
0001
0000
1001
0000
,
0001
0000
0010
0000
1000
0000
0000
0000
0001
0000
0000
0100
0000
0000
1000
0000
,
0000
0010
0000
0000
0001
0000
0000
0010
0000
0000
1000
0000
0000
0010
0000
0000
,
1000
0000
0010
0100
0001
0010
0001
0100
,
0010
1000
0100
1000
0001
0000
1010
0000
,
1000
1001
0100
0110
,
1000
0101
0010
1001
,
0020
1000
1000
1000
,
0230
0000
0001
0000
0001
0000
0001
0300
,
0010
1001
0100
1001
,
0020
0000
0100
0030
,
1000
0001
0100
0100
1000
0001
0100
0000
,
0100
0001
1000
1000
0100
0001
1000
0000
,
1000
0100
0100
0001
0100
0100
1000
0100
,
0100
0001
0100
0100
1000
0000
0101
0000
,
0020
1000
1000
0100
0100
0001
0100
0000
,
1000
0030
0001
0100
0000
0010
1000
0000
,
0001
0010
1000
0000
1000
0000
1000
0010
,
0001
0200
0320
2030
,
3002
0000
0000
0013
0000
0100
1000
0010
,
0200
0000
0000
0300
,
0101
0000
0100
0010
1000
0000
0000
0000
,
1001
0000
0100
0010
1000
0000
0000
0000
,
0001
0000
0000
1010
0000
0000
0000
0000
,
0010
0000
0000
0101
0000
0000
0000
0000
,
0001
0110
1000
0110
,
0010
1001
0100
1001
,
1000
1000
0100
0010
0001
0001
0100
0010
,
2000
3002
0000
0000
0000
0000
0000
0000
,
0000
0000
0000
0000
,
0000
0000
0000
0000
0000
0000
0000
0000
0103
0001
0100
0001
0100
0000
0001
0000
,
0200
0010
1000
0301
,
0020
0000
0000
0000
1030
0000
0001
0000
0010
0000
0100
0000
1000
0000
0100
1000
,
0200
0000
0010
0000
0001
0000
0010
0300
,
0002
0000
0000
0000
0103
0000
0001
0000
1000
0000
0100
0000
0010
0000
0001
0100
,
0002
0000
0010
0000
0100
0000
1000
0003
,
0001
0000
0100
0000
0010
0000
1000
0000
0100
0000
0010
0000
0001
0000
1000
0010
,
2000
0000
0001
0000
0100
0000
0010
3000
,
0001
0000
0100
0000
0010
0000
1000
0000
0100
0000
0010
0000
0001
0000
0100
0010
,
0200
0000
0320
1000
0030
0200
0001
0300
,
0020
0000
2030
0001
3000
0200
0010
0300
,
0002
0000
0023
0100
0030
2000
0001
3000
,
0010
0000
0000
0001
0000
0000
0100
0000
0001
0100
0001
0100
0002
0000
0003
0000
,
0202
0000
0000
0303
0101
0000
0101
0000
,
0101
0101
0101
0101
,
0100
0001
1000
0001
0100
0001
1000
0001
,
0100
0001
1000
0000
0100
1000
0001
0000
0010
0001
1000
0000
0010
1000
0001
0000
,
0000
0000
2002
0000
,
0000
0000
0000
0000
,
0000
0000
3003
0000
;

//---------------dance-single - ----------------
#NOTES:
     dance-single:
     :
     Challenge:
     18:
     1.000,1.000,0.617,0.321,0.807,725.000,73.000,38.000,0.000,0.000,0.000,1.000,1.000,0.617,0.321,0.807,725.000,73.000,38.000,0.000,0.000,0.000:
0000
0000
0000
0000
,
2000
0000
0000
0000
0000
0000
0000
0000
3001
0010
0001
0000
0100
0000
0010
0000
,
1010
0000
1000
0000
0100
0000
0110
0000
0000
0000
0010
0001
0100
0000
0010
0000
,
1010
0000
1000
0000
0001
0010
0100
0000
1000
0000
0010
0000
0100
0000
0010
0000
,
1000
0100
0001
0100
1000
0001
0200
0000
0000
0000
0310
0000
1000
0000
0001
0000
,
1000
0010
0001
0010
1000
0001
0200
0000
0000
0310
1000
0000
0100
0000
0010
0000
,
0011
0000
0001
0000
1000
0000
1010
0000
0000
0000
0010
0100
0001
0000
0010
0000
,
0110
0000
0000
0000
0100
1000
0020
0000
0000
0000
0130
0000
0001
0000
0010
0000
,
0001
0100
1000
0100
0001
1000
0200
0000
0000
0000
0310
0000
0001
0000
1000
0000
,
0001
0010
1000
0010
0001
1000
0200
0000
0000
0310
0100
0000
1000
0000
0010
0000
,
0110
0000
0100
0000
0001
0000
0011
0000
0000
0000
0010
0100
1000
0000
0010
0000
,
0110
0000
0100
0000
0001
1000
0002
0000
0000
0000
0013
0000
0100
0000
1000
0000
,
0010
0100
0010
0100
0001
1000
0001
1000
0100
0010
0100
0010
0001
0000
0100
0000
,
0010
1000
0010
1000
0100
0010
0100
0010
0001
0100
0001
0100
0010
0000
1000
0000
,
2200
0000
0000
0000
3300
0000
0011
0000
0000
0000
0001
1000
0010
0000
0100
0000
,
0110
0000
0010
0000
1000
0100
2000
0000
0000
0000
3001
0000
0100
0000
0010
0000
,
0100
0001
0100
0010
1000
0100
0010
0001
0010
0100
1000
0010
0100
0000
0010
0000
,
1000
0100
1000
0010
0100
0010
0100
0001
1000
0001
1000
0100
0010
0000
0010
0000
,
0021
0130
1200
0310
,
2001
3010
0120
1030
,
1000
1000
0001
0001
1000
1000
0001
0001
,
0010
0100
1000
0010
0100
0001
0010
0100
1000
0000
0000
0000
1001
0000
0000
0000
,
0001
0000
0100
0000
0010
1000
0010
0000
0100
0000
0001
0010
0001
0000
0001
0010
,
0001
0000
0010
0000
0100
1000
0010
0000
0100
0000
0001
1000
0001
0000
0001
1000
,
0001
0000
0010
0000
0100
0010
0001
0000
1000
0000
0010
0100
0010
0000
0010
0100
,
0010
0000
0100
0000
0001
1000
0100
0010
0001
0010
0100
1000
0010
0100
0001
0100
,
0020
0000
0000
0000
2030
0000
0000
3000
1010
0000
0000
0101
0000
0000
1001
0000
,
0000
1100
0000
0000
0011
0000
0000
1001
0000
0000
1010
0000
0000
0101
0000
0000
,
0001
0000
0100
1000
0100
0010
0100
0001
1000
0000
0100
0001
0100
0010
0100
1000
,
0010
0000
1000
0100
0001
0100
0010
0001
0100
0000
0010
0001
0010
1000
0001
0010
,
0100
0000
1000
0000
0010
0100
0010
0000
1000
0000
0001
1000
0001
0000
0001
1000
,
0001
0000
0010
0000
0100
1000
0100
0000
1000
0000
0010
0100
0010
0000
0010
0100
,
0010
0000
0000
0000
0000
0000
1000
0000
0000
0100
0000
0000
1000
0000
0000
0100
0000
0000
0010
0000
0000
0001
0000
0000
0010
0000
0000
0000
0001
0000
0000
0000
0100
0000
0000
0000
0010
0000
0000
0000
1000
0000
0000
0000
0100
0000
0000
0000
,
0010
0000
0001
0000
0100
0010
0100
0000
0010
0000
1000
0001
1000
0000
1000
0001
,
2000
0000
0000
0000
0000
0000
0000
3000
1001
0000
0000
1010
0000
0000
0101
0000
,
0000
1001
0000
0000
1100
0000
0000
0011
0000
0000
1001
0000
0000
1010
0000
0000
,
0010
0001
0010
1000
0100
0001
0100
0000
1000
0000
0100
0001
0100
0010
0001
1000
,
0010
0100
0010
0100
1000
0100
0001
1000
0001
0000
0010
1000
0010
0100
1000
0010
,
0100
0000
0001
0000
1000
0000
2200
0000
0000
3300
0100
0000
0010
0000
0001
0000
,
1000
0000
0010
0000
0100
0000
0220
0000
0000
0330
0010
0000
1000
0000
0001
0000
,
0022
0000
0000
0000
0033
0000
2200
0000
0000
3300
1000
0000
0010
0000
0100
0000
,
0202
0000
0000
0000
0303
0000
2020
0000
0000
3030
0010
0000
1000
0000
0001
0000
,
0010
0100
0100
1100
1000
0001
0100
0100
,
0110
0010
0010
1010
1000
0100
0010
0010
,
0011
0001
0001
1001
1000
0010
0100
0100
,
0110
0010
0010
1010
1000
0001
0010
0010
,
0110
0100
0100
1100
1000
0010
0100
0100
,
0101
0001
0001
1001
1000
0100
1000
1000
,
1010
0010
0010
0110
0100
0001
0010
0100
,
1100
1000
1000
1010
0010
1000
0001
0001
,
1001
0000
0000
1010
0000
1000
0100
0010
,
0011
0000
0000
1100
0000
0100
1000
0001
,
0101
0000
0000
0000
0000
0000
1001
0000
1000
0100
1000
0100
0010
0100
1000
0100
,
0010
0100
0010
0001
1000
0010
0100
0001
0100
0010
1000
0100
0010
0000
0010
0000
,
0011
0000
0001
0000
1000
0000
1001
0000
0000
0000
0001
0100
1000
0000
0100
0000
,
0110
0010
1000
1001
0000
0001
0010
0100
,
0110
0000
0010
0000
0001
0000
1001
0000
0000
0000
1000
0010
0001
0000
0010
0000
,
0110
0000
0100
0000
0001
0000
1001
0000
0000
0000
1000
0100
0001
0000
0100
0000
,
1100
0000
0000
0000
1000
0000
0000
0000
1000
0000
0001
1000
0001
0000
0100
0000
,
0010
0000
0010
0000
0010
1000
0010
1000
,
1001
0001
0001
0001
1000
1000
1000
1000
,
2002
0000
0000
0000
,
0000
0000
0000
0000
,
0000
0000
0000
0000
0000
0000
3003
0000
0001
1000
0010
0100
0001
1000
0100
0010
,
0001
0000
0100
0000
1000
0000
0100
0000
0100
0000
0010
1000
0001
0000
0010
0000
,
0100
0000
1000
0000
0010
0100
0001
0000
0001
0000
0010
0000
0100
0000
1000
0000
,
0010
0100
0001
1000
0001
0010
0100
0000
0100
0000
1000
0000
0010
0000
0100
0000
,
0001
0100
0010
0100
0001
1000
0100
0000
0100
0010
0001
0000
0100
0000
0010
0000
,
1000
0000
0100
0000
0001
0000
0100
0000
0100
0000
0010
0001
1000
0000
0010
0000
,
0100
0000
0010
0000
1000
0001
0010
0000
0100
0000
0010
0000
0001
0000
0100
0000
,
0010
0100
0010
1000
0010
0100
0001
0000
0001
0000
0010
0000
0100
0000
0100
0000
,
1000
0100
0010
0100
1000
0010
0100
0000
0100
0010
1000
0000
0100
0000
0010
0000
,
0001
0000
0100
0000
1000
0000
0100
0000
0100
0000
0010
1000
0100
0000
0010
0000
,
0001
0000
0100
0000
0010
0000
0220
0000
0000
0330
0100
0000
0001
0000
1000
0000
,
0100
1000
0010
0100
0001
0000
0010
0100
0000
0010
0001
1000
0020
0000
0230
0000
,
0301
0010
0100
0010
0001
0100
0010
0100
0001
1000
0100
0010
0001
0010
0100
1000
,
0020
0000
0000
0000
0000
0000
0130
0000
0001
0100
0010
0100
0001
0100
0010
0100
,
0001
1000
0001
0010
0100
0010
0001
0010
0100
1000
0010
0100
0001
0010
0100
1000
,
0010
0100
0010
0100
0001
1000
0000
0100
0010
0100
1000
0010
0100
0001
0000
0010
,
0100
1000
0100
1000
0010
0100
0010
0100
0001
1000
0001
1000
0010
0000
0010
0000
,
0000
0000
2002
0000
,
0000
0000
0000
0000
,
0000
0000
3003
0000
;

//---------------dance-single - Blank----------------
#NOTES:
     dance-single:
     :
     Beginner:
     3:
     0.121,0.204,0.085,0.101,0.000,78.000,10.000,12.000,0.000,0.000,0.000,0.121,0.204,0.085,0.101,0.000,78.000,10.000,12.000,0.000,0.000,0.000: // measure 0
0000
0000
0000
0000
,  // measure 1
0000
0000
0000
0000
,  // measure 2
1000
0000
0000
0000
,  // measure 3
1000
0000
0000
0000
,  // measure 4
0001
0000
0000
0000
,  // measure 5
0001
0000
0000
0000
,  // measure 6
0010
0000
0000
0000
,  // measure 7
0010
0000
0000
0000
,  // measure 8
0100
0000
0000
0000
,  // measure 9
0100
0000
0000
0000
,  // measure 10
1000
0000
0000
0000
,  // measure 11
1000
0000
0000
0000
,  // measure 12
0010
0000
0000
0000
,  // measure 13
0010
0000
0000
0000
,  // measure 14
0002
0000
0000
0000
,  // measure 15
0000
0000
0000
0000
,  // measure 16
0023
0000
0000
0000
,  // measure 17
0000
0000
0000
0000
,  // measure 18
1030
0000
1000
0000
,  // measure 19
1000
0000
1000
0000
,  // measure 20
1000
0000
1000
0000
,  // measure 21
1000
0000
1000
0000
,  // measure 22
0002
0000
0023
0000
,  // measure 23
0000
0000
0000
0000
,  // measure 24
0230
0000
0000
0000
,  // measure 25
2300
0000
0000
0000
,  // measure 26
3001
0000
1001
0000
,  // measure 27
0000
0000
0000
0000
,  // measure 28
1000
0000
0000
0000
,  // measure 29
0100
0000
0000
0000
,  // measure 30
2000
0000
3020
0000
,  // measure 31
0000
0000
0000
0000
,  // measure 32
0230
0000
0000
0000
,  // measure 33
0302
0000
0000
0000
,  // measure 34
1003
0000
1001
0000
,  // measure 35
0000
0000
0000
0000
,  // measure 36
1000
0000
0000
0000
,  // measure 37
0010
0000
0000
0000
,  // measure 38
0100
0000
0000
0000
,  // measure 39
0100
0000
0000
0000
,  // measure 40
0010
0000
0000
0000
,  // measure 41
0010
0000
0000
0000
,  // measure 42
1000
0000
0000
0000
,  // measure 43
1000
0000
0000
0000
,  // measure 44
0001
0000
0000
0000
,  // measure 45
0001
0000
0000
0000
,  // measure 46
0010
0000
0000
0000
,  // measure 47
0010
0000
0000
0000
,  // measure 48
0100
0000
0000
0000
,  // measure 49
0100
0000
0000
0000
,  // measure 50
1000
0000
0000
0000
,  // measure 51
1000
0000
0000
0000
,  // measure 52
0001
0000
0000
0000
,  // measure 53
0001
0000
0000
0000
,  // measure 54
1001
0000
0000
0000
,  // measure 55
0000
0000
0000
0000
,  // measure 56
1001
0000
0000
0000
,  // measure 57
1001
0000
0000
0000
,  // measure 58
0110
0000
0000
0000
,  // measure 59
0000
0000
0000
0000
,  // measure 60
0110
0000
0000
0000
,  // measure 61
0220
0000
0000
0000
,  // measure 62
0000
0000
0000
0000
,  // measure 63
0000
0330
1001
0000
,  // measure 64
1000
0000
0000
0000
,  // measure 65
1000
0000
0000
0000
,  // measure 66
0010
0000
0000
0000
,  // measure 67
0010
0000
0000
0000
,  // measure 68
0100
0000
0000
0000
,  // measure 69
0100
0000
0000
0000
,  // measure 70
0001
0000
0000
0000
,  // measure 71
0001
0000
0000
0000
,  // measure 72
1000
0000
0000
0000
,  // measure 73
0010
0000
0000
0000
,  // measure 74
0001
0000
0000
0000
,  // measure 75
0010
0000
0000
0000
,  // measure 76
1000
0000
0000
0000
,  // measure 77
0100
0000
0000
0000
,  // measure 78
0001
0000
0000
0000
,  // measure 79
0100
0000
0000
0000
,  // measure 80
0000
0000
1001
0000
;
