#TITLE:Cloudsdale EVOLVED (ver A);
#SUBTITLE:;
#ARTIST:xRGTMx Underground;
#TITLETRANSLIT:;
#SUBTITLETRANSLIT:;
#ARTISTTRANSLIT:;
#GENRE:Happy Hardcore;
#CREDIT:;
#BANNER:Cloudsdale EVOLVED (Ver A).png;
#BACKGROUND:Cloudsdale EVOLVED (Ver A)-bg.png;
#LYRICSPATH:;
#CDTITLE:;
#MUSIC:Cloudsdale EVOLVED (Ver A).mp3;
#OFFSET:-0.055;
#SAMPLESTART:2.760;
#SAMPLELENGTH:15.000;
#SELECTABLE:YES;
#BPMS:0.000=175.000
;
#STOPS:
;
#BGCHANGES:;
#KEYSOUNDS:;
#ATTACKS:;

//---------------dance-single - ----------------
#NOTES:
     dance-single:
     :
     Hard:
     16:
     0.825,0.833,0.538,0.043,0.525,599.000,62.000,5.000,0.000,0.000,0.000,0.825,0.833,0.538,0.043,0.525,599.000,62.000,5.000,0.000,0.000,0.000:
0000
0000
0000
0000
,
2000
0000
0000
0000
0000
0000
0000
0000
3010
1000
0010
0000
1000
0000
0001
0000
,
0010
0000
0100
0010
0000
0001
1001
0000
,
0010
0000
0100
0010
0000
0001
1001
1000
,
0100
0000
0010
0100
0000
1000
1001
0001
,
0100
0000
0010
0100
0000
0001
1001
1000
,
0100
0000
0010
0011
0000
0010
0110
0000
,
0100
0000
1000
1010
0000
0010
0100
0001
,
1000
0100
0010
0000
0010
0100
0010
0000
0000
0000
0001
0000
0010
0000
0001
0000
,
0100
0010
1000
1100
0000
0100
0010
0001
,
1001
0000
1000
0010
0000
1000
0010
0001
,
0010
0000
0100
0001
0000
0001
0010
1000
,
0010
0100
0010
0000
0000
0000
0100
1000
0100
0000
0000
0000
1000
0000
0001
0000
,
0100
0001
0100
0000
0001
0000
0010
0000
0000
0000
0010
0000
0100
0000
0010
0000
,
0220
0000
0000
0330
,
0100
0000
0100
1000
0000
0010
0100
0001
,
1000
0100
1000
0000
1000
0001
0100
0000
0000
0000
0001
0010
0001
0000
0010
0000
,
0100
1000
0001
0010
0100
0010
0001
1000
0010
0100
0010
1000
0100
0000
0100
0000
,
0110
1000
1000
1000
,
0110
0001
0001
0001
,
1000
1000
0110
0001
0001
0001
0110
1000
,
1000
0001
1000
0001
0100
0010
1000
0100
0010
0000
0000
0000
0110
0000
0000
0000
,
0001
0010
0001
0000
0100
0000
0001
0010
0001
0000
0100
0000
0001
0000
1000
0000
,
0010
1000
0010
0000
0100
0000
0010
1000
0010
0000
0100
0000
0010
1000
0010
0000
,
1000
0100
1000
0000
0100
0000
0110
0000
0000
0000
0010
0000
0100
0000
0010
0000
,
0001
1000
0001
0000
0100
0000
0001
1000
0001
0000
0100
0000
0001
1000
0001
0000
,
1000
0100
0010
0000
0100
0000
1000
0100
0010
0000
0100
0000
1000
0100
0010
0000
,
0100
0010
0100
0000
0010
0000
0100
0010
0100
0000
0010
0000
0100
0010
0100
0000
,
1000
0100
0001
0000
0100
0000
0110
0000
0000
0000
0010
0000
0001
0000
0100
0000
,
0010
1000
0001
0000
1000
0000
0010
1000
0001
0000
1000
0000
0010
1000
0001
0000
,
1001
0000
0000
0000
1000
0000
0100
0010
0100
0000
1000
0000
0100
0010
0100
0000
,
0001
0000
0100
0010
0100
0000
0001
0000
0100
0010
0100
0000
0001
0000
0100
0000
,
1000
0000
0010
0100
0001
0000
1001
0000
0000
0000
1000
0000
0100
0000
0010
0000
,
0100
0000
0010
0001
0100
0000
0010
0000
0100
0000
0010
1000
0100
0000
0010
0000
,
0110
0000
0000
0110
0000
0000
0110
1001
,
0110
0000
0000
0110
0000
0000
0110
0011
,
1100
0000
0000
1001
0000
0000
0101
1010
,
1100
0000
0000
1100
0000
0000
1100
0011
,
1001
1000
0010
1000
0100
0010
0110
0100
,
1000
0001
0100
0001
0010
0100
0110
0010
,
0001
1000
0010
0001
1000
0100
0001
1000
,
0001
0100
1000
0001
0010
1000
0100
0010
,
0001
1000
0010
0100
0001
1000
0100
0001
,
0100
0010
0001
1000
0010
0100
0001
1000
,
0010
0001
1000
1000
0100
0001
1000
1000
,
0100
0010
0001
0001
1000
0010
0100
0100
,
0110
0010
1000
0100
0010
0001
0011
0001
,
0100
0010
1000
0100
0001
1000
0010
1000
,
0010
0100
1000
0001
0100
0010
0110
0010
,
1000
0010
0100
1000
0001
0010
0001
0010
,
0110
0100
0001
0100
0000
0100
1000
0100
,
0000
0010
1000
0010
0000
0010
0001
0010
,
0110
0100
0001
0100
0000
0100
1000
0100
,
0010
1000
0010
1000
0001
1000
0001
1000
0001
0010
0001
0010
0001
0000
0010
0000
,
1001
0000
0000
0100
0000
0000
1000
0001
,
0100
0000
0000
0010
0000
0000
1000
0001
,
0011
0000
0000
0010
0000
0000
0100
0000
,
1100
0000
0000
0010
0000
0000
0100
0000
,
0101
1000
1000
1000
,
0011
1000
1000
1000
,
0101
0001
1000
1000
0001
1000
1000
1000
,
0011
0000
0000
0000
0000
0000
0000
0000
0010
0100
1000
0010
0100
0001
0010
0100
,
1000
0001
0000
0001
0100
0000
0100
0010
0000
0010
1000
0000
0100
0010
0100
0000
,
1000
0001
0000
0001
0010
0000
0010
0100
0000
0100
1000
0000
0010
0100
0010
0000
,
0100
0001
0000
0001
0010
0000
0100
1000
0000
1000
0010
0000
0100
0001
0010
0000
,
0100
1000
0000
1000
0010
0000
0100
0001
0000
0001
0010
0000
0100
1000
0001
0100
,
0010
1000
0000
1000
0100
0000
0010
0001
0000
0001
0100
0000
0010
1000
0100
0000
,
0010
0001
0000
0001
0100
0000
0010
1000
0000
1000
0100
0000
0010
0001
0100
0000
,
0010
0000
0000
1100
0000
0000
0010
0000
0000
0101
0000
0000
1100
0000
1001
0000
,
0001
0000
0000
1010
0000
0000
1000
0000
0000
0011
0000
0000
0110
0000
0011
0000
,
0001
1000
0000
1000
0100
0000
1000
0001
0000
0001
0100
0000
0001
1000
0100
0000
,
1000
0010
0000
0010
1000
0000
0001
0100
0000
0100
0001
0000
1000
0010
0100
0000
,
0001
1000
0000
0001
1000
0000
0010
0100
0000
0010
0100
0000
0010
0000
1000
0001
,
0100
0010
0000
0010
1000
0000
0100
0010
0000
0010
0001
0000
0010
0100
1000
0010
,
0110
0000
0000
0100
0000
0000
0001
0100
,
1000
0000
0000
0100
0000
0000
0001
0010
,
0100
0000
0000
1010
0000
0000
0100
0000
0000
0011
0000
0000
0001
1000
0001
1000
,
0100
0010
0100
0010
0001
0010
0100
1000
0010
0100
0001
1000
0100
0000
0010
0000
,
0220
0000
0000
0000
,
0000
0000
0000
0000
,
0330
0000
0000
0000
;

//---------------dance-single - Copied from----------------
#NOTES:
     dance-single:
     Copied from:
     Easy:
     11:
     0.428,0.521,0.017,0.104,0.087,331.000,2.000,12.000,0.000,0.000,0.000,0.428,0.521,0.017,0.104,0.087,331.000,2.000,12.000,0.000,0.000,0.000:
0000
0000
0000
0000
,
0000
0000
0000
0000
,
0010
0000
1000
0100
0000
0100
1000
0000
,
0001
0000
0100
0010
0000
0100
0001
0010
,
0100
0000
1000
0001
0000
0100
0010
1000
,
0001
0000
0010
0100
0000
0010
0001
1000
,
0010
0000
0100
0001
0000
0001
0100
0000
,
0010
0000
1000
0100
0000
0100
1000
0001
,
0100
0000
0010
0100
0000
0001
1000
0100
,
0010
0000
0100
1000
0000
0001
0100
0010
,
1000
0000
0001
0010
0000
0010
0001
0000
,
0100
0000
0010
1000
0000
1000
0010
0000
,
0100
0000
0001
0100
0000
0010
1000
0000
,
0001
0000
0010
0100
0000
1000
0001
0000
,
0200
0000
0000
0000
,
0310
0000
0000
1000
0000
0000
0001
0000
,
0100
0000
0010
0100
0000
0001
0010
0100
,
1000
0001
0100
0010
1000
0001
0010
0100
,
1000
1000
0001
0001
,
0100
0100
0010
0010
,
1000
1000
0100
0100
0010
0010
0001
0001
,
1000
0010
0100
0001
1000
0000
1001
0000
,
0010
0000
1000
0100
0000
1000
0010
0000
,
0100
0000
0001
0010
0000
0001
0100
0000
,
0010
0000
1000
0001
0000
1000
0010
0000
,
0100
0000
0001
1000
0000
0001
0100
0000
,
0010
0000
1000
0001
0000
0100
0010
0000
,
1000
0000
0001
0010
0000
0100
1000
0000
,
0010
0000
0100
0001
0000
1000
0010
0000
,
0100
0000
0001
1000
0000
0100
1000
0000
,
0010
0000
0100
0001
0000
0100
0010
0000
,
1000
0000
0100
0010
0000
0100
1000
0000
,
0001
0000
0100
0010
0000
1000
0001
0000
,
0010
0000
0100
1000
0000
0001
0100
0000
,
0010
0000
0000
1000
0000
0000
0100
0000
,
0010
0000
0000
0001
0000
0000
0100
0000
,
0010
0000
0000
1000
0000
0000
0001
0000
,
0000
0100
0000
0000
0010
0000
0100
0000
,
0001
0000
0010
0000
0100
1000
0100
0000
,
0010
0000
0001
0000
1000
0010
0100
0000
,
0001
0000
0100
0000
0010
1000
0001
0000
,
0010
0000
0100
0000
1000
0001
0100
0000
,
0010
0000
1000
0000
0100
0010
0100
0000
,
1000
0000
0001
0000
0100
0010
1000
0000
,
0001
0000
0010
0000
0100
1000
0010
0000
,
0100
0000
0001
0000
0100
1000
0100
0000
,
0001
0000
0010
0000
0100
1000
0001
0000
,
0100
0010
0100
0100
,
0010
0000
1000
0000
0001
0010
0001
0000
,
0100
0010
1000
1000
,
0020
0000
0000
0000
,
0230
0000
0000
0000
,
0302
0000
0000
0000
,
2003
0000
0000
0000
,
3001
0000
0000
0100
0000
0000
0000
0000
,
0001
0000
0000
0100
0000
0000
0000
0000
,
0010
0000
0000
1000
0000
0000
0000
0000
,
1000
0000
0000
0010
0000
0000
0000
0000
,
1000
0001
1000
0001
,
0100
0010
0100
0010
,
1000
0100
1000
0100
0010
0001
0010
0001
,
2000
0000
0000
0000
,
3001
0000
0000
0010
0000
0000
0100
0000
0000
1000
0000
0000
0001
0000
0000
0000
,
0100
0000
0000
0010
0000
0000
1000
0000
0000
0001
0000
0000
0010
0000
0100
0000
,
1000
0000
0000
0001
0000
0000
0100
0000
0000
0010
0000
0000
1000
0000
0000
0000
,
0010
0000
0000
0100
0000
0000
0001
0000
0000
0010
0000
0000
0100
0000
0000
0000
,
0010
0000
0000
0001
0000
0000
1000
0000
0000
0100
0000
0000
0010
0000
0000
0000
,
0100
0000
0000
1000
0000
0000
0001
0000
0000
0100
0000
0000
0010
0000
0000
0000
,
1000
0000
0000
0100
0000
0000
0001
0000
0000
0100
0000
0000
1000
0000
0000
0000
,
0010
0000
0000
0100
0000
0000
0001
0000
0000
0100
0000
0000
0010
0000
0000
0000
,
1000
0000
0001
1000
0000
1000
0001
0000
,
0100
0000
0010
1000
0000
1000
0010
0000
,
0100
0000
0000
0001
0000
0000
0100
0000
0000
0010
0000
0000
1000
0000
0000
0000
,
0001
0000
0000
0010
0000
0000
0100
0000
0000
0010
0000
0000
0001
0000
0000
0000
,
2000
0000
0000
0000
,
3020
0000
0000
0000
,
0230
0000
0000
0000
,
0302
0000
0000
0003
,
2002
0000
0000
0000
,
0000
0000
0000
0000
,
3003
0000
0000
0000
;

//---------------dance-single - FoRCeDNaTuRe----------------
#NOTES:
     dance-single:
     FoRCeDNaTuRe:
     Medium:
     14:
     0.581,0.555,0.260,0.087,0.000,429.000,30.000,10.000,0.000,0.000,0.000,0.581,0.555,0.260,0.087,0.000,429.000,30.000,10.000,0.000,0.000,0.000:
0000
0000
0000
0000
,
0000
0000
0000
0000
,
0000
0000
0000
0000
,
0000
0000
0000
0000
,
0000
0000
0000
0000
,
0000
0000
0000
0000
,
1000
0001
1000
0001
,
1000
0100
0010
1000
0001
0100
0010
0001
,
1000
0001
1000
0001
,
1000
0010
0100
1000
0001
0100
0010
0001
,
0100
0000
0010
0000
0100
0010
1000
0000
,
0001
0010
0100
1000
0001
0000
0101
0000
,
0100
0001
1000
0100
1000
0010
0100
0000
,
0101
0100
0110
0100
,
1000
0010
0100
0001
0010
0001
0100
0000
,
0100
0000
0100
0010
0000
0100
0010
0000
,
0100
0010
1000
0000
1000
0000
0001
0100
,
0002
0000
0000
0000
0000
0000
0000
0003
,
1001
1000
0110
1001
,
0100
0010
0101
1010
,
1000
0001
0010
0100
1000
0100
0010
0001
,
0100
0100
0100
0100
0100
0000
0110
0000
,
1000
0010
0100
0001
0010
0100
1000
0001
,
0100
0001
1000
0100
1000
0000
1010
0000
,
1000
0001
0010
0100
1000
0001
0100
0010
,
1000
0001
0100
0010
0200
0000
0000
0300
,
0010
1000
0001
0010
0100
0000
1001
0000
,
1000
0010
0100
0000
0101
0000
1100
0000
,
1000
0100
0001
1000
0010
0001
1000
0000
,
1000
0001
0010
0100
1000
0001
0100
0000
,
0110
0000
1001
0000
1000
0010
0100
0001
,
0010
0001
0100
0010
2000
0000
3000
0000
,
0001
0010
0100
1000
0010
0100
0001
1000
,
0100
1000
0010
0100
0002
0000
0003
0000
,
0010
0001
0100
0010
1000
0001
0100
0000
,
0100
0010
1000
0001
0010
0100
1000
0000
,
1001
0000
0110
0000
1000
0010
0100
0001
,
0010
0010
0010
0010
,
0010
0000
0010
0000
0010
0000
0010
0001
,
0100
0000
0100
0010
1000
0100
1000
0001
,
1000
0000
1000
0001
0100
0010
1000
0001
,
0010
0000
0100
1000
0001
0000
0101
0000
,
1100
0000
0101
0000
1000
0010
0001
0100
,
0001
0010
1000
0000
1001
0000
0110
0000
,
1001
0000
0001
0100
1000
0010
1000
0100
,
0001
0110
1001
0000
,
1000
0010
0100
0001
0010
0001
0100
0000
,
0001
0010
0100
1000
0100
0010
0001
0000
,
1000
0010
0100
0001
0100
0010
1000
0000
,
0001
0100
0010
1000
0010
0000
0000
0000
,
1000
0001
0010
0000
0010
0001
1000
0000
,
1000
0100
0001
0000
0001
0100
1000
0000
,
1000
0000
0010
0100
0001
0000
0010
0000
,
0001
0200
0020
0330
,
1000
0000
0001
0010
0100
0000
0000
0000
,
1000
0000
0001
0100
0010
0000
0000
0000
,
1000
0000
0001
0100
0001
0000
0000
0000
,
1000
0000
0010
0100
0001
0000
0000
0000
,
0010
0000
0001
0100
0010
0000
1001
0000
,
1000
0000
0001
0100
0010
0000
1010
0000
,
1000
1000
1000
1000
,
0001
1000
0001
1000
0001
1000
0001
1000
,
1010
0000
0100
0000
0001
0010
0001
0100
,
0010
1000
0001
0010
0100
1000
0001
0010
,
1000
0010
0001
0100
1000
0100
0001
0010
,
1000
0001
0100
1000
0010
1000
0100
0001
,
1000
0010
0001
1000
0001
0010
0100
1000
,
0100
0010
0001
1000
0010
0001
1000
0100
,
0001
1000
0010
0001
1000
0100
0001
1000
,
0100
0001
1000
0010
0001
0000
1001
0000
,
0001
0010
1000
0001
0100
1000
0001
0100
,
0010
1000
0100
0001
1000
0010
0001
1000
,
0001
0010
1000
0001
0100
1000
0001
0100
,
0010
1000
0100
0001
1000
0010
0001
1000
,
0001
0010
0100
1000
0100
0000
0010
0000
,
0100
0001
0100
0010
0100
0000
0010
0000
,
2000
0001
0001
0001
,
3020
0000
0100
0000
0100
0000
0100
0030
,
0202
0000
0000
0000
,
0000
0000
0000
0000
,
0303
0000
0000
0000
;

//---------------dance-single - ----------------
#NOTES:
     dance-single:
     :
     Challenge:
     18:
     0.989,0.972,0.425,0.139,0.915,733.000,49.000,16.000,0.000,0.000,0.000,0.989,0.972,0.425,0.139,0.915,733.000,49.000,16.000,0.000,0.000,0.000:
0000
0000
0000
0000
,
2000
0000
0000
0000
0000
0000
0000
0000
3001
0010
0001
0000
0100
0000
0010
0000
,
1010
0000
1000
0000
0100
0000
0110
0000
0000
0000
0010
0001
0100
0000
0010
0000
,
1010
0000
1000
0000
0001
0010
0100
0000
1000
0000
0010
0000
0100
0000
0010
0000
,
1000
0100
0001
0100
1000
0001
0200
0000
0000
0000
0310
0000
1000
0000
0001
0000
,
1000
0010
0001
0010
1000
0001
0200
0000
0000
0310
1000
0000
0100
0000
0010
0000
,
0011
0000
0001
0000
1000
0000
1010
0000
0000
0000
0010
0100
0001
0000
0010
0000
,
0110
0000
0000
0000
0100
1000
0020
0000
0000
0000
0130
0000
0001
0000
0010
0000
,
0001
0100
1000
0100
0001
1000
0200
0000
0000
0000
0310
0000
0001
0000
1000
0000
,
0001
0010
1000
0010
0001
1000
0200
0000
0000
0310
0100
0000
1000
0000
0010
0000
,
0110
0000
0100
0000
0001
0000
0011
0000
0000
0000
0010
0100
1000
0000
0010
0000
,
0110
0000
0100
0000
0001
1000
0002
0000
0000
0000
0013
0000
0100
0000
1000
0000
,
0010
0100
0010
0100
0001
1000
0001
1000
0100
0010
0100
0010
0001
0000
0100
0000
,
0010
1000
0010
1000
0100
0010
0100
0010
0001
0100
0001
0100
0010
0000
1000
0000
,
2200
0000
0000
0000
3300
0000
0011
0000
0000
0000
0001
1000
0010
0000
0100
0000
,
0110
0000
0010
0000
1000
0100
2000
0000
0000
0000
3001
0000
0100
0000
0010
0000
,
0100
0001
0100
0010
1000
0100
0010
0001
0010
0100
1000
0010
0100
0000
0010
0000
,
1000
0100
1000
0010
0100
0010
0100
0001
1000
0001
1000
0100
0010
0000
0010
0000
,
0021
0130
1200
0310
,
2001
3010
0120
1030
,
1000
1000
0001
0001
1000
1000
0001
0001
,
0010
0100
1000
0010
0100
0001
0010
0100
1000
0000
0000
0000
1001
0000
0000
0000
,
0001
0000
1000
0100
1000
0000
0001
0000
1000
0100
1000
0000
0010
0000
0100
0000
,
0001
0000
0010
0001
0010
0000
0100
0000
0010
0001
0010
0100
1000
0000
0010
0000
,
1000
0000
0100
0001
0100
0000
1000
0000
0100
0001
0100
0000
1000
0000
0001
0000
,
1000
0000
0010
0001
0010
0000
1000
0000
0010
0001
0010
1000
0001
0000
0010
0000
,
0001
0000
0100
0010
0100
0000
0001
0000
0100
0010
0100
0000
0010
0000
1000
0000
,
0100
0000
0010
0001
0010
0000
0100
0000
0010
0001
0010
0001
0100
0000
0010
0000
,
1000
0000
0010
0001
0010
0000
1000
0000
0010
0001
0010
0000
1000
0000
0001
0000
,
1000
0000
0100
0001
0100
0000
1000
0000
0100
0001
0100
1000
0010
0000
0100
0000
,
0110
0000
0010
1000
0010
0000
0100
0000
0010
1000
0010
0000
0100
0000
0001
0000
,
0010
0000
0100
0010
0100
0000
0010
0000
0100
0010
0100
1000
0010
0000
1000
0000
,
0001
0000
0100
1000
0100
0000
0001
0000
0100
1000
0100
0000
0010
0000
1000
0000
,
0001
0000
0010
1000
0010
0000
0001
0000
0010
1000
0010
0001
0100
0000
0010
0000
,
1010
0000
0000
0000
0000
0000
0000
0000
0100
0001
0010
0100
1000
0010
0100
0001
,
0010
0001
0100
0010
0100
0001
1000
0100
1000
0010
0100
0010
1000
0000
1000
0000
,
1010
0010
0010
0110
0100
0100
0001
1000
,
1100
0100
0100
0110
0010
0010
0001
0100
,
0110
0010
1000
1001
0000
0001
0010
0100
,
1100
1000
0010
0110
0000
0100
0001
1000
,
0001
0010
1000
0001
0100
1000
0001
1000
,
0001
0100
1000
0001
0010
1000
0001
1000
,
0001
0010
1000
0001
0100
1000
0001
1000
,
0001
0100
1000
0001
0010
1000
0001
1000
,
1001
0000
0010
0110
0000
0100
0001
0011
,
0010
0100
1000
1010
0000
0010
0100
0001
,
1001
0000
1000
0000
0100
0010
0100
1000
0010
0000
0100
0000
0001
1000
0001
0010
,
0001
0000
0100
0000
0010
0100
0001
0100
0010
0000
1000
0000
0100
0010
0100
0000
,
1000
0000
0010
0000
0100
0001
0100
0000
0010
0000
1000
0000
0100
1000
0100
0010
,
0001
0000
0010
0100
1000
0010
0100
0001
0010
0000
0001
0100
0010
0100
0001
0000
,
1001
0000
0100
0110
0000
0010
1000
1000
,
1001
0000
0001
0000
0010
0100
0010
0000
0000
0000
0001
0000
0100
0010
0100
0000
,
0001
0000
1000
0000
0100
0010
0100
0010
0100
1000
0100
1000
0001
0100
0010
0100
,
0001
1000
0001
1000
0001
0010
0100
1000
0010
0100
0001
0010
0100
0000
0100
0000
,
1100
0000
0000
0000
0000
0000
1001
0000
0000
0000
1000
0010
0001
0000
0010
0000
,
1010
0000
1000
1001
0000
0001
0011
0010
,
0011
0000
0000
0000
0000
0000
1001
0000
0000
0000
0001
0100
1000
0000
0100
0000
,
0110
0000
0000
0000
0010
0000
1010
0000
0000
0000
1000
0100
0001
0000
0100
0000
,
1100
0000
0000
0000
1000
0000
0000
0000
1000
0000
0001
1000
0001
0000
0100
0000
,
0010
0000
0010
0000
0010
1000
0010
1000
,
1001
0001
0001
0001
1000
1000
1000
1000
,
1001
0000
0000
0000
0000
0000
0001
0000
1000
0100
0010
0001
1000
0100
1000
0010
,
0100
0001
0000
0001
1000
0000
1000
0010
0000
0010
0100
0000
0010
1000
0010
1000
,
0001
0010
0000
0010
0001
0000
0001
1000
0000
1000
0010
0000
0100
0001
0100
0001
,
0010
0100
0000
0100
1000
0000
1000
0010
0000
0010
0100
0000
0001
1000
0001
1000
,
0001
0000
0000
0010
0000
0000
0100
0000
0000
1000
0000
0000
0010
0100
0001
0100
,
0010
1000
0000
1000
0100
0000
0100
1000
0000
1000
0001
0000
0001
0100
0010
0100
,
0001
0010
0000
0010
0100
0000
0100
1000
0000
1000
0010
0000
0100
0001
1000
0001
,
0010
0000
0001
0010
0000
0000
0001
0000
0000
1000
0000
0000
0010
1000
0100
0010
,
0100
0000
0000
1000
0000
0000
0010
0000
0000
1000
0000
0000
0010
0100
0010
1000
,
0001
0010
0000
0010
0100
0000
0100
0010
0000
0010
0001
0000
0100
0010
0100
0001
,
1000
0100
0000
0100
0010
0000
0010
0100
0000
0100
1000
0000
0010
0100
0010
0100
,
0001
0100
0000
0100
0010
0000
0010
0100
0000
0100
0001
0000
1000
0001
1000
0001
,
0010
0000
0000
0100
0000
0000
1000
0000
0000
0010
0000
0000
0100
0010
1000
0010
,
1010
0000
0000
1000
0000
0000
0100
0000
0000
0010
0000
0000
0001
0100
0010
0100
,
0001
0000
0000
0010
0000
0000
0001
0000
0000
0100
0000
0000
0010
1000
0010
0100
,
0010
0000
0000
1000
0000
0000
0100
0000
0010
0001
0010
0001
1000
0010
0100
0010
,
1000
0100
0001
0100
1000
0010
0001
0010
1000
0100
0010
0001
1000
0000
1000
0000
,
2002
0000
0000
0000
,
0000
0000
0000
0000
,
3003
0000
0000
0000
;

//---------------dance-single - Blank----------------
#NOTES:
     dance-single:
     :
     Beginner:
     3:
     0.104,0.135,0.069,0.026,0.000,73.000,8.000,3.000,0.000,0.000,0.000,0.104,0.135,0.069,0.026,0.000,73.000,8.000,3.000,0.000,0.000,0.000: // measure 0
0000
0000
0000
0000
,  // measure 1
0000
0000
0000
0000
,  // measure 2
1000
0000
0000
0000
,  // measure 3
1000
0000
0000
0000
,  // measure 4
0001
0000
0000
0000
,  // measure 5
0001
0000
0000
0000
,  // measure 6
0010
0000
0000
0000
,  // measure 7
0010
0000
0000
0000
,  // measure 8
0100
0000
0000
0000
,  // measure 9
0100
0000
0000
0000
,  // measure 10
1000
0000
0000
0000
,  // measure 11
1000
0000
0000
0000
,  // measure 12
0010
0000
0000
0000
,  // measure 13
0010
0000
0000
0000
,  // measure 14
0002
0000
0000
0000
,  // measure 15
0000
0000
0000
0000
,  // measure 16
0023
0000
0000
0000
,  // measure 17
0000
0000
0000
0000
,  // measure 18
0130
0000
0100
0000
,  // measure 19
0100
0000
0100
0000
,  // measure 20
0100
0000
0100
0000
,  // measure 21
0100
0000
0100
0000
,  // measure 22
0010
0000
0000
0000
,  // measure 23
0010
0000
0000
0000
,  // measure 24
1000
0000
0000
0000
,  // measure 25
1000
0000
0000
0000
,  // measure 26
0001
0000
0000
0000
,  // measure 27
0001
0000
0000
0000
,  // measure 28
0100
0000
0000
0000
,  // measure 29
0100
0000
0000
0000
,  // measure 30
0010
0000
0000
0000
,  // measure 31
1000
0000
0000
0000
,  // measure 32
0001
0000
0000
0000
,  // measure 33
0100
0000
0000
0000
,  // measure 34
0110
0000
0000
0000
,  // measure 35
0000
0000
0000
0000
,  // measure 36
1001
0000
0000
0000
,  // measure 37
0000
0000
0000
0000
,  // measure 38
1000
0000
0000
0000
,  // measure 39
0100
0000
0000
0000
,  // measure 40
0010
0000
0000
0000
,  // measure 41
0001
0000
0000
0000
,  // measure 42
1000
0000
0000
0000
,  // measure 43
0100
0000
0000
0000
,  // measure 44
0001
0000
0000
0000
,  // measure 45
0100
0000
0000
0000
,  // measure 46
1000
0000
0000
0000
,  // measure 47
0010
0000
0000
0000
,  // measure 48
0001
0000
0000
0000
,  // measure 49
0010
0000
0000
0000
,  // measure 50
1000
0000
0000
0000
,  // measure 51
0000
0000
0000
0000
,  // measure 52
0002
0000
0000
0000
,  // measure 53
0000
0000
0000
0000
,  // measure 54
1003
0000
0000
0000
,  // measure 55
0000
0000
0000
0000
,  // measure 56
1001
0000
0000
0000
,  // measure 57
1001
0000
0000
0000
,  // measure 58
0110
0000
0000
0000
,  // measure 59
0000
0000
0000
0000
,  // measure 60
0110
0000
0000
0000
,  // measure 61
0110
0000
0000
0000
,  // measure 62
0010
0000
0000
0000
,  // measure 63
0010
0000
0000
0000
,  // measure 64
1000
0000
0000
0000
,  // measure 65
1000
0000
0000
0000
,  // measure 66
0001
0000
0000
0000
,  // measure 67
0001
0000
0000
0000
,  // measure 68
0010
0000
0000
0000
,  // measure 69
0010
0000
0000
0000
,  // measure 70
0100
0000
0000
0000
,  // measure 71
0100
0000
0000
0000
,  // measure 72
1000
0000
0000
0000
,  // measure 73
1000
0000
0000
0000
,  // measure 74
0001
0000
0000
0000
,  // measure 75
0001
0000
0000
0000
,  // measure 76
0100
0000
0000
0000
,  // measure 77
0100
0000
0000
0000
,  // measure 78
0110
0000
0000
0000
;
