#TITLE:Border of extacy;
#SUBTITLE:;
#ARTIST:IOSYS;
#TITLETRANSLIT:;
#SUBTITLETRANSLIT:;
#ARTISTTRANSLIT:;
#CREDIT:;
#BANNER:Border of Extacy.png;
#BACKGROUND:Border of Extacy - BG.PNG;
#LYRICSPATH:;
#CDTITLE:cdtitlegpop.png;
#MUSIC:Border of extacy.ogg;
#OFFSET:1.120;
#SAMPLESTART:33.000;
#SAMPLELENGTH:12.000;
#SELECTABLE:YES;
#BPMS:0.000=204.001,26.000=408.002,28.000=204.001,31.000=408.002,33.000=204.001,34.500=408.002,35.500=204.001,36.000=408.002,37.000=204.001,38.000=408.002,40.000=204.001,48.000=102.001,52.000=204.001,108.000=102.001,112.000=204.001,184.000=408.002,200.000=204.001,208.000=408.002,224.000=204.001,248.000=102.001,249.000=204.001,279.000=102.001,282.500=407.999,283.000=204.001;
#STOPS:282.500=0.220
;
#BGCHANGES:3.250=Border of extacy.avi=1.000=0=0=1,
3.250=Border of Extacy.avi=1.000=0=0=1,
99999=-nosongbg-=1.000=0=0=0 // don't automatically add -songbackground-
;

//---------------dance-single - ----------------
#NOTES:
     dance-single:
     :
     Challenge:
     13:
     1.000,1.000,0.782,0.560,0.492: // measure 1
0000
0000
0000
0000
,  // measure 2
0000
0000
0000
0000
,  // measure 3
0000
0000
0000
0000
,  // measure 4
0000
0000
0000
0000
,  // measure 5
0000
0000
0000
0000
,  // measure 6
1000
0100
0010
0001
0100
0010
1000
0020
,  // measure 7
0000
0000
0000
0130
0000
0000
0001
0000
0000
0010
0000
0000
0100
0000
1000
0000
0100
0000
1000
0000
0100
0000
1000
0000
,  // measure 8
0100
0000
0000
0000
0000
0000
0010
0000
0000
0001
0000
0000
0100
0000
0000
0010
0000
0000
1000
0000
0001
0000
1000
0000
,  // measure 9
0001
0000
1000
0000
0001
0000
1000
0000
0000
0200
0000
0000
0000
0000
0000
0320
0000
0000
0000
0000
0000
0031
0000
0000
,  // measure 10
0020
0000
0130
0100
2000
0000
0001
0000
,  // measure 11
3001
0100
0010
1000
0010
0100
0001
0020
,  // measure 12
0100
0130
1000
0001
0101
0001
1001
1000
,  // measure 13
10M2
0000
0000
0203
0000
0000
M320
0000
0000
2030
0000
0000
320M
0000
0000
0320
0000
0000
0M32
0000
0000
2003
0000
0000
00M0
0000
0000
3200
0000
0000
03M2
0000
0000
0203
0000
0000
M320
0000
0000
0032
0000
0000
1M03
0000
0000
1000
0001
1000
,  // measure 14
0001
0001
1001
0001
1001
0001
1001
0001
,  // measure 15
1001
1000
1001
1000
1001
1000
1001
1000
,  // measure 16
1100
0100
1100
0100
1100
1000
1100
1000
,  // measure 17
1010
0000
1000
0000
1010
0000
1000
0000
1010
0000
0010
0000
0010
0100
0010
0100
,  // measure 18
0001
0001
0101
0001
0101
0100
0101
0100
,  // measure 19
0110
0010
0110
0010
0110
0100
0110
0010
,  // measure 20
1010
0010
1010
0010
1010
1000
1010
1000
,  // measure 21
1001
1000
1001
1000
1001
0001
1001
0001
,  // measure 22
1000
0100
0010
0001
0100
0010
1000
0020
,  // measure 23
0100
0000
0130
0000
0001
0000
0010
0000
0100
0000
1000
0000
0001
0010
0100
1000
,  // measure 24
0001
1000
0010
0100
0001
0010
0100
1000
,  // measure 25
1000
0000
0100
0000
0010
0000
0001
0000
0100
0000
0010
0000
1000
0100
0010
0001
,  // measure 26
1000
0100
0010
1000
0010
0100
0010
0001
,  // measure 27
0100
0000
1000
0000
0100
0000
0001
0000
1000
0000
0100
0000
1000
0010
0100
0001
,  // measure 28
10M0
1000
0M10
0010
M200
0302
M023
0230
230M
3020
M230
0302
20M3
0000
3M02
0000
,  // measure 29
M103
0010
1000
0001
0001
000M
1000
M000
,  // measure 30
0010
0100
0001
0100
0100
0M00
0001
000M
,  // measure 31
1100
0000
0110
0000
0011
0001
0000
1001
,  // measure 32
0000
0000
0101
0000
0000
0000
1001
0000
0001
1000
0001
1000
0001
0100
0001
0100
,  // measure 33
0001
0010
0100
1000
1000
M000
0001
000M
,  // measure 34
0100
0010
1000
0100
0100
0M00
0010
00M0
,  // measure 35
0101
0000
0000
0000
0110
0000
0000
0000
1010
0000
1000
0000
0000
0000
1000
0100
,  // measure 36
1000
0100
1000
0000
0001
0100
0001
0000
1000
0001
1000
0001
1000
0100
1000
0100
,  // measure 37
2000
0001
3001
0200
0010
0310
0101
0000
,  // measure 38
2000
0100
3100
0020
0002
0033
2100
0000
,  // measure 39
3001
0000
0101
0000
0110
0010
0000
1010
,  // measure 40
0000
0000
0001
0010
0100
0000
1000
0100
0010
0001
1000
0100
2000
0000
0000
0000
,  // measure 41
3001
0001
0100
0100
0010
00M0
1000
0100
,  // measure 42
0010
0010
0001
0001
1000
M000
0001
000M
,  // measure 43
0101
0000
0110
0000
1010
1000
0000
2002
,  // measure 44
0000
0000
3003
0000
1001
0000
1000
0100
0010
0000
0001
0010
0100
0000
1000
0100
,  // measure 45
2000
0000
3020
0000
0130
0100
0001
1000
,  // measure 46
1000
0100
0010
0001
2000
0000
3001
0100
,  // measure 47
M11M
M00M
M11M
M00M
,  // measure 48
M10M
M01M
M10M
M00M
,  // measure 49
M01M
M10M
M01M
M11M
,  // measure 50
M00M
M11M
M11M
0000
,  // measure 51
0002
0000
0203
0000
0310
0010
1000
0001
,  // measure 52
0001
0010
0100
1000
0001
0001
0100
0001
,  // measure 53
1MM1
0MM0
1MM1
0MM0
,  // measure 54
0MM1
1MM0
0MM1
0MM0
,  // measure 55
1MM0
0MM1
1MM0
1MM1
,  // measure 56
0MM0
0000
0000
1MM1
0000
0000
1MM1
0000
0000
1000
0001
1000
,  // measure 57
0001
0100
0010
1000
0100
0010
0001
0100
,  // measure 58
0010
1000
0010
1000
0010
0000
1000
0000
0010
0000
0100
0000
0001
0000
1000
0000
,  // measure 59
0010
0100
0001
1000
0100
0001
0100
1100
,  // measure 60
0100
0110
0010
0011
0001
1001
1001
1000
,  // measure 61
1100
0000
0000
0100
0000
0000
0010
0000
0000
0001
0000
0000
0100
0000
0000
0010
0000
0000
1000
0000
0000
0001
0100
0001
,  // measure 62
0100
0000
0000
0010
0000
0000
1000
0100
1000
0100
0000
0000
0010
0000
0000
0001
1000
0001
1000
0000
0000
0001
0000
0000
,  // measure 63
0101
0000
0000
0100
0000
0000
MMMM
0000
0000
0000
0000
0000
1100
0000
0000
0000
0000
0000
1000
0000
0100
0000
1000
0000
0100
0000
1000
0000
0100
0000
1000
0000
0100
0000
1000
0000
0001
0000
0000
0000
0000
0000
0001
0000
0000
0000
0000
0000
,  // measure 64
0101
0000
0100
0000
0001
0100
0001
0100
0010
1000
0010
1000
0001
0000
0100
0000
,  // measure 65
0010
1000
0010
0100
0001
0020
0000
0130
,  // measure 66
1000
0010
0100
0001
0100
0010
1000
0010
,  // measure 67
0100
0001
0100
0010
1000
0002
0003
0010
,  // measure 68
0100
0000
1000
0000
0001
0100
0010
1000
0001
0000
0010
0000
0001
0000
1000
0000
,  // measure 69
0001
0000
0100
0000
0001
0000
0100
0000
0000
0000
0000
0000
0001
0000
0000
0010
0000
0000
0100
0000
0000
1000
0000
0000
0001
0000
0000
0000
0000
0000
0002
0000
0000
0000
0000
0000
0000
0000
0000
0000
0000
0000
0103
0000
0000
0000
0000
0000
,  // measure 70
0010
0000
1000
0000
0100
0000
0010
0000
0001
0000
1000
0000
00M1
0100
001M
1000
,  // measure 71
M00M
0000
0001
0000
M010
0000
0100
0000
010M
0000
1000
0000
0M01
0000
0010
0000
M001
0100
0001
1000
0100
0000
MMMM
0000
1000
0000
0000
0000
0100
0000
0000
0000
,  // measure 72
0001
0100
1000
0010
0100
0002
0000
0013
,  // measure 73
0100
1000
0010
0001
0010
0100
0001
0010
,  // measure 74
0001
0100
0002
0000
0000
0000
1003
0000
0100
0000
2000
0000
0000
0000
3010
0000
,  // measure 75
0100
0000
0001
0000
1000
0010
0100
0001
1000
0000
0001
0000
1001
0000
1000
0000
,  // measure 76
0010
0100
1000
0100
0001
2000
0000
3001
,  // measure 77
0010
0000
0100
0000
1000
0000
0100
0000
0001
0000
0100
0000
0110
0000
0010
0001
,  // measure 78
1000
0001
1000
0000
0001
0010
0100
0000
1000
0000
1001
0000
0001
0000
0100
0000
,  // measure 79
0010
1000
0100
0010
0001
1000
2002
0000
,  // measure 80
0000
0000
0000
0000
,  // measure 81
0000
0000
0000
3003
;

//---------------dance-single - ----------------
#NOTES:
     dance-single:
     :
     Hard:
     9:
     0.781,1.000,0.296,0.307,0.127:
0000
0000
0000
0000
,
0000
0000
0000
0000
,
0000
0000
0000
0000
,
0000
0000
0000
0000
,
0000
0000
0000
0000
,
1000
0100
0010
0001
0100
0010
1000
0010
,
0000
0100
0001
0100
0001
1000
0001
1000
,
0001
0000
1000
0100
0010
0001
1000
0100
,
1000
0100
1000
0001
0000
0200
0000
0000
,
0320
0000
0000
1030
0200
0000
0000
0000
,
0310
0001
0100
0010
1000
0010
0100
0001
,
0001
0010
0100
1000
0010
0100
0001
0000
,
1000
0100
0010
0001
0100
0010
1000
0020
0000
0130
0001
0010
0100
1000
0001
0100
,
0001
0001
0010
0010
0100
0100
1000
1000
,
0001
0001
0100
0100
0010
0010
1000
1000
,
0001
0001
0100
0100
1000
1000
0100
0100
,
0001
0001
0010
0010
1000
1000
0010
0010
,
0001
0100
0001
0100
0001
0100
0001
0100
,
0010
1000
0010
1000
0010
1000
0010
1000
,
0001
0010
0100
1000
0100
0010
0001
1000
,
0001
0100
0010
1000
0010
0100
0001
1000
,
0001
0100
0010
1000
0010
0100
0001
0020
,
0000
0130
1000
0010
0100
0001
2000
0000
,
3001
0100
0010
0100
0001
0010
0100
2000
,
0000
3010
0100
0001
0010
0001
0100
0010
,
1000
0100
1000
0100
0010
0001
0100
0020
,
0000
1030
0100
0010
0001
0010
0200
0000
,
1300
0010
0100
0000
0001
0010
0100
1000
0010
0100
0001
0100
0002
0000
2003
0000
,
3001
0100
0010
2000
0000
0000
3001
0000
,
1000
0100
0010
0002
0000
0000
0103
0000
,
1010
0000
0110
0000
0100
0001
0000
1001
,
0000
1100
0000
1000
0100
0010
0001
1000
,
1000
0010
0100
0002
0000
0000
0013
0000
,
0100
1000
0010
0200
0000
0000
0301
0000
,
1001
0000
1100
0000
0100
0010
0000
0001
,
0100
0010
1000
0010
0100
0001
0010
0100
,
1000
1000
0010
0200
0000
0000
0301
0000
,
0010
0010
0100
2000
0000
0000
3010
0000
,
0110
0000
0101
0000
0001
1000
0000
1100
,
0000
0100
0010
0001
0100
0010
1000
0010
,
0100
0100
0001
2000
0000
0000
3100
0000
,
0010
0001
0010
0200
0000
0000
1300
0000
,
1001
0000
0101
0000
0010
0100
0000
1010
,
0000
0110
0101
1001
,
1000
0000
0010
0000
0100
0001
0000
1000
,
0000
0100
0100
0010
0001
1000
0000
0002
,
0100
0000
0100
0000
,
0010
0010
0010
0000
,
1000
1000
1000
1000
,
0000
1000
1003
0000
,
0001
0000
0100
0000
0010
1000
0000
0100
,
0000
0000
0010
0000
0001
1000
0000
0001
,
0001
0000
0100
0000
,
0010
1000
1000
0001
,
0001
0010
0100
1000
,
0000
0001
1001
0000
,
1000
0010
0100
0002
0000
0000
1003
0000
,
0001
0100
1000
0200
0000
0000
0310
0000
,
1010
0000
0110
0000
0100
0001
0000
1001
,
0000
1100
0000
0110
0000
0010
0001
0000
,
1000
0100
0001
0200
0000
0000
1300
0000
,
0001
0010
1000
0020
0000
0000
0130
0000
,
2200
3300
1002
0000
0103
0000
0110
0000
,
0010
0000
1010
0000
1000
0000
1001
1000
,
0100
0010
0000
0010
0001
1000
0000
0010
,
0100
0001
0000
1000
0100
0010
0001
0100
,
0010
1000
0000
0010
0100
0001
0000
1000
,
0100
0000
0001
0000
0100
1000
0100
1000
0100
0000
0010
0000
0001
0000
0100
0000
,
1000
0100
0001
0010
1000
0010
0000
0100
,
1000
0000
0001
0000
0100
0000
0010
0000
1000
0000
0010
0000
1000
0100
0010
0001
,
0000
0100
0010
1000
0000
0001
0100
0010
1000
1000
1001
0000
1000
0000
0100
0000
,
0001
0100
0000
1000
0010
0001
0000
0010
,
1000
0100
0000
0001
0100
0010
0001
0100
,
0010
1000
0000
0100
0010
0001
0000
1000
,
0010
0000
0100
0000
0001
1000
0001
1000
0001
0000
0010
0000
0100
0000
1000
0000
,
0100
0010
0010
0001
0100
0010
0000
1000
,
0010
0100
0001
0010
0100
1000
0001
0100
,
0010
1000
0000
0001
0010
0100
1000
1000
,
0010
0100
0001
0001
1000
0001
2002
0000
,
0000
0000
0000
0000
,
0000
0000
0000
3003
;

//---------------dance-single - ----------------
#NOTES:
     dance-single:
     :
     Medium:
     7:
     0.595,1.000,0.423,0.137,0.037:
0000
0000
0000
0000
,
0000
0000
0000
0000
,
0000
0000
0000
0000
,
0000
0000
0000
0000
,
0000
0000
0000
0000
,
1000
0000
0001
0100
0010
1000
0010
0000
,
1000
0000
0001
0010
0200
0000
0000
0000
,
0300
0000
1000
0000
0001
0010
0002
0000
,
0000
0000
0003
0000
1000
2000
0000
3000
,
0002
0000
0003
1000
0002
0000
0000
0000
,
1003
0000
0100
0010
0001
0010
0001
0000
,
1000
0000
0001
0100
0010
1000
0001
0000
,
1000
0100
1000
0100
0010
0001
0010
0002
0000
1003
0010
1000
0010
0100
0001
0000
,
1100
1001
0101
0110
,
1010
0110
0101
1001
,
1100
0110
0011
1001
,
0101
0110
1010
1001
,
1100
0110
0011
1001
,
0101
0110
1010
1001
,
1100
1001
0101
0110
,
1010
1001
1100
1001
,
0001
0100
0001
0000
1000
0100
1000
0000
,
0001
0010
0100
0000
1000
0100
0010
0000
,
0001
0100
0010
0000
1000
0010
0100
0000
,
0001
1000
0100
0000
1000
0001
0100
0000
,
0001
1000
0010
0000
1000
0001
0010
0000
,
1000
0001
1000
0000
0001
1000
0001
0000
,
2002
0000
0000
0000
0000
3003
1000
0001
,
1000
0000
0000
0100
0000
0000
0010
0000
,
0001
0000
0000
0100
0000
0000
0010
0000
,
1000
0000
0100
0000
0010
0001
0100
0000
,
0001
0000
1000
0000
0100
0010
0001
1000
,
0001
0000
0000
0100
0000
0000
0010
0000
,
1000
0000
0000
0010
0000
0000
0100
0000
,
0001
0000
0010
0000
0100
1000
0001
0000
,
1000
0000
0001
0000
0100
0010
1000
0001
,
0010
0000
0000
0100
0000
0000
1000
0000
,
0001
0000
0000
0100
0000
0000
0010
0000
,
1000
0000
0010
0000
0100
0010
1000
0000
,
0001
0000
1000
0000
0100
0010
0001
0010
,
0100
0000
0000
1000
0000
0000
0001
0000
,
0100
0000
0000
0010
0000
0000
1000
0000
,
0001
0000
0010
0000
0100
1000
0001
0000
,
1000
0100
1000
0100
1000
0100
1000
0000
,
0001
0000
0100
0000
0010
0010
0000
1000
,
0000
0000
0100
0100
1000
1000
0000
0001
,
0001
0000
0001
0000
,
0001
0001
0001
0000
,
0001
0001
0001
0001
,
0000
0001
0001
0000
,
1000
0000
0010
0000
0100
0100
0000
0001
,
0000
0000
0010
0000
0001
0001
0000
1000
,
1000
0000
1000
0000
,
1000
1000
1000
0000
,
1000
1000
1000
1000
,
0000
1000
1000
0000
,
0001
0000
1000
1000
0000
0001
0001
0000
,
1000
0000
0010
0010
0000
0100
0100
0000
,
0001
0000
0010
0000
0100
1000
0100
0000
,
0001
0000
0100
0000
0010
1000
0010
1000
,
0001
0000
0010
0010
0000
0100
0100
0000
,
1000
0000
0001
0001
0000
1000
1000
0000
,
0101
1001
0000
1100
,
0000
0110
0000
0011
,
0001
0000
0100
0000
0010
0000
2000
0001
,
0000
0001
0000
0001
0000
0001
3000
0001
,
0000
0100
0000
0010
0000
1000
0000
0001
,
0000
1000
0000
0001
0000
1000
0001
0010
,
0100
0000
1000
0100
0010
0000
0001
0100
,
0010
0000
1000
0010
0100
0000
2002
0000
,
0000
0000
0000
0000
0000
3003
0001
0010
,
0001
0000
1000
0100
1000
0000
0001
0010
,
0100
0000
1000
0100
0010
0000
0001
0100
,
0010
0000
1000
0010
0100
0000
0001
0100
,
0001
0000
1000
0010
1000
0000
0010
0100
,
0010
0000
0100
0010
0100
0000
0001
1000
,
0001
0000
1000
0001
1000
0000
0001
0010
,
0100
0000
1000
0100
0010
0000
0001
0100
,
0010
1000
0001
1000
0001
0000
2002
0000
,
0000
0000
0000
0000
,
0000
0000
0000
3003
;

//---------------dance-single - ----------------
#NOTES:
     dance-single:
     :
     Easy:
     4:
     0.379,0.469,0.085,0.116,0.000:
0000
0000
0000
0000
,
0000
0000
0000
0000
,
0000
0000
0000
0000
,
0000
0000
0000
0000
,
0000
0000
0000
0000
,
1000
1000
1000
1000
,
0001
0001
0002
0000
,
0003
0100
0100
0200
,
0000
0000
0300
0000
0000
0002
0000
0000
,
0023
0000
0230
0000
,
1300
0100
1000
0100
,
0010
0001
0010
0001
,
1000
1000
0001
0001
,
1000
0100
1000
0100
,
0010
0001
0010
0001
,
1000
0010
1000
0010
,
0100
0001
0100
0001
,
1000
0100
0010
0001
,
1000
0100
0010
0001
,
1000
0010
0100
0001
,
1000
0010
0100
0001
,
1000
1000
1000
1000
,
0001
0001
0001
0001
,
0100
0100
0100
0100
,
0010
0010
0010
0010
,
1000
1000
0100
0100
,
0010
0010
0001
0001
,
2002
0000
0000
0000
0000
0000
0000
3003
,
1000
0000
0010
0000
,
0100
0000
0001
0000
,
1000
0100
0010
0001
,
1000
1000
1000
1000
,
0001
0000
0100
0000
,
0010
0000
1000
0000
,
0001
0010
0100
1000
,
0010
0010
0010
0010
,
0100
0000
0001
0000
,
1000
0000
0010
0000
,
0001
0100
0010
1000
,
0100
0100
0100
0100
,
0100
0000
0010
0000
,
0001
0000
1000
0000
,
0001
0100
0010
1000
,
0001
0001
0001
0001
,
1000
0000
0010
0000
,
0100
0000
0001
0000
,
1000
0000
1000
0000
,
1000
0000
1000
0000
,
1000
0000
1000
0000
,
1000
0000
1000
0000
,
0001
0000
0100
0000
,
0010
0000
1000
0000
,
0001
0000
0001
0000
,
0001
0000
0001
0000
,
0001
0000
0001
0000
,
0001
0000
0001
0000
,
0001
0000
0010
0000
,
0100
0000
1000
0000
,
0010
0100
0001
1000
,
0010
0010
0010
0010
,
0010
0000
0100
0000
,
0001
0000
1000
0000
,
1100
1001
0000
0101
,
0000
0110
0000
1001
,
1000
0001
1000
0001
,
1000
0001
1000
0010
,
0100
0010
0100
0010
,
0100
0010
0100
0001
,
0010
0100
1000
0001
,
0010
0100
1000
2002
,
0000
0000
0000
0000
0000
3003
1000
0000
,
0010
0100
0001
1000
,
0100
0010
0001
1000
,
0100
1000
0100
0010
,
0001
0010
0001
1000
,
0010
0100
0001
0010
,
0100
1000
0100
1000
,
0001
0100
0010
1000
,
1000
0001
0001
2002
,
0000
0000
0000
0000
,
0000
0000
0000
3003
;

//---------------dance-single - ----------------
#NOTES:
     dance-single:
     :
     Beginner:
     2:
     0.192,0.416,0.106,0.000,0.000:
0000
0000
0000
0000
,
0000
0000
0000
0000
,
0000
0000
0000
0000
,
0000
0000
0000
0000
,
0000
0000
0000
0000
,
1000
0000
0000
0000
,
1000
0000
0000
0000
,
0000
1000
0000
0000
,
0000
0000
1000
0000
,
0000
0000
0000
0000
,
0001
0000
0000
0000
,
0001
0000
0000
0000
,
0001
0000
0000
0000
,
0001
0000
0001
0000
,
0001
0000
0001
0000
,
1000
0000
1000
0000
,
1000
0000
1000
0000
,
0010
0000
0010
0000
,
0010
0000
0010
0000
,
0100
0000
0100
0000
,
0100
0000
0100
0000
,
0001
0000
0001
0000
,
0010
0000
0010
0000
,
0100
0000
0100
0000
,
1000
0000
1000
0000
,
0001
0000
0001
0000
,
0100
0000
0100
0000
,
1001
0000
0000
0000
,
1000
0000
0000
0000
,
0100
0000
0000
0000
,
0010
0000
0010
0000
,
0001
0001
0001
0000
,
0001
0000
0000
0000
,
0100
0000
0000
0000
,
0010
0000
0010
0000
,
1000
1000
1000
0000
,
1000
0000
0000
0000
,
0100
0000
0000
0000
,
0001
0000
0001
0000
,
0010
0010
0010
0000
,
0010
0000
0100
0000
,
1000
0000
1000
0000
,
0100
0100
0100
0000
,
0100
0000
0000
0000
,
0010
0000
0000
0000
,
0001
0000
0001
0000
,
1001
0000
0000
0000
,
0000
0000
0000
0000
,
0000
0000
0000
0000
,
0000
0000
0000
0000
,
0010
0000
0000
0000
,
1000
0000
1000
0000
,
1001
0000
0000
0000
,
0000
0000
0000
0000
,
0000
0000
0000
0000
,
0000
0000
0000
0000
,
0100
0000
0000
0000
,
0010
0000
0010
0000
,
1000
1000
1000
0000
,
0001
0000
0000
0000
,
0100
0000
0000
0000
,
1000
0000
1000
0000
,
0110
0110
0000
1001
,
0000
1001
0000
1001
,
0000
1000
0000
1000
,
0000
1000
0000
0001
,
0000
0001
0000
0001
,
0000
0001
0000
0100
,
0000
0100
0000
0100
,
0000
0100
0000
1001
,
0000
0000
0000
1000
,
0000
1000
0000
1000
,
0000
1000
0000
0001
,
0000
0001
0000
0001
,
0000
0001
0000
0100
,
0000
0100
0000
0100
,
0000
0100
0000
0010
,
0000
0010
0000
0010
,
0000
0010
0000
1001
;
