#TITLE:Unyutei;
#SUBTITLE:;
#ARTIST:Ottiki;
#TITLETRANSLIT:;
#SUBTITLETRANSLIT:;
#ARTISTTRANSLIT:;
#CREDIT:;
#BANNER:Unyutei.png;
#BACKGROUND:Unyutei-bg.png;
#LYRICSPATH:;
#CDTITLE:;
#MUSIC:Unyutei.ogg;
#OFFSET:1.100;
#SAMPLESTART:65.860;
#SAMPLELENGTH:12.000;
#SELECTABLE:YES;
#BPMS:0.000=190.000;
#STOPS:;
#BGCHANGES:3.500=Unyutei.avi=1.000=1=0=1,
344.000=Unyutei - BG.PNG=1.000=1=0=1,
99999=-nosongbg-=1.000=0=0=0 // don't automatically add -songbackground-
;

//---------------dance-single - ----------------
#NOTES:
     dance-single:
     :
     Challenge:
     11:
     0.983,1.000,0.101,0.238,0.769: // measure 1
0000
0000
0000
0000
,  // measure 2
0000
0000
0000
0000
,  // measure 3
0000
0000
0000
0000
,  // measure 4
0000
0000
0000
0000
,  // measure 5
0000
0000
0000
0000
,  // measure 6
0000
0000
0000
0000
,  // measure 7
0000
0000
0000
0000
,  // measure 8
0000
0000
0000
0000
,  // measure 9
0000
0000
0000
0000
0000
0000
0000
1000
,  // measure 10
1001
0001
0100
0000
0010
1000
0000
0001
,  // measure 11
0010
0000
0000
0000
0100
0000
1000
0000
0000
0000
0001
0000
0100
0010
0100
0010
,  // measure 12
0100
0000
0000
0000
0001
0000
1000
0000
0100
0000
0010
0000
0001
0000
1000
0001
,  // measure 13
0100
0000
0010
0000
1000
0000
0001
0000
1000
0000
1000
0000
0001
0100
0001
0100
,  // measure 14
0001
0000
1000
0100
0010
0001
0100
0010
,  // measure 15
1000
0000
0010
0000
0100
0000
0001
0000
0010
0000
0100
0000
1000
0001
1000
0001
,  // measure 16
1000
0000
0010
0000
0100
0000
0001
0000
0100
0000
1000
0000
0100
0000
0001
0010
,  // measure 17
0100
0000
0100
0000
1000
0000
0100
0000
0010
0000
0001
0010
0100
1000
0100
1000
,  // measure 18
0100
0000
0100
0000
0010
0000
0000
0000
0001
0000
0100
0000
0010
0000
1000
0100
,  // measure 19
1000
0000
0010
0000
0100
0000
0001
0000
0100
0000
0010
0000
1000
0001
1000
0001
,  // measure 20
1000
1000
0010
0100
0001
0100
0010
1000
,  // measure 21
0001
0000
0010
0000
0100
1000
0100
1000
0200
0000
0000
0000
0310
0000
0000
0000
,  // measure 22
1002
0000
0000
0000
0203
0000
0000
0320
,  // measure 23
0000
0000
2030
0000
0000
3002
0000
0000
,  // measure 24
2003
0000
0000
0000
3020
0000
0000
0032
,  // measure 25
0000
0000
0203
0000
0000
2300
0000
0000
,  // measure 26
3002
0100
0100
0000
0203
0000
0000
2300
,  // measure 27
0000
0000
3002
0000
0000
0023
0000
0000
,  // measure 28
2030
0000
0000
0000
0200
0000
0000
0010
,  // measure 29
0000
0000
0001
0000
0000
0010
3300
0000
,  // measure 30
1000
0100
0010
0001
1000
0100
1000
0001
,  // measure 31
0100
0001
0100
0010
0100
0010
1000
0010
,  // measure 32
1000
0100
0010
0001
1000
0010
1000
0010
,  // measure 33
0100
0010
0100
0001
0100
0001
1000
0001
,  // measure 34
1000
0100
0010
0001
1000
0100
1000
0010
,  // measure 35
0100
0001
0010
0100
1000
0100
0010
0100
,  // measure 36
1000
0010
0100
0001
1000
0100
1000
0100
,  // measure 37
0010
0001
0100
0010
1000
0001
1000
0001
,  // measure 38
1001
1000
0010
0100
0001
0010
0100
1000
,  // measure 39
0001
0100
0001
0100
0010
1000
0002
1000
,  // measure 40
1003
0100
1000
0010
0100
0001
0010
0100
,  // measure 41
1000
0000
0100
0000
1000
0000
0100
0000
0010
0000
0001
0010
0001
0000
1001
0000
,  // measure 42
1001
1000
0100
0010
0001
0010
0100
1000
,  // measure 43
0001
0001
0100
0100
0010
1000
0002
0100
,  // measure 44
0103
0010
1000
0010
0100
0001
0010
0100
,  // measure 45
1000
0100
1000
0100
0010
0001
0010
0001
,  // measure 46
1000
0100
1000
0100
0010
0001
0010
0001
,  // measure 47
1000
0000
1000
0000
0010
0000
0010
0000
0100
0000
0100
0001
0100
0000
0010
0000
,  // measure 48
1000
0100
0010
0001
1000
0010
0100
0001
,  // measure 49
1000
0000
1000
0000
0001
0000
0001
0100
0010
0000
0010
0100
0001
0000
1001
0000
,  // measure 50
1001
1000
0100
0010
0001
0100
0010
1000
,  // measure 51
0001
0010
0100
1000
0001
0100
0010
1000
,  // measure 52
0002
0100
0100
0100
0203
0010
0010
0010
,  // measure 53
0310
1000
0010
0100
0001
0010
0100
1000
0100
0010
0001
0100
0010
1000
0001
1000
,  // measure 54
0001
0001
0001
0100
0010
0010
1000
0001
,  // measure 55
0001
0000
0100
0000
0010
0000
0010
0000
1000
0000
0001
0000
0001
0100
0010
1000
,  // measure 56
0001
0001
0100
0010
0010
1000
0001
0001
,  // measure 57
1000
0010
0010
0100
0100
0002
1000
1003
,  // measure 58
1001
0000
0001
0000
0001
0000
0100
0000
0010
0000
0010
0000
1000
0000
1000
0100
,  // measure 59
0010
0000
0010
0000
0001
0000
0100
0000
0100
0000
0010
0000
1000
0100
0010
0001
,  // measure 60
1000
1000
0010
0100
0100
0100
0001
0010
,  // measure 61
0100
0000
1000
0000
0100
0000
1000
0000
0001
0000
2000
0000
3001
0100
0001
0100
,  // measure 62
0001
0100
0001
0001
0100
0010
1000
1000
,  // measure 63
0010
0000
0100
0000
0001
0000
0001
0000
0010
0000
0100
0000
0010
0001
0010
0001
,  // measure 64
0010
0100
1000
1000
0001
0100
0010
0010
,  // measure 65
1000
0000
0100
0000
1000
0000
1000
0000
0010
0000
0100
0000
0001
1000
0001
1000
,  // measure 66
0001
0100
0110
0010
1000
0001
0101
0100
,  // measure 67
0001
0000
1000
0000
1100
0000
0100
0000
0010
0000
0001
0000
0010
0100
1000
0001
,  // measure 68
1000
0100
1000
0100
0010
0100
0010
0100
0010
0001
0010
0001
1000
0001
1000
0001
,  // measure 69
1000
0100
0010
0001
1000
0100
0010
0001
1000
0010
0100
0001
0100
0010
1000
0100
,  // measure 70
1000
0100
0010
0000
0001
0100
0000
0010
0100
0000
0001
0100
0000
0010
1000
0100
,  // measure 71
1000
0001
0000
1000
0100
0000
0010
0001
0000
0100
0010
0000
1000
0001
0000
0100
,  // measure 72
0010
0100
0010
0100
0001
1000
0001
1000
0001
0010
0100
1000
0100
0010
0001
1000
,  // measure 73
0001
0100
0001
0000
1000
0100
0000
0010
0001
0000
0100
0010
0000
1000
0001
0000
,  // measure 74
1000
0100
0000
1000
0010
0000
0100
0001
0000
0100
0010
0000
0100
0001
0000
1000
,  // measure 75
0001
0000
1000
0100
0000
0010
0001
0000
1000
0010
0000
0100
0001
0000
1000
0001
,  // measure 76
0100
0001
1000
0000
0001
0010
0001
0010
0100
0000
1000
0100
0010
0001
1000
0000
,  // measure 77
0001
0100
0000
0001
1000
0000
0001
0010
0100
0010
0001
0000
1000
0100
0010
0001
,  // measure 78
10M0
0100
1000
0100
100M
0100
1000
0100
M010
0001
0010
0001
0M10
0001
0010
0001
,  // measure 79
1M00
0010
1000
0010
100M
0010
1000
0010
M100
0001
0100
0001
01M0
0001
0100
0001
,  // measure 80
M100
0010
0100
0010
010M
0010
0100
0010
1M00
0001
1000
0001
10M0
0001
1000
0001
,  // measure 81
10M0
0100
1000
0100
100M
0100
1000
0100
M010
0001
0010
0001
0M10
0001
0010
0001
,  // measure 82
10M0
0100
1000
0100
001M
0100
0010
0100
M010
0001
0010
0001
1M00
0001
1000
0001
,  // measure 83
1M00
0010
1000
0010
010M
0010
0100
0010
M100
0001
0100
0001
10M0
0001
1000
0001
,  // measure 84
10M0
0100
0010
0001
10M0
0100
0010
0001
1M00
0010
0100
0001
1M00
0010
0100
0001
,  // measure 85
10M0
0100
0010
0001
M100
0010
0100
0010
100M
0100
1000
0010
M100
0001
0010
0200
,  // measure 86
20MM
0000
0000
3300
;

//---------------dance-single - ----------------
#NOTES:
     dance-single:
     :
     Hard:
     8:
     0.620,0.668,0.046,0.064,0.037:
0000
0000
0000
0000
,
0000
0000
0000
0000
,
0000
0000
0000
0000
,
0000
0000
0000
0000
,
0000
0000
0000
0000
,
0000
0000
0000
0000
,
0000
0000
0000
0000
,
0000
0000
0000
0000
,
0000
0000
0000
0000
,
0000
0000
0000
0000
,
0000
0000
0000
0000
,
0000
0000
0000
0000
,
0000
0000
0000
0000
0000
0000
0000
1000
,
1001
0000
0001
0100
0010
1000
0010
0100
,
0001
0010
0100
1000
0001
0100
0001
0100
,
0010
0100
0010
1000
0100
0010
0001
1000
,
0100
0010
0001
0100
0010
1000
0001
1000
,
0001
0100
0001
0100
0010
1000
0100
0010
,
0001
0010
0100
1000
0100
1000
0010
0100
,
0001
0010
0100
1000
0001
0010
0100
1000
,
0001
1000
0010
0100
0002
0000
0003
0000
,
1001
0000
0000
0000
1000
0000
0000
0010
,
0000
0000
0100
0000
0000
0001
0000
0000
,
1000
0000
0000
0000
0001
0000
0000
0010
,
0000
0000
0100
0000
0000
1000
0000
0000
,
0002
0000
0000
0003
1000
0000
0000
0010
,
0000
0000
1000
0000
0000
0100
0000
0000
,
0020
0000
0000
0000
0031
0000
0000
0100
,
0000
0000
0010
0000
0000
1000
0000
0000
,
0001
0100
0001
0100
0001
0100
0010
1000
,
0010
0100
0010
0100
0001
0100
0001
1000
,
0001
0010
0100
1000
0001
1000
0001
0100
,
0001
1000
0001
1000
0010
1000
0010
0100
,
0001
0100
0010
1000
0001
0100
0001
1000
,
0100
1000
0010
0100
0010
1000
0001
1000
,
0001
0010
0100
1000
0001
0100
0001
1000
,
0100
1000
0001
0010
0001
1000
0010
1000
,
0001
0010
0100
1000
,
0001
0100
0010
1000
0001
0010
0100
0000
,
1000
0100
1000
0010
,
0100
0001
0100
0010
1000
1000
0001
0000
,
1000
0100
1000
0010
,
0100
0001
0100
0010
1000
0001
1000
0000
,
0001
0010
0100
1000
,
0001
0010
0100
1000
0001
0010
0100
1000
,
0001
0100
0010
1000
,
0001
0010
0001
1000
0100
1000
0001
1000
,
0010
0100
0001
0100
,
0010
1000
0010
0100
0001
0010
0100
1000
,
0001
1000
0010
0100
,
0001
0010
0001
0100
0010
1000
0001
1000
,
0002
1000
2003
0010
,
3010
0100
0001
1000
0001
0010
0100
1000
,
0001
0000
1001
0000
1000
0100
0000
0010
,
0001
0100
0010
1000
0000
0001
0100
0010
,
1000
1000
0001
0100
0100
0000
0001
0010
,
0010
0100
1000
0001
0000
1000
0100
1000
,
0010
0100
0001
0000
1000
0100
0000
0010
,
0100
1000
0010
0100
0000
0001
0100
0010
,
1000
1000
0010
0100
0100
0000
0001
0010
,
0010
0100
0010
0001
0000
1000
0100
1000
,
0001
0100
0010
0000
1000
0010
0000
0100
,
0001
0100
0010
1000
0000
0001
0010
0100
,
1000
1000
0001
0100
0100
0000
0010
1000
,
1000
0001
0100
0010
0000
1000
0100
1000
,
0001
0000
1001
0000
1000
0010
0100
0000
,
0001
0010
0100
1000
0000
0001
0100
0001
,
1000
0100
1000
0100
0010
0001
0010
0001
,
1000
0010
0100
0001
0010
1000
0010
0001
,
1000
0000
0100
0000
0000
0010
0000
0000
0001
0000
0000
0100
0000
0000
0010
0000
,
1000
0000
0001
0000
0000
0100
0000
0000
0010
0000
0000
0100
0000
0000
0001
0000
,
1000
0100
0010
0001
0100
0010
1000
0010
,
0100
0001
0100
0001
1000
0100
1000
0100
,
1000
0000
0000
0010
0000
0000
0100
0000
0000
0001
0000
0000
0010
0000
0000
0000
,
0001
0000
0000
0010
0000
0000
0100
0000
0000
0001
0000
0000
1000
0000
0000
0000
,
0001
0000
1000
0100
0010
0001
1000
0001
,
1000
0000
0001
0100
0010
0000
1000
0001
,
1000
0100
1000
0100
1000
0100
1000
0100
,
0010
0001
0010
0001
0010
0001
0010
0001
,
1000
0010
1000
0010
1000
0010
1000
0010
,
0100
0001
0100
0001
0100
0001
0100
0001
,
1000
0100
0010
0001
1000
0100
0010
0001
,
1000
0010
0100
0001
1000
0010
0100
0001
,
1000
0100
0001
0100
1000
0010
0100
0001
,
0010
1000
0010
0001
0100
0010
1000
0001
,
2002
0000
0000
3003
;

//---------------dance-single - ----------------
#NOTES:
     dance-single:
     :
     Medium:
     6:
     0.487,0.589,0.202,0.055,0.000:
0000
0000
0000
0000
,
0000
0000
0000
0000
,
0000
0000
0000
0000
,
0000
0000
0000
0000
,
0000
0000
0000
0000
,
0000
0000
0000
0000
,
0000
0000
0000
0000
,
0000
0000
0000
0000
,
0000
0000
0000
0000
,
0000
0000
0000
0000
,
0000
0000
0000
0000
,
0000
0000
0000
0000
,
0000
0000
0000
0000
,
1000
0100
0010
0001
,
0100
0000
0010
0000
1000
0000
0010
0100
,
0001
1000
0100
0010
,
0100
0000
1000
0000
0010
0000
0100
0001
,
1000
0010
0100
0001
,
1000
0000
0100
0000
0001
0000
0010
0001
,
1000
0010
0100
0001
,
1000
0100
0010
0001
2000
0000
3001
0000
,
1001
0000
0000
0000
0001
0000
0000
0001
,
0000
0000
0001
0000
0000
0001
0000
0000
,
0100
0000
0000
0000
0100
0000
0000
0100
,
0000
0000
0100
0000
0000
0100
0000
0000
,
0010
0000
0000
0000
0010
0000
0000
0010
,
0000
0000
0010
0000
0000
0010
0000
0000
,
1000
0000
0000
0000
1000
0000
0000
1000
,
0000
0000
1000
0000
0000
1000
0000
0000
,
0001
0010
0100
0000
1000
0000
0010
0000
,
0100
0001
1000
0000
0010
0000
0100
0000
,
0001
0010
0100
0000
1000
0000
0100
0000
,
0010
0001
0100
0000
0010
0000
1000
0000
,
0010
0100
0001
0000
1000
0000
0100
0000
,
0010
0001
0010
0000
0100
0000
1000
0000
,
0010
0100
0001
0000
1000
0000
0001
0000
,
0100
0010
0100
0000
0001
0000
1000
0000
,
0001
0100
0010
1000
,
0001
0000
0100
0000
0010
1000
0001
0000
,
1000
0100
0010
0001
,
1000
0000
0100
0000
0010
0001
1000
0000
,
0010
0100
0001
1000
,
0001
0000
0100
0000
0010
1000
1000
0000
,
0100
0000
0010
0000
0001
0100
0010
0000
,
1000
0000
0010
0000
0100
0100
0001
0000
,
1000
0100
1000
0000
0001
0100
0001
0000
,
1000
0010
1000
0000
0001
0010
0001
0000
,
1000
0100
0010
0000
0001
0010
0100
0000
,
1000
0100
1000
0000
0001
0100
0001
0000
,
1000
0010
0100
0000
0001
0100
0010
0000
,
1000
0100
0010
0000
0001
0010
0100
0000
,
2000
0001
3002
1000
,
1003
0001
1000
0001
1000
0001
1000
0000
,
1001
0000
1001
0000
0001
0100
0000
0010
,
1000
0000
0001
0010
0000
0100
1000
0001
,
1000
0000
0010
0000
0100
0001
1000
0000
,
0001
0000
0010
0100
0000
1000
0001
1000
,
0001
0000
1001
0000
1000
0010
0000
0100
,
0001
0000
0100
0010
0000
1000
0001
1000
,
0001
0000
0100
0000
0010
1000
0001
0000
,
1000
0100
0000
0010
0000
0002
0000
0000
,
1003
1001
0100
0110
,
0010
1100
0001
0101
,
0010
1100
0010
0101
,
0010
1001
0100
0110
,
0010
1010
1000
1001
,
0001
0110
1000
0101
,
1100
0110
0011
1001
,
0001
1000
0001
1000
0001
1000
0001
0000
,
1000
0000
0010
0000
0100
0001
1000
0000
,
0001
0000
0010
0000
0100
1000
0001
0000
,
0100
0000
0010
0000
1000
0010
0000
0100
,
0000
0000
0001
0000
1001
0000
1000
0100
,
0010
0000
0001
0000
0100
0000
0010
1000
,
0001
0100
0010
1000
,
0001
0000
0010
0100
1000
0001
1000
0000
,
0010
0100
0010
0000
0100
0010
0100
0000
,
0001
0000
0001
0000
1000
0100
0010
0000
,
0001
0000
0100
0000
0010
1000
0010
0000
,
0100
0000
0001
0000
1000
0100
0010
0000
,
0001
0000
0100
0000
0010
1000
0001
0000
,
1000
0100
1000
0000
0001
0100
0001
0000
,
1000
0010
1000
0000
0001
0010
0001
0000
,
1000
0100
0010
0000
0001
0010
0100
0000
,
1000
0100
0010
0001
0100
0010
1000
0000
,
2002
0000
0000
3003
;

//---------------dance-single - ----------------
#NOTES:
     dance-single:
     :
     Easy:
     4:
     0.335,0.393,0.027,0.055,0.000:
0000
0000
0000
0000
,
0000
0000
0000
0000
,
0000
0000
0000
0000
,
0000
0000
0000
0000
,
0000
0000
0000
0000
,
0000
0000
0000
0000
,
0000
0000
0000
0000
,
0000
0000
0000
0000
,
0000
0000
0000
0000
,
0000
0000
0000
0000
,
0000
0000
0000
0000
,
0000
0000
0000
0000
,
0000
0000
0000
0000
,
1000
0100
0010
0100
,
1000
0010
0100
0001
,
0100
0001
0100
0010
,
1000
0001
0010
0100
,
1000
0100
1000
0010
,
0100
0001
0010
0100
,
1000
0001
0010
0100
,
1000
0001
2000
3001
,
1001
0000
1000
0000
,
0010
0000
0100
0000
,
0001
0000
0010
0000
,
0100
0000
1000
0000
,
0010
0000
0100
0000
,
0001
0000
1000
0000
,
0001
0000
0010
0000
,
0100
0000
1000
0000
,
0010
0010
0100
0100
,
0001
0010
0100
1000
,
0001
0001
0100
0010
,
1000
0010
0100
0001
,
0010
0100
1000
0001
,
0010
0100
0010
0001
,
0100
0010
1000
0001
,
0100
0001
1000
0001
,
1000
0000
0010
0000
,
0100
0001
1000
0001
,
1000
0000
0010
0000
,
0100
0001
0010
0100
,
1000
0000
0010
0000
,
0100
0001
0100
0010
,
1000
0000
0001
0000
,
0010
0100
1000
0001
,
0100
0000
0010
0000
,
1000
0010
1000
0010
,
0100
0000
0001
0000
,
0010
0100
1000
0001
,
0100
0000
0010
0000
,
1000
0010
1000
0010
,
0200
0300
0020
0030
,
1000
0100
0010
0001
,
1001
1000
0010
0100
,
0001
0100
0010
1000
,
0001
0010
0100
1000
,
0010
0100
0001
0100
,
0001
0100
0010
1000
,
0001
1000
0100
0010
,
0001
0100
0010
1000
,
0010
0100
0001
1000
,
0001
0001
0100
0100
,
0010
0010
1000
1000
,
0001
0001
0010
0010
,
0100
0100
1000
1000
,
0010
0100
0010
0100
,
0001
1000
0001
1000
,
0001
0010
0100
1000
,
0002
0000
0000
1003
,
0001
0000
0100
0000
,
0010
0000
1000
0000
,
0001
0010
0100
1000
,
0010
0100
0001
0100
,
0010
0000
1000
0000
,
0010
0000
0100
0000
,
0001
0010
0100
1000
,
0100
0010
0001
0100
,
0010
0010
0010
0010
,
0100
0100
0100
0100
,
0001
0001
1000
1000
,
0001
0010
0100
1000
,
0001
0001
0001
0001
,
1000
1000
1000
1000
,
0010
0100
0001
0100
,
0010
1000
0001
1000
,
2002
0000
0000
3003
;

//---------------dance-single - ----------------
#NOTES:
     dance-single:
     :
     Beginner:
     2:
     0.150,0.273,0.027,0.000,0.000:
0000
0000
0000
0000
,
0000
0000
0000
0000
,
0000
0000
0000
0000
,
0000
0000
0000
0000
,
0000
0000
0000
0000
,
0000
0000
0000
0000
,
0000
0000
0000
0000
,
0000
0000
0000
0000
,
0000
0000
0000
0000
,
0000
0000
0000
0000
,
0000
0000
0000
0000
,
0000
0000
0000
0000
,
0000
0000
0000
0000
,
1000
0000
1000
0000
,
0001
0000
0001
0000
,
0100
0000
0100
0000
,
0010
0000
0010
0000
,
1000
0000
0001
0000
,
1000
0000
0001
0000
,
0100
0000
0010
0000
,
0100
0000
0100
0000
,
0100
0000
0000
0000
,
0000
0000
0000
0000
,
0100
0000
0000
0000
,
0000
0000
0000
0000
,
0010
0000
0000
0000
,
0000
0000
0000
0000
,
0010
0000
0000
0000
,
0000
0000
0000
0000
,
1000
0000
1000
0000
,
1000
0000
1000
0000
,
0001
0000
0001
0000
,
0001
0000
0001
0000
,
0100
0000
0100
0000
,
0100
0000
0100
0000
,
0010
0000
0010
0000
,
0010
0000
0010
0000
,
1000
0000
0000
0000
,
1000
0000
0000
0000
,
0001
0000
0000
0000
,
0001
0000
0000
0000
,
0100
0000
0000
0000
,
0100
0000
0000
0000
,
0010
0000
0000
0000
,
0010
0000
0000
0000
,
1000
0000
0000
0000
,
0100
0000
0000
0000
,
0010
0000
0000
0000
,
0001
0000
0000
0000
,
0100
0000
0000
0000
,
0010
0000
0000
0000
,
1000
0000
0000
0000
,
0001
0001
0001
0000
,
1001
0000
1000
0000
,
1000
0000
1000
0000
,
0001
0000
0001
0000
,
0001
0000
0001
0000
,
0100
0000
0100
0000
,
0100
0000
0100
0000
,
0010
0000
0010
0000
,
0010
0000
0010
0000
,
1000
0000
0100
0000
,
1000
0000
0100
0000
,
0010
0000
0001
0000
,
0010
0000
0001
0000
,
1000
0000
0010
0000
,
1000
0000
0010
0000
,
0100
0000
0001
0000
,
0100
0100
0100
0000
,
0110
0000
0000
0000
,
0010
0000
0000
0000
,
1000
0000
0000
0000
,
0001
0000
0000
0000
,
1000
0000
0000
0000
,
0001
0000
0000
0000
,
0100
0000
0000
0000
,
0010
0000
0000
0000
,
1000
0000
1000
0000
,
0001
0000
0001
0000
,
0100
0000
0100
0000
,
0010
0000
0010
0000
,
1000
0000
1000
0000
,
0001
0000
0001
0000
,
1000
0000
0100
0000
,
0010
0000
0001
0000
,
1001
0000
0000
0000
;
