#TITLE:Scarlet Goose;
#SUBTITLE:;
#ARTIST:Aran;
#TITLETRANSLIT:;
#SUBTITLETRANSLIT:;
#ARTISTTRANSLIT:;
#CREDIT:;
#BANNER:Scarlet Goose - BN.png;
#BACKGROUND:Scarlet Goose - BG.png;
#LYRICSPATH:;
#CDTITLE:cdtitlegpop.png;
#MUSIC:Scarlet Goose.ogg;
#OFFSET:-1.500;
#SAMPLESTART:55.513;
#SAMPLELENGTH:14.680;
#SELECTABLE:YES;
#BPMS:0.000=190.000;
#STOPS:167.500=0.947
,264.500=2.526
;
#BGCHANGES:;

//---------------dance-single - ----------------
#NOTES:
     dance-single:
     :
     Challenge:
     13:
     1.000,1.000,0.009,0.362,1.000: // measure 1
0000
0000
0000
0000
,  // measure 2
0000
0000
0000
0000
,  // measure 3
0000
0000
0000
0000
,  // measure 4
0000
0000
0000
0000
,  // measure 5
0000
0000
0000
0000
,  // measure 6
1000
0100
1000
0100
0010
0000
0001
0000
1000
0010
1000
0010
0100
0000
0001
0000
,  // measure 7
1000
0100
0010
0100
1000
0000
0001
0000
1000
0000
0010
0000
1000
0100
0010
0001
,  // measure 8
1000
0100
1000
0100
1000
0000
0010
0000
0100
0000
0001
0000
0010
0100
1000
0100
,  // measure 9
1000
0010
0100
0010
1000
0010
0100
0010
1000
0100
0010
0001
1000
0100
0010
0001
,  // measure 10
1000
0100
0010
0001
0010
0100
0010
0001
0010
0100
1000
0100
1000
0001
0100
0001
,  // measure 11
1000
0000
0010
0000
0100
0000
0100
0010
1000
0100
1000
0100
2000
0000
0000
0000
,  // measure 12
3001
0000
0100
0000
0010
0000
0010
0100
0001
0100
0001
0100
0002
0000
0000
0000
,  // measure 13
1003
0000
0100
0000
0010
0000
0010
0001
1000
0100
0010
0001
1000
0100
1000
0100
,  // measure 14
1000
0100
1000
0100
1000
0100
1000
0100
1000
0100
1000
0100
1000
0100
1000
0100
,  // measure 15
1000
0000
0010
0000
0100
0000
0100
0001
1000
0100
0010
0100
2000
0000
0000
0000
,  // measure 16
3001
0000
0100
0000
0010
0000
0010
1000
0001
0100
0010
0100
0002
0000
0000
0000
,  // measure 17
1003
0000
0100
0000
0010
0000
0010
0001
0100
0010
0100
0010
0200
0000
0000
0000
,  // measure 18
0301
0100
0010
0100
0001
0010
0100
0010
0001
0010
0100
1000
0010
0100
0010
1000
,  // measure 19
0002
0000
0103
0020
0000
1030
0200
0000
,  // measure 20
0320
0000
0001
0000
0100
0000
0031
0100
,  // measure 21
0020
0000
1030
0200
0000
0310
0002
0000
,  // measure 22
2003
0000
0100
0000
3001
0001
0100
0010
,  // measure 23
2000
0000
0001
0000
3001
0010
0100
1000
,  // measure 24
0020
0000
0100
0000
0130
0001
0100
0010
,  // measure 25
2000
0000
3001
0200
0000
0310
2000
0000
,  // measure 26
3002
0100
0203
0010
,  // measure 27
0310
1000
0010
0100
0001
0010
0200
0000
,  // measure 28
2300
0000
0001
0000
0100
0000
3001
0100
,  // measure 29
0001
1000
0010
1000
0100
1000
0020
0000
,  // measure 30
0230
0000
0000
0000
0000
0000
0010
0000
0000
0000
0000
0000
0001
0000
0000
0000
0000
0000
0301
1000
0001
1000
0001
1000
,  // measure 31
0002
0000
0103
0020
0000
1030
0200
0000
,  // measure 32
2300
0000
3010
0200
0000
0301
0020
0000
,  // measure 33
0031
0100
0010
0100
0001
0010
0100
1000
,  // measure 34
0001
0010
0100
1000
0001
0010
0100
1000
0010
0100
0010
1000
0100
1000
0001
0100
,  // measure 35
0001
1000
0100
1000
0001
1000
0100
1000
0001
0000
0200
0000
0000
0000
0310
0000
,  // measure 36
1000
0001
0100
0001
1000
0001
0100
0001
1000
0000
0002
0000
0000
0000
0103
0000
,  // measure 37
0010
0000
0000
1000
0000
0000
0001
0000
0010
0000
0000
0100
0000
0000
1000
0000
,  // measure 38
0001
0010
0100
1000
0100
0010
0001
0100
0010
1000
0010
0100
0001
0010
0001
0100
,  // measure 39
0001
1000
0010
1000
0001
1000
0010
1000
0001
0000
0200
0000
0000
0000
0310
0000
,  // measure 40
1000
0001
0010
0001
1000
0001
0010
0001
1000
0000
0020
0000
0000
0000
0130
0000
,  // measure 41
0001
0000
0000
0010
0000
0000
0100
0000
0010
0000
0000
0001
0000
0000
1000
0000
,  // measure 42
0001
0100
0001
0100
0001
0100
0010
1000
0010
1000
0010
1000
0001
1000
0002
0003
,  // measure 43
1000
0000
0001
0000
1000
0100
0010
0001
0100
0010
0100
0001
0010
0100
1000
0100
,  // measure 44
1000
0010
0100
0001
0010
0001
0100
0010
1000
0100
0010
0001
0010
0100
0010
0001
,  // measure 45
0100
0010
1000
0100
1000
0100
1000
0010
0100
0001
0010
0001
0010
0100
0010
0100
,  // measure 46
1000
0100
1000
0100
0010
0001
0010
0100
1000
0100
0010
0100
1000
0010
0100
0001
,  // measure 47
0100
0001
0100
0010
1000
0010
1000
0001
1000
0100
1000
0100
0010
0100
1000
0100
,  // measure 48
0010
0001
0010
0001
0010
0100
1000
0100
0010
0100
1000
0100
1000
0100
0010
0001
,  // measure 49
0010
0001
0010
0100
1000
0100
0010
0100
0010
0100
1000
0100
0010
0001
0100
0010
,  // measure 50
1000
0100
0010
0001
1000
0001
1000
0001
1000
0001
1000
0001
1000
0001
1000
0001
,  // measure 51
1000
0001
1000
0001
1000
0100
0010
0001
1000
0100
0010
0001
1000
0100
0010
0001
,  // measure 52
1000
0100
0010
0001
1000
0100
0010
0001
0010
0100
0010
0001
0100
0010
1000
0100
,  // measure 53
1000
0001
0100
0001
1000
0010
1000
0001
0010
0001
0010
0100
1000
0100
0010
0100
,  // measure 54
1000
0100
0010
0100
0010
0001
0010
0100
0010
0001
0010
0100
0010
0100
1000
0100
,  // measure 55
0010
0100
0010
0001
0010
0100
1000
0100
1000
0010
0100
0001
0010
0001
0010
0100
,  // measure 56
0010
0001
0010
0100
1000
0100
0010
0001
1000
0100
0010
0001
0100
0010
1000
0010
,  // measure 57
0100
0001
0010
0100
1000
0001
0010
0100
1000
0001
0100
0010
0100
0010
0100
0001
,  // measure 58
1000
0001
0010
0100
1000
0100
0010
0001
1000
0100
0010
0100
1000
0100
0010
0001
,  // measure 59
0100
0010
1000
0001
1000
0100
0010
0100
1000
0100
0010
0100
1000
0000
0020
0000
,  // measure 60
0000
0000
0130
0000
0001
0100
0010
0100
0001
0100
0010
0100
0001
0000
2000
0000
,  // measure 61
0000
0000
3100
0000
0010
0000
0000
0001
0000
0000
0010
0000
0100
0000
0000
1000
,  // measure 62
0000
0000
0010
0000
0100
0001
0100
0010
0100
0010
1000
0001
1000
0000
0000
0000
,  // measure 63
0001
0000
0100
0000
0001
0010
0100
0010
0001
0010
0100
0010
0001
0000
0200
0000
,  // measure 64
0000
0000
0310
0000
1000
0010
0100
0010
1000
0010
0100
0010
1000
0000
0002
0000
,  // measure 65
0000
0000
0013
0000
0100
0000
0000
1000
0000
0000
0010
0000
0100
0000
0000
0001
,  // measure 66
0000
0000
0100
0000
0001
0100
0001
0100
0001
0100
0010
0100
0010
0100
0010
0100
,  // measure 67
0010
1000
0001
0000
0001
0100
0001
0100
0010
0000
0010
0000
1000
0100
1000
0100
,  // measure 68
1000
0000
1000
0000
0010
0100
0010
0100
0001
0000
0001
0000
1000
0100
0010
0001
,  // measure 69
1000
0100
0010
0001
1000
0100
1000
0010
0100
0000
0100
0000
0001
0000
1000
0000
,  // measure 70
0001
0010
0100
1000
0100
0010
0001
0010
0100
1000
0100
0010
0100
1000
0100
0010
,  // measure 71
0001
0010
0001
0010
0100
1000
0001
0010
0100
1000
0001
0010
0100
1000
0100
0010
,  // measure 72
0001
1000
0100
0010
0001
0010
0100
1000
0001
0010
0100
1000
0001
0100
0010
1000
,  // measure 73
0001
0100
0010
1000
0001
0010
0100
0010
0001
0010
0100
0010
0100
1000
0010
0100
,  // measure 74
0010
1000
0010
0100
0010
0100
0001
0010
0100
1000
0001
0010
0001
0100
0010
1000
,  // measure 75
0001
0100
0010
0100
0001
0010
0001
1000
0100
1000
0010
0100
0010
1000
0001
1000
,  // measure 76
0001
0010
0100
1000
0100
0010
0001
1000
0100
0010
0001
0010
0100
1000
0100
0010
,  // measure 77
0100
1000
0001
0000
0000
0000
0000
0000
0000
0000
0000
0000
10M0
0001
1M00
0001
,  // measure 78
10M0
0000
0M01
1000
00M0
0000
0000
0000
1MM1
0000
0000
0000
0000
0000
0000
0000
;

//---------------dance-single - ----------------
#NOTES:
     dance-single:
     :
     Hard:
     9:
     0.720,0.683,0.167,0.130,0.116:
0000
0000
0000
0000
,
0000
0000
0000
0000
,
0000
0000
0000
0000
,
0000
0000
0000
0000
,
0000
0000
0000
0000
,
1000
0100
1000
0000
0010
0000
0100
0000
0001
0010
0001
0000
0010
0000
0100
0000
,
1000
0001
1000
0000
0010
0000
0100
0000
0001
0000
0010
0000
0001
0000
0010
0000
,
0100
1000
0100
0000
0010
0000
0001
0000
1000
0000
0010
0000
0100
0000
0001
0000
,
0100
0010
1000
0001
0010
0100
1000
0100
,
1000
0100
0010
0001
0100
1000
0100
0001
,
1000
0000
0100
0000
0010
0000
0001
0000
1000
0000
0001
0100
0001
0000
0000
0000
,
1000
0000
0100
0000
0010
0000
0100
0000
1000
0000
0010
0100
0010
0000
0000
0000
,
0100
0000
0001
0000
0010
0000
0100
0000
1000
0000
0001
0100
0001
0000
0000
0000
,
1000
0100
0010
0001
0100
0010
1000
0010
,
1000
0000
0000
0000
0001
0000
0100
0000
0010
0000
1000
0100
1000
0000
0000
0000
,
0010
0000
0100
0000
0001
0000
0100
0000
0001
0000
0010
0100
0010
0000
0000
0000
,
0100
0000
1000
0000
0100
0000
0010
0000
0001
0000
1000
0100
1000
0000
0000
0000
,
0101
0000
1001
0000
1100
0000
0110
0010
,
0001
0000
0100
0010
0000
1000
0010
0000
,
0200
0000
0010
0000
0301
0000
0010
0100
,
1000
0000
0100
0010
0000
0001
0100
0000
,
0020
0000
1000
0000
0130
0100
0001
0100
,
0002
0000
1000
0000
1003
1000
0100
0010
,
0200
0000
1000
0000
1300
1000
0010
0100
,
0002
0000
1000
2003
0000
0100
3100
0000
,
0020
0100
0032
0103
,
1001
0000
1000
0100
0000
0100
0010
0000
,
0002
0000
0100
0000
0010
0000
1003
0100
,
1000
0000
0010
0100
0000
0010
1000
0000
,
0002
0000
0010
0000
0100
0000
1003
0100
,
1000
0000
0010
0200
0000
0001
0301
0000
,
0010
0000
0100
2000
0000
0010
3010
0000
,
0200
0010
1000
0301
,
1100
0000
0110
0000
0011
0000
1001
0001
,
0100
0010
0100
0010
1000
0001
0000
1000
,
0100
0010
0100
0010
0001
1000
0000
0010
,
0100
0000
0000
0001
0000
0000
0010
0000
0100
0000
0000
0010
0000
0000
0001
0000
,
2000
0000
0001
0000
3001
0000
1000
0100
,
1000
0001
1000
0001
0100
0010
0000
1000
,
0001
0100
0001
0100
0010
1000
0000
0001
,
0010
0000
0000
0100
0000
0000
1000
0000
0100
0000
0000
0010
0000
0000
0001
0000
,
0101
0000
0010
0110
0000
0010
1010
1010
,
1000
0001
0100
0010
0100
0010
1000
0100
,
1000
0100
0010
0001
0100
1000
0100
0001
,
0010
1000
0010
1000
0010
0001
0100
0010
,
1000
0100
1000
0010
0001
0010
0100
0001
,
0010
0100
1000
0100
1000
0010
0100
0001
,
0010
0100
1000
0010
0100
0010
1000
0100
,
0001
0100
1000
0010
0001
0010
0100
0001
,
0010
0001
0010
0100
1000
0100
0010
0100
,
1000
0010
0100
0001
0100
0010
1000
0001
,
0010
0100
1000
0010
0100
0010
1000
0100
,
0010
0001
0010
0100
0010
0001
0010
0100
,
1000
0100
0010
0001
0010
0100
0010
0100
,
1000
0100
0010
0100
1000
0010
0100
0001
,
0010
0100
1000
0001
0010
0100
1000
0100
,
0010
0001
0010
0100
1000
0100
0001
0100
,
1000
0010
0100
0001
0010
0100
1000
0001
,
0100
0010
1000
0100
1000
0100
0010
0001
,
0000
0100
0010
1000
0010
1000
0001
0010
,
0000
0000
0100
0000
1000
0000
0000
0100
0000
0000
0010
0000
0001
0000
0000
0100
,
0000
0010
1000
0100
0010
0001
1000
0000
,
0001
0100
0010
1000
0010
1000
0001
0010
,
0000
0100
1000
0001
1000
0001
0100
0010
,
0000
0000
1000
0000
0010
0000
0000
0100
0000
0000
0001
0000
0010
0000
0000
0001
,
0000
0010
0110
0000
0100
1100
0000
1000
,
1001
1001
0001
1000
0010
0100
0010
1000
,
0100
0010
0001
0010
0100
1000
0010
0100
,
0001
0010
0100
1000
0001
0010
0100
1000
,
0100
0010
0001
0100
0010
1000
0010
1000
,
0010
0100
0001
0010
0100
1000
0001
0100
,
0010
0000
1000
0000
0001
0100
0001
0000
0100
0000
0010
0000
1000
0100
1000
0000
,
0010
0000
0100
0000
0001
0010
0001
0000
0010
0000
0100
0000
1000
0000
0010
0000
,
0100
0000
0001
0000
1000
0100
1000
0000
0010
0000
0100
0000
0001
0000
0100
0000
,
0010
1000
0001
0010
0100
1000
0001
0010
,
0100
1000
0100
0010
0100
1000
0001
0100
,
0010
0000
1000
0000
0000
0000
0000
0000
0000
0000
0000
0000
0001
1000
0001
1000
,
0001
0000
1000
0001
0000
0000
0000
0000
1001
0000
0000
0000
0000
0000
0000
0000
;

//---------------dance-single - ----------------
#NOTES:
     dance-single:
     :
     Medium:
     7:
     0.510,0.575,0.083,0.102,0.000:
0000
0000
0000
0000
,
0000
0000
0000
0000
,
0000
0000
0000
0000
,
0000
0000
0000
0000
,
0000
0000
0000
0000
,
1000
0000
0100
0010
0001
0000
0010
0100
,
0001
0000
1000
0100
1000
0000
0010
0100
,
0001
0000
0010
0100
1000
0100
0010
0000
,
0001
0100
0010
1000
0010
0100
0001
0000
,
1000
0100
0010
0001
0100
0010
1000
0001
,
1000
0000
0001
0000
0100
0010
1000
0000
,
0001
0000
0010
0000
0100
1000
0100
0000
,
0010
0000
0001
0000
0100
0010
1000
0000
,
0001
0100
0010
1000
,
1001
0000
0001
0000
0010
0100
1000
0000
,
0100
0000
0010
0000
0001
0100
0010
0000
,
1000
0000
0010
0000
0100
0010
0100
0000
,
0001
0010
0100
1000
0001
0010
0100
1000
,
0001
0000
0000
1000
0000
0000
0010
0000
,
0200
0000
0001
0000
0301
0000
0100
0010
,
0100
0000
0000
0001
0000
0000
0010
0000
,
0200
0000
1000
0000
1300
0000
0010
0100
,
0002
0000
1000
0000
1003
0000
0100
0010
,
0200
0000
0010
0000
0310
0000
1000
0100
,
1000
0000
0000
0010
0000
0000
0100
0000
,
0002
0000
2003
0000
,
3001
0000
0000
0010
0000
0000
0100
0000
,
2000
0001
3001
0100
,
0010
0000
0000
1000
0000
0000
0010
0000
,
0200
0001
0301
1000
,
0001
0000
0000
0010
0000
0000
0100
0000
,
1000
0000
0000
0010
0000
0000
0100
0000
,
0001
0010
0100
1000
,
0002
0000
1000
0000
1003
0000
0001
1000
,
0001
0100
0001
0100
0001
0100
0000
0000
,
0010
1000
0010
1000
0010
1000
0000
0000
,
0001
0100
0010
1000
,
0002
1000
1003
0010
,
0100
0001
0100
0001
0100
0001
0000
0000
,
1000
0100
1000
0100
1000
0100
0000
0000
,
0010
0001
0100
0010
,
1000
0000
0000
0001
0000
0000
1001
1001
,
0000
0000
1001
0000
0001
0000
0100
0010
,
1000
0000
0001
0000
0010
0000
0100
1000
,
0100
0000
0010
0000
0001
0000
0100
0010
,
1000
0000
0001
0000
0100
0000
0001
0100
,
0010
0000
1000
0000
0100
0000
0010
0001
,
1000
0000
0010
0000
0100
0000
0001
1000
,
0100
0000
0010
0001
0010
0000
0100
1000
,
0100
0000
0001
0100
0010
1000
0001
1000
,
0001
0000
1000
0100
0010
0000
0001
0000
,
0100
0000
0010
1000
0001
0000
0100
0000
,
0010
0000
0100
0010
1000
0000
0001
0000
,
0010
0000
0100
1000
0010
0000
0100
0000
,
0001
0000
1000
0100
1000
0000
0010
0000
,
0100
0000
0001
0010
0100
0000
1000
0000
,
0100
0000
1000
0010
0100
0001
1000
0000
,
0001
0000
1000
0100
0010
0001
1000
0100
,
0010
0001
1000
0100
1000
0100
1000
0100
,
0000
0000
0001
0100
0001
0100
0001
0100
,
0000
0010
1000
0001
,
0010
0200
1000
1300
,
0010
0000
1000
0001
1000
0001
1000
0001
,
0000
0000
0100
0010
0100
0010
0100
0010
,
0000
1000
0100
0010
,
0001
0000
1100
0000
0000
1001
0000
0000
,
0101
0101
0100
0000
0010
0000
1000
0000
,
0010
0100
0001
0010
,
0100
1000
0100
1000
,
0100
0000
0010
0001
0010
0100
1000
0001
,
0100
0000
0010
1000
0010
0100
0001
1000
,
0001
0000
1000
0000
0010
0100
0001
0000
,
0010
0100
1000
0000
0100
0010
0001
0000
,
1000
0100
0010
0000
0001
0100
0001
0000
,
0100
0000
0010
1000
0010
0100
0001
0010
,
0100
0000
1000
0100
0010
0001
0010
0100
,
1000
0001
0000
0000
0000
0000
1000
0001
,
1000
0001
0000
0000
1001
0000
0000
0000
;

//---------------dance-single - ----------------
#NOTES:
     dance-single:
     :
     Easy:
     4:
     0.314,0.323,0.093,0.093,0.000:
0000
0000
0000
0000
,
0000
0000
0000
0000
,
0000
0000
0000
0000
,
0000
0000
0000
0000
,
0000
0000
0000
0000
,
1000
0100
0010
0001
,
0100
0010
1000
0010
,
0100
0001
0010
0100
,
1000
0100
1000
0100
,
0010
0001
0100
0010
,
1000
0000
0001
0100
,
0001
0000
0010
0100
,
1000
0000
0100
0010
,
0001
0000
1000
0000
,
1001
0000
0001
0100
,
0010
0000
1000
0010
,
0100
0000
0001
0010
,
0001
0001
1000
1000
,
0001
0000
0100
0000
,
0020
0000
0030
1000
,
1000
0000
0100
0000
,
0020
0000
0030
0001
,
0002
0000
0003
0100
,
0200
0000
0300
0010
,
0010
0000
1000
0000
,
0001
0000
1000
0000
,
1001
0000
0001
0000
,
0200
0000
0300
0010
,
0010
0000
0100
0000
,
0002
0000
0003
1000
,
0100
0000
0010
0000
,
0001
0000
0100
0000
,
0020
0000
1030
0000
,
0002
0000
1000
0000
,
1003
0100
1000
0000
,
0001
0100
0001
0000
,
0100
0000
0010
0000
,
2000
0000
3000
0001
,
0100
0100
0010
0000
,
1000
1000
0100
0000
,
0010
0000
0001
0000
,
1001
0000
0000
1001
0000
0000
1001
0000
,
0000
1001
0001
0100
,
0010
1000
0010
0100
,
0001
0010
0100
1000
,
0001
0010
0100
1000
,
0100
1000
0010
0100
,
0001
0100
0010
1000
,
0010
0100
0001
0010
,
0100
1000
1000
0001
,
0001
0100
0010
1000
,
0010
0100
0001
0100
,
0001
0100
0010
1000
,
0100
0010
0001
0010
,
0100
1000
0100
1000
,
0010
0100
0001
1000
,
0100
0001
0010
1000
,
0001
0100
0100
0100
,
0100
0001
0100
0001
,
0000
1000
0100
1000
,
0000
0010
0000
0100
,
0000
0002
0000
0003
,
1000
0010
0010
0100
,
0000
0001
0001
1000
,
0000
0001
0000
0010
,
0000
0000
0110
0000
0000
0110
0000
0000
,
1001
1000
0000
0001
,
0000
0100
0000
0010
,
0000
1000
0000
0010
,
0000
0100
0001
0100
,
0000
0001
1000
0001
,
0000
1000
0100
1000
,
0100
0010
0001
0010
,
0001
1000
0010
1000
,
0010
0100
0001
0100
,
0010
1000
0100
0010
,
0001
0000
0000
1000
,
0000
0001
0000
0000
1001
0000
0000
0000
;

//---------------dance-single - ----------------
#NOTES:
     dance-single:
     :
     Beginner:
     2:
     0.182,0.252,0.046,0.000,0.000:
0000
0000
0000
0000
,
0000
0000
0000
0000
,
0000
0000
0000
0000
,
0000
0000
0000
0000
,
0000
0000
0000
0000
,
1000
0000
1000
0000
,
0001
0000
0001
0000
,
0100
0000
0100
0000
,
0010
0000
0010
0000
,
1000
0000
1000
0000
,
0001
0000
0000
0000
,
0010
0000
0000
0000
,
0100
0000
0000
0000
,
1000
1000
1000
1000
,
1000
0000
0000
0000
,
0010
0000
0000
0000
,
0100
0000
0000
0000
,
0001
0001
0001
0000
,
1001
0000
1000
0000
,
1000
0000
0000
0000
,
0001
0000
0001
0000
,
0001
0000
0000
0000
,
0100
0000
0000
0000
,
0010
0000
0000
0000
,
1000
0000
1000
0000
,
0001
0000
0001
0000
,
0100
0000
0100
0000
,
0010
0000
0000
0000
,
1000
0000
1000
0000
,
0100
0000
0000
0000
,
0010
0000
0000
0000
,
0001
0000
0000
0000
,
1000
0000
0000
0000
,
0001
0000
0001
0000
,
1000
1000
1000
0000
,
0001
0001
0001
0000
,
0100
0000
0100
0000
,
0010
0000
0000
0000
,
0100
0100
0100
0000
,
0010
0010
0010
0000
,
0100
0000
0001
0000
,
1000
0000
0000
1001
,
0000
1000
0000
1000
,
0000
0100
0000
0100
,
0000
0010
0000
0010
,
0000
0001
0000
0001
,
0000
0100
0000
0100
,
0000
0010
0000
0010
,
0000
1000
0000
1000
,
0000
0001
0000
0000
,
1000
1000
0000
0010
,
0000
0100
0000
0001
,
0000
0100
0000
0010
,
0000
1000
0000
0100
,
0000
0010
0000
0001
,
0000
0010
0000
0100
,
0000
1000
0000
0001
,
0000
1000
0000
0000
,
0000
0001
0001
0001
,
0000
0100
0100
0100
,
0000
0010
0000
1000
,
0000
0001
0000
0000
,
0000
1000
1000
1000
,
0000
0010
0010
0010
,
0000
0100
0000
0001
,
0000
1000
0000
0000
,
1001
1001
0000
0000
,
0000
0001
0000
0000
,
0000
0100
0000
0000
,
0000
0010
0000
0000
,
0000
1000
0000
0000
,
0000
0001
0000
0001
,
0000
0100
0000
0100
,
0000
0010
0000
0010
,
0000
1000
0000
1000
,
0000
0001
0000
0001
,
0000
0000
0000
1000
,
0000
0000
1001
0000
;
