#TITLE:Ruins Super Express;
#SUBTITLE:;
#ARTIST:Riverside;
#TITLETRANSLIT:;
#SUBTITLETRANSLIT:;
#ARTISTTRANSLIT:;
#CREDIT:;
#BANNER:Super Ruins Express - BN.png;
#BACKGROUND:Super Ruins Express - BG.png;
#LYRICSPATH:;
#CDTITLE:cdtitlegpop.png;
#MUSIC:Ruins Super Express.ogg;
#OFFSET:-0.190;
#SAMPLESTART:50.453;
#SAMPLELENGTH:12.000;
#SELECTABLE:YES;
#BPMS:0.000=191.000,96.000=95.500,128.000=191.000,192.000=95.500,224.000=191.000;
#STOPS:;
#BGCHANGES:;

//---------------dance-single - ----------------
#NOTES:
     dance-single:
     :
     Challenge:
     10:
     0.711,0.951,0.073,0.102,0.474: // measure 1
0000
0000
0000
0000
,  // measure 2
0000
0000
0000
0000
,  // measure 3
0000
0000
0000
0000
,  // measure 4
0000
0000
0000
0000
,  // measure 5
0000
0000
0000
0000
,  // measure 6
0000
0000
0000
0000
,  // measure 7
0000
0000
0000
0000
,  // measure 8
0000
0000
0000
0000
,  // measure 9
1000
0100
0010
0001
1000
0000
0001
0100
,  // measure 10
0001
0010
0100
0000
1000
0000
0001
0100
,  // measure 11
0010
1000
0010
0100
0001
0010
0100
0100
,  // measure 12
1000
0001
0010
0001
0100
0001
1000
1000
,  // measure 13
0001
0100
0010
1000
0001
0000
0100
0010
,  // measure 14
0100
0001
0010
0000
0100
0000
1000
0100
,  // measure 15
1000
0010
0100
0001
0010
0000
0100
1000
,  // measure 16
0100
0100
0010
0010
0001
0001
2000
0000
,  // measure 17
3001
0100
0010
1000
0010
0000
0100
0001
,  // measure 18
0100
0010
1000
0000
0001
0000
0010
0100
,  // measure 19
1000
0100
1000
0010
0100
0100
0001
0100
,  // measure 20
0001
1000
0100
1000
0010
1000
0001
0001
,  // measure 21
1000
0100
0010
0001
1000
0000
0001
0100
,  // measure 22
1000
0100
0001
0000
0010
0000
0100
1000
,  // measure 23
0100
0010
0001
0010
1000
0000
0010
0001
,  // measure 24
0100
0010
0000
1000
0001
0000
0010
0000
0100
0000
0100
1000
0100
0010
0001
1000
,  // measure 25
0001
0000
0100
0010
0000
1000
0010
0100
0001
1000
0001
0000
0010
0000
0100
0000
,  // measure 26
1000
0100
0010
0001
0000
1000
0010
0001
0010
1000
0001
0000
1000
0000
0100
0000
,  // measure 27
0010
0000
0001
0010
0000
0100
1000
0100
1000
0100
0010
0000
0001
0000
0100
0000
,  // measure 28
0010
1000
0010
0100
0000
0001
0010
0100
1000
0001
0100
0000
0010
1000
0010
0000
,  // measure 29
2010
0000
0000
3002
0000
0000
0203
0000
0020
0000
0000
0000
0030
0300
0010
1000
,  // measure 30
0002
0000
0000
0000
0003
1000
0100
1000
0000
0001
0100
0001
0100
0010
1000
0001
,  // measure 31
2000
0000
0000
3200
0000
0000
0302
0000
0020
0000
0000
0000
0003
0030
1000
0100
,  // measure 32
2000
0000
0000
0000
0000
0000
0000
0000
3000
0000
0001
0000
0100
0000
0010
0000
1000
0000
0001
0000
1000
0100
0000
1000
0100
0000
0100
0000
0100
0010
0100
0010
,  // measure 33
0100
1000
0100
0010
0001
0100
0010
1000
,  // measure 34
0000
0001
0100
0010
1000
0010
0100
0000
,  // measure 35
1001
1000
0001
0010
0100
1000
0100
1000
,  // measure 36
0000
1000
0000
1000
0100
0010
0001
0000
,  // measure 37
1010
1000
0010
0100
0010
0100
0001
0010
,  // measure 38
0000
0000
0100
0000
1000
0000
0100
0000
0010
0001
0010
0100
1000
0100
1000
0100
,  // measure 39
1000
1000
0010
0100
0001
0001
0010
0100
,  // measure 40
0000
1000
0100
0000
0010
0000
0001
0100
,  // measure 41
0110
0010
1000
0010
0100
0001
0010
0100
,  // measure 42
0000
1000
0100
0010
0001
0100
0010
0000
,  // measure 43
1001
1000
0010
0100
0001
0100
0010
0100
,  // measure 44
0000
0100
0000
0100
0001
0010
0100
0000
,  // measure 45
1100
1000
0100
0010
0001
0100
0010
1000
,  // measure 46
0000
0001
0100
0010
0100
0000
0001
0010
,  // measure 47
0000
0100
1000
0000
0010
0100
0000
0001
,  // measure 48
1000
0100
1000
0000
0001
0100
0010
1000
0010
0100
0001
0000
1000
0000
0001
0000
,  // measure 49
1001
0000
0001
0100
0000
0010
1000
0010
0000
0100
0001
0010
0100
1000
0001
0000
,  // measure 50
1000
0000
0001
0100
0000
0010
1000
0010
0000
0010
0000
0010
0100
0001
1000
0000
,  // measure 51
1001
0000
0000
0000
1000
0000
0100
0000
0000
0000
0010
0000
0001
0000
0010
0000
0000
0000
0100
0000
1000
0000
0001
0000
1000
0100
1000
0100
0010
0001
0010
0000
,  // measure 52
0001
0000
1000
0010
0000
0100
0001
0100
0000
0010
1000
0000
0001
0000
1000
0010
,  // measure 53
0100
0000
0001
0100
0000
0010
1000
0010
0000
0100
0001
0010
0100
1000
0001
0000
,  // measure 54
1000
0000
0010
0100
0000
0010
0100
0001
0000
0001
0000
0001
0100
0001
1000
0000
,  // measure 55
0010
0000
0100
0001
0000
0100
0010
1000
0000
0001
0100
0010
1000
0000
0100
0010
,  // measure 56
0000
0000
0010
0000
0001
0000
0000
0000
0001
0000
1000
0000
0000
0000
1000
0000
0010
0100
0010
0000
0100
0001
0100
0010
1000
0001
1000
0000
0001
0000
0000
0000
,  // measure 57
1M00
010M
M010
0M01
10M0
0M00
M001
01M0
,  // measure 58
0010
1M00
001M
M000
010M
00M1
M100
0000
,  // measure 59
001M
1M00
00M1
M010
010M
00M0
100M
010M
,  // measure 60
1000
001M
0100
000M
M001
01M0
M001
0000
,  // measure 61
M100
001M
1M00
00M1
1M00
00M0
M001
0M10
,  // measure 62
0100
0000
M010
0000
0M01
0000
00M0
0000
010M
M000
001M
M000
010M
M000
000M
M000
,  // measure 63
0M01
0M10
010M
10M0
0M01
M000
010M
M010
,  // measure 64
1000
001M
M100
0000
00M1
0100
M001
0M00
,  // measure 65
10M0
10M0
010M
M100
001M
0M00
00M1
M001
,  // measure 66
0010
M010
010M
00M0
1M00
10M0
100M
0000
,  // measure 67
M001
M001
01M0
M100
001M
0M00
100M
100M
,  // measure 68
0010
001M
0100
000M
00M1
0M01
M001
0000
,  // measure 69
100M
01M0
100M
01M0
001M
M001
0M10
M001
,  // measure 70
10M0
0M10
100M
0M10
010M
0001
M100
00M1
,  // measure 71
1000
0100
0010
0001
0100
0010
1000
0010
0100
0001
0010
0100
1000
0001
0100
0001
,  // measure 72
2000
0000
0001
0000
0000
0000
0001
0000
3001
0100
0010
1000
0010
0100
0001
1000
,  // measure 73
0001
0010
0100
1000
0100
1000
0010
0100
,  // measure 74
0000
0001
0100
0010
1000
0001
0100
0000
,  // measure 75
0001
0001
0010
0100
1000
0100
1000
0010
,  // measure 76
0000
0010
0000
0010
0100
0001
1000
0000
,  // measure 77
0100
0100
0010
0001
0010
0100
1000
0001
,  // measure 78
0000
0000
1000
0000
0010
0000
0100
0000
0001
0100
0010
1000
0010
0100
0001
1000
,  // measure 79
0001
0001
0010
0100
0010
0001
0100
0010
,  // measure 80
0000
1000
0010
0000
0100
0000
0001
0100
,  // measure 81
0110
0010
1000
0010
0100
0001
0010
0100
,  // measure 82
0000
1000
0100
1000
0010
0100
0001
0000
,  // measure 83
0100
0100
0010
1000
0010
0100
0001
1000
,  // measure 84
0000
1000
0000
1000
0100
0010
0001
0000
,  // measure 85
1000
1000
0010
0100
0001
0100
0010
1000
,  // measure 86
0000
0001
0010
0100
1000
0000
1000
0010
,  // measure 87
0000
0010
0100
0000
0100
0001
0000
0001
,  // measure 88
1000
0100
1000
0000
0001
0100
0010
1000
0001
0100
0001
0000
1000
0000
0001
0000
,  // measure 89
2002
0000
0000
0000
,  // measure 90
0000
0000
0000
0000
,  // measure 91
3003
0000
0000
0000
;

//---------------dance-single - ----------------
#NOTES:
     dance-single:
     :
     Hard:
     8:
     0.569,0.787,0.029,0.066,0.146:
0000
0000
0000
0000
,
0000
0000
0000
0000
,
0000
0000
0000
0000
,
0000
0000
0000
0000
,
0000
0000
0000
0000
,
0000
0000
0000
0000
,
0000
0000
0000
0000
,
0000
0000
0000
0000
,
1000
0100
1000
0100
0010
0000
0001
0100
,
0010
1000
0010
0000
0100
0000
0001
0010
,
0001
0100
0010
1000
0001
0001
0010
0100
,
1000
0000
0100
0000
0010
0000
0001
0100
,
0010
0010
1000
0010
0100
0000
0001
0010
,
0001
0100
0010
0000
1000
0000
0010
0100
,
0001
0100
0010
1000
0001
0000
0010
0100
,
1000
1000
0100
0100
0010
0001
1000
0000
,
0001
0100
0001
0100
0010
0000
1000
0010
,
0100
0001
1000
0000
0001
0000
0010
0100
,
1000
0100
1000
0010
0100
0010
1000
1000
,
0001
0000
0010
0000
0100
0000
1000
0100
,
1000
0010
0100
0001
1000
0000
0001
0100
,
0010
0100
0001
0000
1000
0000
0001
0010
,
0001
0100
0010
1000
0001
0000
0100
0010
,
1000
0010
0100
0001
0010
0010
0100
0000
,
1000
0000
0001
0100
0000
0010
0100
0010
0100
0001
1000
0000
0001
0000
0001
0000
,
1000
0100
1000
0100
0000
0010
0001
0010
0001
0010
0001
0000
1000
0000
0001
0000
,
1000
0000
0001
0100
0000
0001
0100
0001
0100
0010
0100
0000
0001
0000
1000
0000
,
0001
0100
0001
0100
0000
0010
1000
0010
1000
0010
1000
0000
0001
0000
0001
0000
,
1000
0000
0000
0100
0000
0000
0010
0000
0002
0000
0000
0000
0003
0000
1000
0000
,
0200
0000
0300
0010
0000
0001
0100
0010
,
1000
0000
0000
0001
0000
0000
0100
0000
0020
0000
0000
0000
0030
0000
1000
0000
,
0002
0000
0000
0000
0003
0000
0010
0000
0100
0000
1000
0000
0010
0000
1000
0001
,
1000
0000
0001
0100
0010
0100
0001
1000
,
0000
0001
0100
0001
0100
0010
1000
0000
,
0001
0000
1000
0100
0010
0001
0100
0010
,
0000
0010
0000
0010
1000
0010
0100
0000
,
0001
0000
0010
0100
1000
0100
1000
0010
,
0000
0100
0001
0100
0020
0000
0000
0000
,
1030
0000
0001
0010
0100
0010
0001
0100
,
0000
0010
0010
0000
1000
0000
0001
0010
,
0011
0000
1000
0100
0010
0100
1000
0010
,
0000
0100
0001
0100
0010
1000
0001
0000
,
1000
0000
0001
0100
0010
0100
0001
1000
,
0000
1000
0000
1000
0100
0010
0001
0000
,
0010
0000
0100
1000
0010
0100
0001
0100
,
0000
0010
1000
0010
0100
0000
0001
0001
,
0000
0100
0100
0000
0010
0010
0000
1000
,
0000
0001
0000
0100
0010
0000
0110
0000
,
1001
0000
1000
0000
0001
0100
0010
1000
,
0001
0000
0000
0000
0100
0000
0010
1000
0000
1000
0000
1000
0001
0000
0010
0000
,
0001
0000
0100
0000
0010
1000
0010
0100
,
0001
0000
1000
0000
0100
1000
0100
0010
,
0001
0000
0100
0000
0010
1000
0010
1000
,
0001
0000
0000
0000
0010
0000
0100
1000
0000
1000
0000
1000
0010
0000
0100
0000
,
0001
0000
0000
0000
0010
0000
0000
0000
0100
0000
1000
0000
0010
0000
0000
0010
,
0000
0000
0100
0000
0000
1000
0000
0001
0000
0001
0000
0001
0100
0000
0010
0000
,
1000
0100
0010
0001
1000
0000
0001
0100
,
0010
1000
0010
0000
0100
0001
0100
0000
,
0010
1000
0010
0100
0001
0000
0010
0100
,
1000
0100
1000
0000
0001
0100
0001
0000
,
1000
0100
0001
0100
1000
0000
0001
0010
,
1000
0010
0001
0000
0100
0010
0100
0000
,
0010
1000
0010
0001
0010
0000
1000
0010
,
0100
0001
0010
0000
0100
1000
0100
0000
,
0010
0001
0010
1000
0010
0000
0001
0100
,
0010
1000
0100
0000
0010
0001
0010
0000
,
0001
0100
1000
0100
0001
0000
0100
0010
,
1000
0001
0100
0000
0010
1000
0010
0000
,
0100
0001
0100
0010
1000
0010
0100
0001
,
0010
0100
1000
0100
0010
0001
0100
0010
,
1000
0001
1000
0001
1000
0001
1000
0001
1000
0001
1000
0001
1000
0001
1000
0001
,
2000
0000
0000
0000
3001
0100
0010
1000
,
0001
0000
0100
0010
1000
0010
0100
0001
,
0000
0010
0100
1000
0100
1000
0010
0000
,
0100
0000
0001
0100
0010
1000
0010
0100
,
0000
0100
0000
0100
0001
0100
0010
0000
,
1000
0000
0100
0010
0100
0010
0001
0100
,
0000
0010
1000
0010
0200
0000
0000
0000
,
0301
0000
0010
0001
0100
0010
1000
0001
,
0000
0100
0100
0000
0001
0000
0010
0100
,
1000
0000
0001
0100
0010
1000
0100
1000
,
0000
0010
0100
0001
0100
0010
1000
0000
,
0001
0000
0010
0100
1000
0100
1000
0010
,
0000
0010
0000
0010
0100
0001
0100
0000
,
0010
0000
1000
0010
0100
0001
0010
0100
,
0000
1000
0100
0010
0001
0000
0100
0100
,
0000
0010
0010
0000
1000
1000
0000
0001
,
0000
0100
0000
0010
1000
0010
0100
0000
,
2002
0000
0000
0000
,
0000
0000
0000
0000
,
3003
0000
0000
0000
;

//---------------dance-single - ----------------
#NOTES:
     dance-single:
     :
     Medium:
     6:
     0.450,0.558,0.029,0.058,0.000:
0000
0000
0000
0000
,
0000
0000
0000
0000
,
0000
0000
0000
0000
,
0000
0000
0000
0000
,
0000
0000
0000
0000
,
0000
0000
0000
0000
,
0000
0000
0000
0000
,
0000
0000
0000
0000
,
1000
0100
0010
0000
0001
0000
0100
0010
,
1000
0000
0001
0000
0010
0000
0100
1000
,
0100
0000
0010
0000
0001
0000
0100
0010
,
1000
0000
0001
0000
0100
0000
0010
1000
,
0010
0000
0100
0001
0100
0000
0010
1000
,
0001
0000
0010
0000
0100
0000
1000
0001
,
0100
0000
0010
1000
0010
0000
0100
0001
,
0100
0010
0100
0000
0001
1000
0001
0000
,
1000
0100
0010
0000
0001
0000
0100
0010
,
1000
0000
0010
0000
0100
0000
0001
0010
,
0100
0000
1000
0100
1000
0000
0001
0100
,
0001
0000
0100
0000
0010
0000
1000
0010
,
0100
0000
0001
0010
0100
0000
1000
0100
,
1000
0000
0010
0000
0100
0000
0001
0010
,
0001
0000
0100
0000
0010
0000
1000
0010
,
0100
0001
0100
0000
0010
0000
1000
0000
,
0001
0000
1000
0000
0010
0100
0001
0000
,
0100
0000
0010
0000
1000
0100
1000
0000
,
0010
0000
0100
0000
0001
0010
0001
0000
,
1000
0000
0100
0000
0001
0100
1000
0000
,
0001
0000
0100
0000
0020
0000
0000
1030
,
2000
0000
0000
3001
0000
0100
0010
0000
,
1000
0000
0010
0000
0200
0000
0000
0301
,
0002
0000
0000
1003
1000
0100
0010
0001
,
1000
0000
0010
0100
0001
0000
0010
0100
,
0000
1000
0100
1000
0010
0000
0100
0000
,
0001
0000
0010
0100
1000
0000
0010
0100
,
0000
0100
0000
0100
0100
0000
0010
0000
,
1000
0000
0001
0100
0010
0000
1000
0010
,
0000
0100
0001
1000
0002
0000
0000
0000
,
1003
0000
0100
0010
0001
0000
0100
0010
,
0000
0010
0010
0000
1000
0000
0001
0100
,
0001
0000
0010
0100
1000
0000
0010
0100
,
0000
0000
0001
0000
0100
0010
1000
0000
,
0001
0000
0010
0100
1000
0000
0010
0100
,
0000
0100
0000
0100
0100
0000
0001
0000
,
0010
0000
0100
1000
0100
0000
0010
0001
,
0000
0100
0100
0000
0010
0000
0000
1000
,
0000
0000
0001
0000
0000
0100
0000
0010
,
0000
1000
0000
0001
0001
0000
0100
0000
,
1001
0001
0100
0010
,
1000
0000
0010
0000
0100
0001
1000
0000
,
0001
0000
0010
0000
0100
0000
1000
0100
,
1000
0010
0100
0001
,
1000
0100
1000
0010
,
0100
0000
0001
0000
0010
0100
1000
0000
,
0001
0100
0010
1000
,
0001
0000
0010
0000
0100
1000
0100
1000
,
0001
0100
0001
0100
0001
0000
1000
0100
,
1000
0100
1000
0000
0001
1000
0001
0000
,
1000
0001
1000
0001
1000
0000
0001
0100
,
0001
0100
0001
0000
0100
0010
0100
0000
,
0010
1000
0010
1000
0010
0000
1000
0001
,
1000
0001
1000
0000
0001
0010
0001
0000
,
0010
0100
0010
0100
0010
0000
0100
1000
,
0100
1000
0100
0000
1000
0010
1000
0000
,
0010
0100
0010
0100
0010
0000
0100
0001
,
0100
0001
0100
0000
0001
1000
0001
0000
,
1000
0100
1000
0100
1000
0000
0100
0010
,
0100
0010
0100
0000
0010
0001
0010
0000
,
0001
1000
0001
1000
0001
1000
0001
1000
,
0001
0100
0001
0100
0001
0100
0001
0100
,
0002
0000
0000
0000
,
1003
0000
0000
0000
0001
1000
1100
0000
,
1001
0000
0001
0100
0010
0000
1000
0010
,
0000
0100
0001
0000
0100
0010
1000
0000
,
0001
0000
0010
0100
1000
0000
0010
0100
,
0000
0100
0000
0100
0100
0000
0001
0000
,
0010
0000
0100
1000
0100
0000
0010
0001
,
0000
0000
0100
0000
0010
1000
0010
0100
,
0001
0000
0010
0100
0010
0000
0001
0001
,
0000
0000
1000
0000
0010
0000
0100
0001
,
0100
0000
0010
1000
0010
0000
0100
0100
,
0000
0000
0001
0000
0100
0010
1000
0000
,
0001
0000
0010
0100
1000
0000
0001
0010
,
0000
0010
0000
0010
0010
0000
0100
0000
,
1000
0000
0010
0100
0001
0000
0100
0010
,
0000
0000
1000
0010
0100
0000
0000
0001
,
0000
0000
0010
0000
0000
0100
0000
1000
,
0000
0010
0000
0100
0001
0000
1000
0000
,
2002
0000
0000
0000
,
0000
0000
0000
0000
,
3003
0000
0000
0000
;

//---------------dance-single - ----------------
#NOTES:
     dance-single:
     :
     Easy:
     4:
     0.304,0.321,0.022,0.015,0.000:
0000
0000
0000
0000
,
0000
0000
0000
0000
,
0000
0000
0000
0000
,
0000
0000
0000
0000
,
0000
0000
0000
0000
,
0000
0000
0000
0000
,
0000
0000
0000
0000
,
0000
0000
0000
0000
,
1000
0001
0100
0010
,
0100
0001
1000
0000
,
0001
0010
0100
1000
,
0010
0010
0100
0100
,
0001
0010
0001
0000
,
0100
0010
1000
0000
,
0001
0010
0100
1000
,
0100
1000
0010
0010
,
1000
0010
0100
0000
,
0001
0100
0010
0000
,
1000
0010
0100
0001
,
0010
0010
0010
0100
,
1000
0010
0100
0000
,
0001
0100
0010
0000
,
0001
0010
0100
0000
,
1000
0100
1000
1000
,
0001
0100
0010
0010
,
0100
0001
1000
1000
,
0001
0010
0100
0100
,
1000
0010
0100
0100
,
0001
0000
1000
0000
,
0010
0000
0100
0000
,
0001
0000
0001
0000
,
0010
0000
0100
1000
,
0001
0100
0010
1000
,
0010
0100
0001
0000
,
1000
0100
1000
0010
,
0100
0100
0001
0000
,
0010
0100
1000
0100
,
1000
1000
0010
0000
,
0100
0001
0100
0010
,
1000
1000
0001
0000
,
0010
0100
1000
0100
,
0010
0001
1000
0000
,
0010
0100
0001
0100
,
0010
0010
1000
0000
,
0001
0010
0100
0010
,
0100
0100
1000
0000
,
0010
0100
0001
0010
,
0100
1000
0001
1000
,
0001
0100
0010
1000
,
0010
0100
0001
0001
,
0010
0100
1000
0010
,
0100
0010
1000
1000
,
0001
0010
0001
0100
,
0010
1000
0010
0010
,
0100
0001
0010
0100
,
0000
0000
1000
0001
,
1000
1000
1000
0001
,
0001
0001
0100
0100
,
0010
0010
0010
1000
,
1000
1000
0100
0100
,
0010
0010
0010
0001
,
0001
0001
0100
0100
,
0010
0010
0010
1000
,
1000
1000
0100
0100
,
0010
0010
0010
0001
,
0001
0001
0100
0100
,
1000
1000
1000
0010
,
0010
0010
0001
0001
,
0100
0100
0100
0100
,
0010
0010
0010
0010
,
1000
0100
0010
0001
,
2002
0000
0000
3003
,
1001
0001
0100
0010
,
1000
0010
0100
0000
,
0001
0010
0100
1000
,
0100
0100
0010
0000
,
0001
0100
0010
0100
,
0010
0010
1000
0000
,
0001
0010
0100
1000
,
0001
0001
0100
0000
,
0010
1000
0010
0100
,
0001
0001
0010
0000
,
0100
1000
0100
1000
,
0010
0010
0100
0000
,
0001
0100
0010
1000
,
0001
0001
1000
0000
,
0001
0010
0100
1000
,
0001
1000
0001
1000
,
1001
0000
0000
0000
;

//---------------dance-single - ----------------
#NOTES:
     dance-single:
     :
     Beginner:
     2:
     0.180,0.289,0.022,0.000,0.000:
0000
0000
0000
0000
,
0000
0000
0000
0000
,
0000
0000
0000
0000
,
0000
0000
0000
0000
,
0000
0000
0000
0000
,
0000
0000
0000
0000
,
0000
0000
0000
0000
,
0000
0000
0000
0000
,
1000
0000
0000
0000
,
0010
0000
0000
0000
,
0100
0000
0000
0000
,
0001
0000
0001
0000
,
0001
0000
0000
0000
,
0010
0000
0000
0000
,
0100
0000
0000
0000
,
1000
0000
1000
0000
,
0010
0000
0000
0000
,
0100
0000
0000
0000
,
0001
0000
0000
0000
,
0010
0000
0010
0000
,
0100
0000
0000
0000
,
0100
0000
0000
0000
,
1000
0000
0000
0000
,
0010
0000
0100
0000
,
0001
0000
0000
0000
,
0001
0000
0000
0000
,
0100
0000
0000
0000
,
0100
0000
0000
0000
,
0010
0000
0010
0000
,
1000
0000
0000
0000
,
0001
0000
0010
0000
,
0100
0000
1000
1000
,
1000
0000
1000
0000
,
0001
0000
0001
0000
,
0100
0000
0100
0000
,
0010
0000
0010
0000
,
1000
0000
1000
0000
,
0100
0000
0100
0000
,
0010
0000
0010
0000
,
0001
0000
0001
0000
,
0100
0000
0010
0000
,
0100
0000
0010
0000
,
1000
0000
0001
0000
,
1000
0000
0001
0000
,
0100
0000
0010
0000
,
1000
0000
0010
0000
,
0100
0000
0001
0000
,
0010
0000
0100
0000
,
1000
0000
1000
0000
,
0001
0000
0001
0000
,
0100
0000
0100
0000
,
0010
0000
0010
0000
,
1000
0000
1000
0000
,
0001
0000
0001
0000
,
0100
0000
0100
0000
,
0010
0000
0010
0000
,
1000
1000
1000
1000
,
1000
1000
1000
1000
,
1000
1000
1000
1000
,
1000
1000
1000
1000
,
1000
1000
1000
1000
,
1000
1000
1000
1000
,
1000
1000
1000
1000
,
1000
1000
1000
0000
,
0001
0001
0001
0001
,
0001
0001
0001
0001
,
0001
0001
0001
0001
,
0001
0001
0001
0001
,
0001
0001
0001
0001
,
0001
0001
0001
0001
,
0001
0000
0000
0000
,
1001
0000
0000
0000
,
1001
0000
0001
0000
,
0100
0000
0100
0000
,
0010
0000
0010
0000
,
1000
0000
1000
0000
,
0001
0000
0001
0000
,
0010
0000
0010
0000
,
0100
0000
0100
0000
,
1000
0000
1000
0000
,
0001
0000
0100
0000
,
0010
0000
1000
0000
,
0010
0000
0100
0000
,
0001
0000
0010
0000
,
0001
0000
0100
0000
,
0010
0000
1000
0000
,
0001
0000
1000
0000
,
0001
0000
0100
0000
,
1001
0000
0000
0000
;
