#TITLE:Power of Dream;
#SUBTITLE:;
#ARTIST:IOSYS;
#TITLETRANSLIT:;
#SUBTITLETRANSLIT:;
#ARTISTTRANSLIT:;
#CREDIT:;
#BANNER:Power of Dream.png;
#BACKGROUND:Power of Dream-bg.png;
#LYRICSPATH:;
#CDTITLE:;
#MUSIC:Power of Dream.ogg;
#OFFSET:0.730;
#SAMPLESTART:147.940;
#SAMPLELENGTH:12.000;
#SELECTABLE:YES;
#BPMS:0.000=180.000,48.000=360.001,49.000=180.000,49.500=360.001,50.500=180.000,151.000=90.000,154.000=180.000,410.000=90.000,428.000=180.000;
#STOPS:;
#BGCHANGES:3.250=Power of Dream.avi=1.000=1=0=1,
99999=-nosongbg-=1.000=0=0=0 // don't automatically add -songbackground-
;

//---------------dance-single - ----------------
#NOTES:
     dance-single:
     :
     Challenge:
     12:
     1.000,1.000,0.665,0.744,0.620: // measure 1
0000
0000
0000
0000
,  // measure 2
0000
0000
0000
0000
,  // measure 3
0000
0000
0000
0000
,  // measure 4
0000
0000
0000
0000
,  // measure 5
0000
0000
0000
0000
,  // measure 6
1000
0100
1000
0000
0001
0100
0010
0100
0001
0010
0100
1000
0000
0001
0010
0001
,  // measure 7
1000
0100
1000
0010
0100
0001
0010
0100
1000
0000
0001
0100
0001
1000
0000
0001
,  // measure 8
1000
0001
0000
1000
0001
0000
1000
0100
0010
0000
0001
0100
0001
0100
0010
1000
,  // measure 9
0001
0000
1000
0100
1000
0010
0100
0001
1000
0000
0001
0010
0001
0000
1000
0100
,  // measure 10
1000
0000
0001
0100
0010
0100
0001
0010
0100
1000
0001
0010
0100
1000
0010
0100
,  // measure 11
0001
1000
0100
0010
0001
1000
0001
0000
1000
0100
0010
0100
1000
0010
0100
0001
,  // measure 12
1000
0100
0010
0100
0010
0001
0100
0010
1000
0010
0000
1000
0001
1000
0000
0001
,  // measure 13
2000
0000
0000
0000
3001
0000
0200
0000
0000
0000
0310
0000
1000
0100
0010
0001
,  // measure 14
0100
0010
1000
0100
2000
0000
3200
0000
0320
0000
0030
0MM0
0002
0000
0203
0000
,  // measure 15
0320
0000
0030
0MM0
2000
0000
3200
0000
0320
0000
0032
0000
0203
0000
2300
0000
,  // measure 16
3002
2003
3200
0302
2003
0100
3200
0010
,  // measure 17
0320
0000
0001
0000
0031
0100
0001
0100
0010
1000
0010
1000
0002
0000
MMM3
0000
,  // measure 18
1000
0000
0001
0000
2000
0000
3200
0000
2300
0000
3000
MM00
0002
0000
0203
0000
,  // measure 19
0302
0000
0003
0M0M
2000
0000
3200
0000
0302
0000
2003
0000
3002
0000
0203
0000
,  // measure 20
2300
3020
0230
0302
2003
0000
3020
0100
,  // measure 21
0230
0000
0301
0001
0010
0010
0100
0100
,  // measure 22
1000
0000
1000
0000
0001
0010
0100
1000
0001
0010
0100
1000
0001
0100
0010
1000
,  // measure 23
0001
0010
0001
0100
0002
0000
0000
0000
0000
0000
0000
0000
0000
0000
0000
0000
,  // measure 24
0000
1000
0100
0010
,  // measure 25
0100
2003
0000
0000
,  // measure 26
0000
0010
0100
0001
,  // measure 27
3100
0120
0000
0000
,  // measure 28
0000
0100
0001
1000
,  // measure 29
0001
0230
0000
0000
,  // measure 30
0000
1000
0010
0001
,  // measure 31
0010
1000
1300
0100
0010
0001
0100
1000
,  // measure 32
0100
0001
0010
0100
1000
0100
1000
0010
,  // measure 33
0100
0001
0010
0100
0010
0100
1000
0010
,  // measure 34
0100
0001
1000
0100
1000
0010
0100
0001
,  // measure 35
0010
0001
1001
0001
0100
0010
1000
0100
,  // measure 36
0001
0100
1000
0010
0100
0001
0100
0001
,  // measure 37
0100
0010
1000
0001
0010
1000
0010
0001
,  // measure 38
1000
0000
0001
1000
0001
0000
0000
0101
0000
0000
1100
0000
2002
0000
0003
0000
,  // measure 39
0001
0000
0000
0000
0001
0000
0000
0000
3001
0100
0001
0000
1000
0000
0000
0000
0001
0000
0000
0000
0100
0000
0000
0000
0110
0000
0000
0000
0000
0000
0000
0000
,  // measure 40
1000
0100
1100
0000
0001
0100
0101
0000
,  // measure 41
1000
0100
0110
0000
0001
1000
1100
0000
,  // measure 42
0001
0100
0101
0000
1000
0010
0110
0000
,  // measure 43
0100
0001
1001
1000
1000
0100
0011
0000
,  // measure 44
0100
0010
1001
0000
1000
0100
0011
0000
,  // measure 45
0001
0100
1010
0000
0001
0100
1010
0000
,  // measure 46
0100
0001
1100
0000
0001
0100
0010
1000
,  // measure 47
0001
0000
0000
0000
0000
0000
1000
0000
0100
0000
1000
0000
0100
0000
0000
0010
0000
0000
0001
0000
0000
0100
0000
0000
0010
0000
0000
1000
0000
0000
0010
0000
0000
0100
0000
0000
0001
0000
0000
0010
0000
0000
0100
0000
0000
1000
0000
0000
,  // measure 48
0001
0010
0100
1000
0001
0100
0010
1000
0001
0100
0001
0100
0001
0100
0001
0100
,  // measure 49
0001
0100
0001
0100
0001
0100
0001
0100
0001
0100
0001
0100
0000
0000
2002
0000
,  // measure 50
0000
0000
3003
0000
1100
0000
0000
0000
1000
0100
1000
0100
1000
0100
1000
0100
,  // measure 51
1000
0100
1000
0100
1000
0100
1000
0100
1000
0100
1000
0100
0000
0000
0202
0000
,  // measure 52
0303
0000
0001
1000
0001
0000
0000
0000
1001
0000
1000
0000
0100
0000
0010
0000
,  // measure 53
0001
0000
0100
0000
0010
0000
2010
0000
0000
0000
3010
0000
0100
0000
0001
1000
,  // measure 54
0001
0000
0100
0000
0001
0000
0100
0000
0001
0000
0100
0000
0001
0000
0000
0100
0000
0000
0010
0000
0000
1000
0000
0000
0001
0000
0000
0000
0000
0000
0100
0000
0000
0000
0000
0000
0010
0000
0000
0000
0000
0000
1000
0000
0000
0000
0000
0000
,  // measure 55
0000
0001
0011
0010
0000
0100
1100
1000
,  // measure 56
0000
0001
0101
0100
0010
1000
1010
0010
,  // measure 57
0000
0100
0101
0001
0000
1000
1100
0100
,  // measure 58
0000
0100
0110
0010
0001
0001
0101
0100
,  // measure 59
0000
0010
1010
1000
0000
0001
0011
0010
,  // measure 60
0000
0100
1100
1000
1002
1000
0000
2003
,  // measure 61
0000
0000
0010
0000
3020
0000
0100
0000
0230
0000
0001
0000
0000
0000
0301
0100
,  // measure 62
0010
1000
0001
0010
0100
1000
0001
1000
0001
0000
0000
0000
1001
0000
0000
0000
,  // measure 63
1000
0100
0010
0001
2001
3020
0230
0001
,  // measure 64
0302
1000
0000
1000
2003
0010
3020
0000
,  // measure 65
2030
3200
0320
0032
0100
0203
0320
1000
,  // measure 66
2030
0001
0000
0001
3002
0100
0203
0001
,  // measure 67
0302
0203
2300
3002
1000
2003
3200
0001
,  // measure 68
0302
1000
0000
1000
0203
1000
2300
0000
,  // measure 69
3200
0302
2003
3002
0100
0203
0320
1000
,  // measure 70
2030
0001
0000
0001
3002
0100
0203
0010
,  // measure 71
0320
2030
3020
0230
0302
0100
0203
0010
,  // measure 72
0320
1000
0030
1000
0001
0001
0200
0000
,  // measure 73
0310
1000
0001
1000
2000
0100
3200
0010
,  // measure 74
0320
0000
0001
0000
0030
0000
0001
0000
0100
0000
0100
0000
0010
0000
0010
1000
,  // measure 75
0001
1000
0100
1000
0020
0100
0230
0001
,  // measure 76
0302
1000
0003
1000
0100
0100
0010
0010
,  // measure 77
0001
0100
1000
0100
0002
0100
0203
1000
,  // measure 78
2300
0001
3002
0010
0023
0100
0230
0001
,  // measure 79
0302
1000
2003
0100
3200
0010
0320
0001
,  // measure 80
0032
1000
0003
1000
0010
0010
0200
0000
,  // measure 81
0301
0010
0100
1000
0020
0100
0230
0001
,  // measure 82
0302
0000
1000
0000
0003
0000
0100
0000
0010
0000
0010
0000
1000
0100
1000
0100
,  // measure 83
0010
0001
0100
0010
2000
0010
3020
0100
,  // measure 84
0230
0001
0300
0001
0100
0100
0020
0000
,  // measure 85
1030
0000
0100
0000
1000
0000
0010
0000
1000
0100
1000
0100
1000
0100
1000
0100
,  // measure 86
0010
0001
0010
0001
0010
0001
0010
0001
1000
0100
0010
0001
0100
0010
1000
0100
,  // measure 87
1000
0010
0100
0001
1000
0100
0010
0001
1000
0000
1000
0000
1010
0000
0010
0000
,  // measure 88
0110
0100
0000
0001
1001
1000
1100
0100
,  // measure 89
0110
0010
0001
0100
0110
0010
1010
1000
,  // measure 90
1001
0001
0000
0100
0110
0010
1010
1000
,  // measure 91
1001
0001
0100
0001
1001
1000
1100
0100
,  // measure 92
0110
0010
0000
0001
0011
0010
0110
0100
,  // measure 93
1100
1000
0010
0100
0101
0100
0110
0010
,  // measure 94
1010
0000
0000
2000
0000
0000
0001
0000
0000
3001
0000
0000
0101
0000
0000
0100
0000
0000
0101
0000
0000
0001
1000
0001
,  // measure 95
1000
0100
0010
0001
0100
0010
1000
0001
1000
0000
0010
0000
0110
0000
0100
0000
,  // measure 96
0101
0001
0000
1000
1100
0100
0110
0010
,  // measure 97
0011
0001
0100
0010
1010
1000
1001
0001
,  // measure 98
0101
0100
0000
0010
1010
1000
1001
0001
,  // measure 99
1001
1000
0010
0100
0101
0001
1001
1000
,  // measure 100
1100
0100
0000
0010
0011
0001
1001
1000
,  // measure 101
1010
0010
0100
0001
1100
0010
0101
0010
,  // measure 102
1001
0000
0000
0200
0000
0000
0010
0000
0000
0310
0000
0000
1001
0000
0000
0010
0000
0000
1100
0000
0000
1000
0100
1000
,  // measure 103
0100
0000
0010
0000
0001
0000
0100
0000
0010
0000
1000
0000
0010
0000
0100
0000
0001
1000
0001
1000
0001
1000
0001
1000
0001
1000
0001
1000
0001
1000
0001
1000
,  // measure 104
0001
1000
0001
1000
0001
1000
0001
1000
0001
1000
0001
1000
0001
1000
0001
1000
0002
0000
0000
0000
0003
0000
0000
0000
1100
0000
0000
0000
1001
0000
0000
0000
,  // measure 105
0202
0000
0000
0000
0303
0000
1000
0100
0011
0000
0000
0000
1100
0000
0001
0100
,  // measure 106
1010
0000
0000
0000
0000
0000
0000
0000
0101
0000
0100
0000
0010
0000
1000
0000
2002
0000
0000
0000
0000
0000
0003
0000
0100
0000
0000
0000
3100
0000
1000
0100
,  // measure 107
1000
0000
0000
0000
0000
0000
0000
0000
0000
0000
0000
0000
0010
0000
0000
0000
0000
0000
0000
0000
0000
0000
0000
0000
0100
0000
0000
0000
0000
0000
0000
0000
0000
0000
0000
0000
0001
0000
0000
0000
0000
0000
0000
0000
0000
0000
0000
0000
1000
0000
0000
0000
0000
0000
0000
0000
0000
0000
0000
0000
0000
0000
0000
0000
0000
0000
0000
0000
0000
0000
0000
0000
0001
0000
0000
0000
0000
0000
0000
0000
0000
0000
0000
0000
1000
0000
0000
0000
0001
0000
0000
0000
1000
0000
0000
0000
0001
0000
0000
0000
0000
0000
0000
0000
0000
0000
0000
0000
0000
0000
0000
0000
0000
0000
0101
0000
0000
0000
0000
0000
0000
0000
0000
0000
0000
0000
0000
0000
0000
0000
0000
0000
1100
0000
0000
0000
0000
0000
0000
0000
0000
0000
0000
0000
2002
0000
0000
0000
0000
0000
0000
0000
0000
0000
0000
0000
0000
0000
0000
0000
0000
0000
0000
0000
0000
0000
0000
0000
3003
0000
0000
0000
0000
0000
0000
0000
0000
0000
0000
0000
0000
0000
0000
0000
0000
0000
0000
0000
0000
0000
0000
0000
,  // measure 108
1001
1000
1010
0010
0000
0100
0101
0001
,  // measure 109
0000
1000
1001
0001
0000
0010
0110
0100
,  // measure 110
1000
0010
0110
0100
0000
0001
0101
0100
,  // measure 111
0000
0010
1010
1000
0000
0001
0101
0100
,  // measure 112
0010
1000
1001
0001
0000
0010
0110
0200
,  // measure 113
0000
1300
1100
1000
0100
0010
0011
0001
,  // measure 114
0100
0010
1010
0000
0001
0100
0110
0020
,  // measure 115
0000
0001
0001
0001
0000
1000
1000
1000
,  // measure 116
0130
0001
1001
0000
1000
0100
0110
0020
,  // measure 117
0000
1000
1000
1000
0000
0001
0001
0001
,  // measure 118
0031
0100
0110
0010
0010
1000
1001
0002
,  // measure 119
0100
0103
0110
0010
1000
0001
1100
0010
,  // measure 120
1000
0100
1000
0100
1000
0100
0010
0001
0010
0001
0010
0001
1000
0010
1000
0010
,  // measure 121
0100
0001
0100
0001
0100
0001
1000
0001
1000
0100
0010
0001
1000
0100
0010
0001
,  // measure 122
1000
0000
2002
0003
0001
0001
0001
3001
,  // measure 123
10M1
0001
0100
0000
1M10
1000
0001
M201
,  // measure 124
0000
0000
0310
0000
1000
0000
0001
0000
0100
0000
0001
1000
0100
0000
1000
0000
,  // measure 125
10M1
0001
0100
0000
101M
1000
0001
21M0
,  // measure 126
0000
0000
0000
3100
0000
0000
0010
0000
0000
0001
0000
0000
0100
0000
0000
0010
1000
0010
1000
0000
0000
0001
0000
0000
,  // measure 127
10M0
0100
1000
0100
1000
0100
1000
0100
M010
0001
0010
0001
0010
0001
1M00
0010
,  // measure 128
1000
0010
1000
0010
0100
0010
0100
0010
0100
0001
0100
0001
1000
0001
1000
0001
,  // measure 129
10M0
0100
1000
0100
1000
0100
001M
0100
0010
0100
0010
0100
M010
0001
0010
0001
,  // measure 130
10M0
0100
0010
0001
0100
0010
100M
0010
0100
0001
0010
0100
100M
0100
1000
0001
,  // measure 131
1M00
0000
10M1
0000
0101
0110
1010
2002
,  // measure 132
0000
0000
0000
0000
,  // measure 133
0000
0000
0000
0000
,  // measure 134
0010
0000
0000
0000
,  // measure 135
3003
0000
0000
0000
;

//---------------dance-single - ----------------
#NOTES:
     dance-single:
     :
     Hard:
     8:
     0.646,0.807,0.232,0.121,0.040:
0000
0000
0000
0000
,
0000
0000
0000
0000
,
0000
0000
0000
0000
,
0000
0000
0000
0000
,
0000
0000
0000
0000
,
1000
0100
0010
0001
,
0100
0010
1000
0001
,
0010
0100
1000
0001
,
0100
0000
0010
0000
1000
0000
0001
0100
,
0100
0010
1000
0001
,
0010
0100
1000
0001
,
0100
0000
0010
0000
1000
0000
0001
0100
,
0002
0000
0003
2000
0000
3000
0001
0100
,
0010
1000
0001
0100
0001
0000
1000
0100
,
1000
0000
0001
0010
0100
1000
0010
0100
,
0001
0100
0010
1000
0200
0000
0320
0000
,
0032
0000
0103
0010
0100
0010
1000
0000
,
0001
0100
0001
0010
0100
0000
1000
0100
,
0010
0000
0001
0100
0010
1000
0100
1000
,
0010
0100
0001
1000
0200
0000
0320
0001
,
0032
0000
1003
0100
1000
0100
0010
0001
,
0010
0000
0001
0000
1000
0001
1000
0001
1000
0001
1000
0001
1000
0001
1000
0001
,
1000
0001
1000
0001
2000
0000
0000
0000
0000
0000
0000
0000
0000
0000
0000
0000
,
0000
0010
0010
0010
,
0010
3020
0000
0000
,
0000
0100
0100
0100
,
0130
0201
0000
0000
,
0000
0001
0001
0001
,
0001
0302
0000
0000
,
0000
1000
1000
1000
,
1000
1000
1003
0100
0010
0000
0001
0100
,
0010
0000
1000
0100
1000
0000
0010
0100
,
0001
0000
1000
0100
1000
0000
0001
0100
,
0001
0000
1000
0100
0010
0000
0001
0010
,
0100
0000
1000
0100
1000
0100
0010
0001
,
0010
0001
1000
0010
1000
0010
0100
0001
,
0100
0001
1000
0100
0010
0001
0100
0010
,
1000
0000
0001
0000
1000
0000
0000
1001
0000
0000
0110
0000
2001
0000
0000
0000
,
0001
0000
0001
0000
3001
0100
0001
0000
1000
0000
0000
0000
1100
0000
0000
0000
,
0001
0101
1000
1010
,
0001
0011
1000
0101
,
0010
1100
0001
0110
,
1000
0000
0101
0010
0010
0000
1100
0000
,
0001
0101
1000
1100
,
0010
0110
0001
0101
,
1000
0000
1100
0000
1000
0100
0010
0001
,
0100
0000
0001
1000
0001
0000
0100
0000
0010
0000
1000
0000
0001
0000
0010
0000
,
0100
1000
0001
1000
0001
0100
0001
0000
,
1000
0100
0010
0002
0000
0000
0000
1003
,
0000
0000
1001
0000
1000
0100
1000
0000
,
0001
0100
0010
2000
0000
0000
0000
3001
,
0000
0000
1000
0001
1000
0000
0000
0000
0001
0000
0100
0000
0010
0000
1000
0000
,
0001
0100
0001
2000
0000
3001
0100
0001
,
0100
0010
1000
0001
1000
0100
0010
0001
,
0000
0100
0010
1000
0000
0001
0100
0001
,
0000
1000
0100
0010
0001
0100
0010
1000
,
0000
0001
0100
0001
0000
1000
0100
1000
,
0000
0001
0010
0100
0010
0001
0100
0010
,
0000
1000
0100
1000
0000
0010
0100
0001
,
0000
1000
0100
1000
0010
0010
0000
0100
,
0000
0001
1000
1000
0001
1000
0000
0001
,
0100
0010
1000
0001
1000
0000
1001
0000
,
1000
0100
0010
0001
1000
0010
0100
0100
,
0001
0010
0000
0010
0100
0100
1000
0000
,
0010
0100
0001
0100
0010
1000
0001
0001
,
0100
0010
0000
1000
0010
0010
0100
0100
,
0001
0010
0100
1000
0001
0100
0010
0010
,
1000
0001
0000
1000
0001
0001
0100
0000
,
0010
1000
0010
0100
0001
0010
0100
0100
,
1000
0001
0000
0100
0010
0010
1000
1000
,
0001
0100
0001
1000
0001
0001
0100
0100
,
0010
0010
0000
0010
1000
1000
0100
0100
,
0010
0001
0100
0010
1000
1000
0001
0001
,
0100
0100
0000
0100
0010
0010
1000
1000
,
0001
0100
0001
0100
0010
0010
1000
1000
,
0001
0001
0000
0100
0010
0010
1000
1000
,
0001
0100
0010
1000
0001
0001
0010
0010
,
0100
0100
1000
0010
0100
0100
0001
0001
,
1000
0100
0010
0001
1000
1000
0010
0010
,
0100
0100
0000
0100
0001
0001
1000
1000
,
0100
0010
0001
0100
0010
0010
1000
1000
,
0001
0001
0000
0100
0010
0010
1000
1000
,
0001
0100
0001
1000
0010
0010
0100
0100
,
0001
0001
0000
0010
0100
0100
1000
1000
,
0010
0100
0001
0100
0010
1000
0010
1000
,
0001
0100
0001
0100
0010
1000
0010
0100
,
0001
0010
0100
1000
1001
0001
0100
0000
,
0010
1000
0000
0001
0010
0001
0010
0001
,
0010
0100
1000
0010
1000
0100
0010
0000
,
0001
0100
0000
0001
0100
0001
1000
0001
,
0010
0100
1000
0010
0100
0001
0100
0000
,
0010
1000
0000
0001
0100
0001
0100
0001
,
0100
0010
1000
0010
0100
0001
0010
0000
,
0100
1000
0000
0100
1000
0100
1000
0100
,
0010
0001
0100
0010
1000
0100
1000
0000
,
0010
0100
0000
0001
0100
0001
1000
0001
,
1000
0100
0010
0001
0100
0010
1000
0000
,
0001
0100
0000
0010
1000
0010
0100
0010
,
1000
0010
0100
0001
1000
0100
1000
0000
,
0001
0010
0000
0100
1000
0100
0010
0000
,
0001
0010
0100
1000
0001
0001
0100
0100
,
0010
0010
1000
1000
0001
0010
0100
1000
,
0001
0100
0010
1000
0002
0000
0000
1000
,
1000
0000
0000
1000
1003
0000
0001
0100
,
0001
0000
0000
1000
1100
0000
0101
0000
,
0011
0000
1010
0000
2001
0000
0001
0001
,
3001
0100
0001
0100
0001
0000
1000
0001
1000
0000
0000
0000
1001
0000
0000
0000
,
1000
0100
0010
0000
0001
0100
0010
1000
,
0000
0001
0100
0001
0000
1000
0100
1000
,
0001
0100
0010
0000
1000
0010
0100
0001
,
0000
1000
0100
0010
0000
0001
0010
0100
,
1000
0100
1000
0000
0010
0100
0001
1000
,
0000
0001
0010
0001
0010
0100
1000
0010
,
0100
0001
1000
0000
0001
0010
0100
1000
,
0000
0010
0100
0010
0000
0100
0010
0100
,
0001
0010
0100
0000
1000
0100
1000
0010
,
0000
0100
0001
0100
0000
0010
1000
0010
,
0100
0001
1000
0000
0001
0010
0100
2000
,
0001
3001
0100
0001
0100
0010
1000
0001
,
1001
0000
0000
0101
0000
0000
0110
0000
,
1010
0000
0000
1001
0000
0000
0101
0000
,
1001
2002
0000
3003
,
1000
0100
0010
0000
0001
0100
0010
1000
,
0000
0001
0100
0001
1000
0100
0010
0001
,
0100
0010
1000
0000
0001
0100
0001
1000
,
0000
0001
0010
0100
1000
0100
1000
0010
,
0100
0001
1000
0000
0001
0010
0100
1000
,
0000
0010
0100
0001
0100
0010
1000
0001
,
1001
0000
0001
0101
0000
0100
0110
0000
,
1010
0000
1000
1001
0000
0001
0101
0100
,
0010
0000
1001
0000
1000
0100
0010
0220
,
0000
0000
0000
0000
,
0000
0000
0000
0330
,
1001
0000
0000
0000
;

//---------------dance-single - ----------------
#NOTES:
     dance-single:
     :
     Medium:
     6:
     0.441,0.597,0.259,0.100,0.003:
0000
0000
0000
0000
,
0000
0000
0000
0000
,
0000
0000
0000
0000
,
0000
0000
0000
0000
,
0000
0000
0000
0000
,
1000
0100
0010
0001
,
0100
0010
1000
0010
,
0100
0001
0010
0100
,
1000
0100
0010
0001
,
0100
0010
1000
0001
,
0100
0001
0100
0010
,
1000
0001
1000
0001
,
2000
0000
3000
0002
0000
0003
1000
0001
,
1000
0000
0001
0100
0001
0000
1000
0100
,
1000
0000
0001
0010
0100
0000
1000
0000
,
0010
0000
0100
0001
0100
0000
0010
0000
,
1000
0000
0001
0100
0001
0100
0001
0000
,
0000
0000
1000
0100
0010
0000
0001
0010
,
0100
0000
1000
0010
0100
0000
0001
0000
,
0100
0000
0010
1000
0100
0000
0010
0010
,
0001
1000
1000
0001
,
0001
0000
1000
0100
0010
0001
1000
0100
,
0010
0001
2000
0000
0000
0000
0000
0000
,
0000
0000
0000
0000
,
0000
3020
0000
0000
,
0000
0000
0000
0000
,
0000
0230
0000
0000
,
0000
0000
0000
0000
,
0000
0302
0000
0000
,
0000
1000
1000
1000
,
1000
1003
0010
0100
,
0001
1000
0001
0010
,
0100
1000
0100
1000
,
0010
0100
0001
0010
,
0100
0000
1000
0100
1000
0000
0001
0100
,
0001
0000
1000
0010
1000
0000
0001
0010
,
0001
0000
1000
0100
0010
0000
0001
0100
,
0010
0000
0000
0000
1000
0000
0000
1000
0000
0000
1000
0000
2002
0000
0000
0000
,
0000
3003
1000
1000
,
0001
0001
0100
0010
,
1000
0010
0100
0100
,
0001
0001
1000
0100
,
0010
0001
0100
0100
,
0010
0010
1000
0010
,
0100
0001
1000
1000
,
0001
0001
1000
0100
,
0020
0000
0000
0000
,
0000
0000
0000
0000
0031
0100
0001
0000
,
1000
0000
0001
0200
0000
0000
0000
0010
,
0000
0000
0310
0000
1000
0100
1000
0000
,
0001
0000
0010
0200
0000
0000
0000
1000
,
0000
0000
1300
0000
0001
0100
0001
0000
,
1000
0000
0001
0100
0000
0010
1000
0000
,
0001
1000
0001
0000
1000
0000
0100
0000
,
0010
0001
0100
0000
0010
0000
1000
0000
,
0001
0100
0001
0000
1000
0000
0100
0000
,
0010
0001
0010
0000
0100
0000
1000
0000
,
0010
0100
0001
0000
1000
0000
0001
0000
,
0100
0010
0100
0000
0001
0000
0010
0000
,
0100
1000
0100
0000
0010
0000
0000
0001
,
0000
1000
0001
0000
,
1000
0001
1000
0001
1001
0000
2002
0000
,
0000
0000
3003
0000
1000
0100
1000
0000
,
0010
0000
0100
0001
,
1000
0000
0010
0000
0100
0001
1000
0000
,
0001
0000
1000
0100
,
0010
0000
0001
0000
0100
0010
1000
0000
,
0001
0000
0100
0010
,
1000
0000
0001
0000
0010
0100
1000
0000
,
0001
0000
0100
0010
,
1000
0001
1100
1100
,
1001
0000
0001
0100
,
0010
0000
1010
1010
,
1001
0000
0100
0001
,
1000
0000
1010
1010
,
0110
0000
0001
0100
,
1000
0000
1100
0100
,
0010
0001
1001
1000
,
0010
0100
0101
0101
,
1001
0000
0010
0100
,
1001
0000
0011
0011
,
1001
0000
1000
0010
,
1001
0000
0101
0110
,
1010
0000
0001
0100
,
1010
0000
0001
0001
,
1000
1000
0101
0110
,
1010
0000
1001
0000
1000
0100
0010
0000
,
0001
0000
0100
0000
1000
0010
0100
0000
,
0001
0000
0010
0000
0100
1000
0100
0000
,
0010
0000
0001
0000
0100
0010
1000
0000
,
0001
0000
0010
0000
0100
1000
0100
0000
,
0010
0000
0001
0000
0100
0010
1000
0000
,
0001
0000
0100
0000
0010
1000
0001
0000
,
1000
0100
1000
0000
0001
0100
0001
0000
,
0010
0100
0001
0100
0001
0100
0001
0000
,
1000
0000
0100
0000
1000
0010
0100
0000
,
0001
0000
0100
0000
0010
1000
0001
0000
,
0010
0000
0100
0000
1000
0100
1000
0000
,
0010
0000
0100
0000
0001
0100
0001
0000
,
1000
0000
0001
0000
0100
0010
0100
0000
,
0001
0000
0010
0000
0100
1000
0100
0000
,
0010
0001
0010
0000
1000
0010
0100
0000
,
0001
0100
0010
1000
0002
0000
0000
1000
,
1000
0000
0000
1000
1003
0000
0001
1000
,
1001
0000
0000
1000
1001
0000
1001
0000
,
1001
0000
1001
0000
1002
0000
1000
1000
,
1003
0100
0010
0000
0001
0000
1001
0000
,
1000
0100
0010
0000
0001
0000
0100
0000
,
0010
1000
0001
0000
0010
0000
0100
0000
,
1000
0100
1000
0000
0010
0000
0100
0000
,
0001
0100
0001
0000
0100
0000
0010
0000
,
1000
0001
1000
0000
0010
0000
0100
0000
,
0001
0010
0100
0000
1000
0100
0010
0000
,
0001
0100
0001
0000
0100
0000
0010
0000
,
1000
0010
0100
0000
0001
0000
0010
0000
,
0100
1000
0001
0000
0100
0000
0010
0000
,
1000
0010
0001
0000
0100
0000
1000
0000
,
0001
0010
1000
0000
0100
0000
0001
0000
,
1000
0100
0010
0000
0001
0100
0001
0000
,
1001
0000
0000
0101
0000
0000
0110
0000
,
1010
0000
0000
1001
0000
0000
0101
0000
,
1001
2002
0000
3003
,
1000
0000
0000
0000
0001
0000
0000
0001
,
0000
0100
0010
1000
,
0001
0000
0000
0000
0010
0000
0000
0010
,
0000
0100
1000
0010
,
0100
0000
0000
0000
0001
0000
0000
0001
,
0000
1000
0100
0010
,
0001
0000
0000
0010
0000
0000
0100
0000
,
1000
0000
0000
0010
0000
0000
0100
0000
,
1001
0000
1001
0000
1000
0000
0000
2002
,
0000
0000
0000
0000
,
0000
0000
0000
3003
,
1001
0000
0000
0000
;

//---------------dance-single - ----------------
#NOTES:
     dance-single:
     :
     Easy:
     4:
     0.280,0.491,0.132,0.090,0.000:
0000
0000
0000
0000
,
0000
0000
0000
0000
,
0000
0000
0000
0000
,
0000
0000
0000
0000
,
0000
0000
0000
0000
,
1000
0000
1000
0000
,
0010
0000
0010
0000
,
0100
0000
0100
0000
,
0001
0000
0001
0000
,
1000
0000
0100
0000
,
0010
0000
0001
0000
,
1000
0000
0001
0000
,
1000
0000
0000
0001
,
0000
0100
0000
0100
,
0000
0010
0000
0010
,
0000
1000
0000
0001
,
0000
1000
0100
1000
,
0000
0001
0000
0100
,
0000
0010
0000
1000
,
0000
0001
0000
1000
,
0000
0001
0001
0100
,
0100
0001
0100
0010
,
1000
0002
0000
0000
,
0000
0000
0000
0000
,
0000
0203
0000
0000
,
0000
0000
0000
0000
,
0000
0320
0000
0000
,
0000
0000
0000
0000
,
0000
2030
0000
0000
,
0000
0001
0001
0001
,
0001
3001
0000
0100
,
0000
0010
0000
1000
,
0000
0100
0000
0010
,
0000
0001
0000
1000
,
0000
0011
0000
0100
,
0000
0010
0000
1000
,
0000
0001
0000
0010
,
0000
1000
0000
2002
,
0000
3003
1000
0000
,
1000
0000
0010
0000
,
0010
0000
0100
0000
,
0100
0000
0001
0000
,
0001
0000
0010
0000
,
0010
0000
0100
0000
,
0100
0000
1000
0000
,
1000
0000
0001
0000
,
0200
0000
0000
0000
,
0300
0000
0101
0000
,
0000
0000
0000
0000
0000
0000
0000
0001
,
0000
0001
1001
0000
,
0000
0000
0000
0000
0000
0000
0000
1000
,
0000
1000
1100
0000
,
0000
0000
0000
0001
0000
0000
0000
0000
,
1000
0000
1001
0001
,
0100
0001
0100
0010
,
0100
0010
1000
0010
,
1000
0010
0100
0010
,
0100
0010
0100
0001
,
0100
0001
1000
0100
,
0010
0001
1000
0000
,
1000
0000
0001
0000
,
1000
0001
1001
2002
,
0000
3003
1001
0000
,
0001
0000
0100
0000
,
0010
0000
1000
0000
,
0100
0000
0010
0000
,
0001
0000
0100
0000
,
0010
0000
1000
0000
,
0010
0000
0100
0000
,
0001
0000
1000
0000
,
0001
0000
1000
1000
,
1000
0000
0001
0001
,
0001
0000
0100
0100
,
0100
0000
0010
0010
,
0010
0000
1000
1000
,
1000
0000
0001
0001
,
0001
0000
1000
1000
,
1000
1000
0001
0001
,
0001
0001
0100
0100
,
0100
0000
0010
0010
,
0010
0000
1000
1000
,
1000
0000
0100
0100
,
0100
0000
0010
0010
,
0010
0000
0001
0001
,
0001
0000
0100
0100
,
0100
0100
0010
0010
,
0010
0010
1001
1000
,
1000
0010
0100
0100
,
0100
0001
0010
0010
,
0010
0100
1000
1000
,
1000
0010
0100
0100
,
0100
0001
0010
0010
,
0010
0100
1000
1000
,
1000
0100
0010
0010
,
0010
0001
0100
0100
,
0100
0010
0001
0001
,
0001
0100
0010
0010
,
0010
1000
0001
0001
,
0001
0100
0010
0010
,
0010
1000
0100
0100
,
0100
0010
0001
0100
,
0010
1000
0001
0100
,
0001
1000
2002
0000
,
3003
0000
1001
0000
,
0000
0000
1001
1001
,
1001
1001
2002
3003
,
1001
0000
0001
1000
,
1001
0001
0100
0010
,
1000
0001
0010
0100
,
1000
0100
0010
0001
,
0100
0010
1000
0010
,
0100
0001
0010
0100
,
1000
0100
0010
0001
,
0100
0010
1000
0010
,
0100
0001
0010
0100
,
1000
0100
0010
0001
,
0100
0010
1000
0010
,
0100
0001
0010
0100
,
1000
0010
0100
0001
,
1000
0000
0001
0000
,
1000
0000
0001
0000
,
1001
2002
0000
3003
,
1000
0000
0000
0000
1000
0000
0000
1000
,
0000
0000
0000
0000
,
0001
0000
0000
0000
0001
0000
0000
0001
,
0000
0000
0000
0000
,
0100
0000
0000
0000
0100
0000
0000
0100
,
0000
0000
0000
0000
,
0010
0000
0000
0000
,
1000
0000
0000
0000
,
1001
0000
1001
0000
0000
0000
0000
0220
,
0000
0000
0000
0000
,
0000
0000
0330
0000
,
1001
0000
0000
0000
;

//---------------dance-single - ----------------
#NOTES:
     dance-single:
     :
     Beginner:
     2:
     0.168,0.246,0.095,0.000,0.000:
0000
0000
0000
0000
,
0000
0000
0000
0000
,
0000
0000
0000
0000
,
0000
0000
0000
0000
,
0000
0000
0000
0000
,
1000
0000
0000
0000
,
0000
0000
0000
0000
,
1000
0000
0000
0000
,
0000
0000
0000
0000
,
0001
0000
0000
0000
,
0000
0000
0000
0000
,
0001
0000
0000
0000
,
0000
0000
0000
0000
,
0000
0001
0000
0001
,
0000
0001
0000
0000
,
0000
1000
0000
1000
,
0000
1000
0000
0000
,
0000
0010
0000
0010
,
0000
0010
0000
0000
,
0000
0100
0000
0100
,
0000
0110
0000
0000
,
0000
1001
0000
0000
,
0000
1000
0000
0000
,
0000
0000
0000
0000
,
0000
0001
0000
0000
,
0000
0000
0000
0000
,
0000
0100
0000
0000
,
0000
0000
0000
0000
,
0000
0010
0000
0000
,
0000
0000
0000
0000
,
0000
1000
0000
1000
,
0000
0001
0000
0001
,
0000
0100
0000
0100
,
0000
0010
0000
0010
,
0000
1000
0000
0100
,
0000
0010
0000
0001
,
0000
1000
0000
0001
,
0000
1000
0000
1001
,
0000
0000
1000
0000
,
0000
0000
0001
0000
,
0000
0000
0100
0000
,
0000
0000
0010
0000
,
0000
0000
1000
0000
,
0000
0000
0100
0000
,
0000
0000
0010
0000
,
0000
0000
0001
0000
,
0000
0000
0000
0000
,
0000
0000
1001
0000
,
0000
0000
0000
0000
,
0000
0000
1001
0000
,
0000
0000
0000
0000
,
0000
0000
1001
0000
,
0000
0000
0000
0000
,
0000
0000
1001
0000
,
0001
0000
0100
0000
,
0100
0000
0010
0000
,
0010
0000
1000
0000
,
1000
0000
0001
0000
,
0001
0000
0010
0000
,
0010
0000
0100
0000
,
0000
0000
1000
0000
,
0000
0000
1001
1001
,
0000
0000
1000
0000
,
0000
0000
1000
0000
,
0000
0000
0001
0000
,
0000
0000
0001
0000
,
0000
0000
0100
0000
,
0000
0000
0100
0000
,
0000
0000
0010
0000
,
0000
0000
0010
0000
,
0000
0000
1000
1000
,
1000
0000
0001
0000
,
0001
0000
0001
0001
,
0001
0000
0100
0000
,
0100
0000
0100
0100
,
0100
0000
0010
0000
,
0010
0000
0010
0010
,
0010
0000
0010
0010
,
0010
0000
0010
0010
,
0010
0000
1000
0000
,
1000
0000
1000
1000
,
1000
0000
0001
0000
,
0001
0000
0001
0001
,
0001
0000
0100
0000
,
0100
0000
0100
0100
,
0100
0000
0100
0100
,
0100
0000
0010
0010
,
0010
0000
1000
0000
,
1000
0000
1000
1000
,
1000
0000
0100
0000
,
0100
0000
0100
0100
,
0100
0000
0010
0000
,
0010
0000
0001
0001
,
0001
0000
0001
0001
,
0001
0000
0001
0001
,
0001
0000
0100
0000
,
0100
0000
0010
0010
,
0010
0000
1000
0000
,
1000
0000
0001
0001
,
0001
0000
0100
0000
,
0100
0000
0010
0010
,
0010
0000
1000
1000
,
1000
0000
1001
0000
,
0000
0000
1001
0000
,
0000
0000
0001
0001
,
0001
0001
0001
0000
,
0001
0000
0001
0000
,
1001
0000
1000
0000
,
0010
0000
0010
0000
,
0100
0000
0100
0000
,
0001
0000
0001
0000
,
0010
0000
0010
0000
,
0100
0000
0100
0000
,
1000
0000
1000
0000
,
0010
0000
0010
0000
,
0100
0000
0100
0000
,
0001
0000
0001
0000
,
1000
0000
1000
0000
,
0100
0000
0100
0000
,
0010
0000
0000
0000
,
0001
0000
0000
0000
,
1001
1001
0000
0000
,
1000
0000
0000
0000
,
1000
0000
0000
0000
,
0001
0000
0000
0000
,
0001
0000
0000
0000
,
0100
0000
0000
0000
,
0100
0000
0000
0000
,
0010
0000
0000
0000
,
0100
0000
0000
0000
,
1001
1001
0000
0000
,
1001
0000
0000
0000
,
0000
0000
0000
0000
,
1001
0000
0000
0000
;
