#TITLE:My Life;
#SUBTITLE:;
#ARTIST:Sekken-ya;
#TITLETRANSLIT:;
#SUBTITLETRANSLIT:;
#ARTISTTRANSLIT:;
#CREDIT:;
#BANNER:My Life.png;
#BACKGROUND:My Life-bg.png;
#LYRICSPATH:;
#CDTITLE:cdtitlegpop.png;
#MUSIC:My Life.ogg;
#OFFSET:-0.060;
#SAMPLESTART:76.593;
#SAMPLELENGTH:12.000;
#SELECTABLE:YES;
#BPMS:0.000=185.000;
#STOPS:;
#BGCHANGES:0.000=My Life.avi=1.000=1=1=0,
99999=-nosongbg-=1.000=0=0=0 // don't automatically add -songbackground-
;

//---------------dance-single - ----------------
#NOTES:
     dance-single:
     :
     Challenge:
     9:
     0.768,0.841,0.239,0.609,0.030: // measure 1
0000
0000
0000
0000
,  // measure 2
0000
0000
0000
0000
,  // measure 3
0000
0000
0000
0000
,  // measure 4
0000
0000
0000
0000
,  // measure 5
0000
0000
0000
0000
,  // measure 6
0000
0000
0000
0000
,  // measure 7
0000
0000
0000
0000
,  // measure 8
0000
0000
0000
0000
,  // measure 9
0000
0000
0000
0000
,  // measure 10
1000
0100
0010
0001
0010
0100
1000
1000
,  // measure 11
1000
0100
0010
0001
0010
0001
0001
0001
,  // measure 12
1000
0100
0010
0001
0010
0100
1000
1000
,  // measure 13
1000
0100
0010
0001
0010
0001
0001
0001
,  // measure 14
1000
0100
0010
0001
0010
0100
1000
1000
,  // measure 15
1000
0100
0010
0001
0010
0001
0001
0001
,  // measure 16
1000
0100
0010
0001
0010
0100
1000
1000
,  // measure 17
1000
0100
0010
0001
0010
0001
0001
0001
,  // measure 18
1001
1000
0010
0100
0001
0001
0100
0010
,  // measure 19
1000
1000
0010
0100
0000
0001
0000
1000
,  // measure 20
0002
1000
2003
0000
3020
0100
0230
0000
,  // measure 21
0302
1000
0000
1000
1003
0100
1000
0000
,  // measure 22
1000
1000
0100
0010
0100
0100
0010
0001
,  // measure 23
0010
0010
0100
1000
0000
0001
1000
0010
,  // measure 24
0020
1000
2030
0000
3200
0010
0320
0000
,  // measure 25
0032
1000
0000
1000
1003
0100
0010
0001
,  // measure 26
2001
0000
0001
0001
0000
3010
0200
0000
,  // measure 27
0302
0000
1000
1000
0000
1003
0100
0010
,  // measure 28
0012
0000
0010
0010
0000
0000
0010
0023
,  // measure 29
0000
0130
2000
0010
3020
0000
1030
0000
,  // measure 30
2100
0000
0100
0100
0000
3100
0020
0000
,  // measure 31
0032
0000
1000
1000
0000
1003
0100
1000
,  // measure 32
1020
0000
0100
0100
0000
0000
0100
0230
,  // measure 33
0000
0301
2000
0100
3200
0000
0310
0001
,  // measure 34
0011
0001
0100
0010
1000
1000
0010
0100
,  // measure 35
0001
0001
1000
0100
0000
0010
0000
0001
,  // measure 36
0100
0100
0020
0000
1030
1000
0002
1000
,  // measure 37
1003
1000
0000
1000
0100
0010
0001
1000
,  // measure 38
0001
0001
0100
0010
1000
1000
0010
0100
,  // measure 39
0001
0001
0010
0100
0000
1000
0100
1000
,  // measure 40
0020
0100
0230
0000
0302
1000
2003
0000
,  // measure 41
3002
1000
0000
1000
1000
1003
1000
0100
,  // measure 42
0021
0000
0001
0001
0000
0130
2000
0000
,  // measure 43
3020
0000
0100
0100
0000
0130
0001
1000
,  // measure 44
1002
0000
1000
1000
0000
0000
1003
0020
,  // measure 45
0000
0130
0002
1000
2003
0000
3001
1000
,  // measure 46
2001
0000
0001
0001
0000
3001
0200
0000
,  // measure 47
0320
0000
1000
1000
0000
1030
0100
1000
,  // measure 48
0102
0000
0100
0100
0000
0000
0103
0020
,  // measure 49
0000
1030
0200
0010
0320
0000
0031
0000
,  // measure 50
1001
0000
1000
0010
0100
0100
0000
0100
,  // measure 51
0010
1000
0010
0100
0001
1000
0000
1000
,  // measure 52
0001
0001
0100
0010
1000
1000
0100
0020
,  // measure 53
0001
0001
0000
0031
0000
0100
0020
0100
,  // measure 54
0230
0001
0301
0010
0100
0100
0000
0100
,  // measure 55
1000
1000
0010
0100
0001
0010
0000
0010
,  // measure 56
0110
0100
0110
0010
0110
0100
0110
0010
,  // measure 57
0011
0001
0011
0020
0001
0000
0031
1000
,  // measure 58
1001
1000
0010
0110
0100
0001
1001
1000
,  // measure 59
0001
0001
0001
0002
0000
2003
0000
0000
,  // measure 60
3001
0001
0100
0010
1000
0010
0100
0100
,  // measure 61
0100
0001
0010
0001
2000
01M0
010M
31M0
,  // measure 62
001M
0010
0001
0100
0010
1000
0010
0010
,  // measure 63
0010
0100
0001
1000
0002
01M0
M100
01M3
,  // measure 64
M101
0001
0100
0010
1000
0010
0100
0001
,  // measure 65
0010
1000
0010
0002
1000
0000
1003
0001
,  // measure 66
0001
0100
0001
0100
0010
1000
0001
0010
,  // measure 67
0100
1000
0001
0002
0000
2003
0001
3001
,  // measure 68
1001
0001
0100
0010
1000
0010
0100
0100
,  // measure 69
0100
0001
0010
0100
2000
0M10
001M
3M10
,  // measure 70
010M
0100
0001
0100
0010
1000
0010
0010
,  // measure 71
0010
0100
0001
0010
0002
10M0
1M00
10M3
,  // measure 72
1M01
0000
0001
0100
0010
0010
0100
0001
,  // measure 73
1000
0001
0000
2000
0001
0000
3001
0100
,  // measure 74
0100
0010
1000
1000
0100
0010
0001
0010
,  // measure 75
0001
0100
0010
1000
0010
0100
0001
0000
1000
0000
0001
0000
,  // measure 76
2002
0000
0000
0000
,  // measure 77
0000
0000
0000
0000
0000
3003
0000
0000
;

//---------------dance-single - ----------------
#NOTES:
     dance-single:
     :
     Hard:
     8:
     0.593,0.650,0.160,0.200,0.010:
0000
0000
0000
0000
,
0000
0000
0000
0000
,
0000
0000
0000
0000
,
0000
0000
0000
0000
,
0000
0000
0000
0000
,
0000
0000
0000
0000
,
0000
0000
0000
0000
,
0000
0000
0000
0000
,
0000
0000
0000
0000
,
1000
0100
0010
0001
0100
0010
1000
0010
,
0100
0001
0100
0010
1000
0001
0100
0001
,
0100
0010
1000
0010
0100
0001
0010
0100
,
1000
0100
0010
0001
0010
0001
1000
0001
,
1000
0010
0100
0001
0100
0010
1000
0100
,
0010
0001
0010
0100
1000
0001
1000
0001
,
1000
0010
0100
0001
0100
0010
0100
0001
,
0010
0100
1000
0001
1000
0100
1000
0100
,
1000
1000
0100
0000
0001
0001
0100
0000
,
0010
0010
1000
0001
0000
1000
0000
0010
,
0100
0100
0001
0000
1000
1000
0100
0000
,
0010
0001
0000
1000
0010
1000
0010
0100
,
0001
0001
1000
0000
0100
0100
0010
0000
,
0001
0001
0100
0010
0000
1000
0000
0010
,
0100
0100
0001
0000
1000
1000
0100
0000
,
0001
0001
1000
0001
0100
0100
0010
1000
,
0002
0000
0000
0000
0000
1000
1000
0000
,
2003
0000
0000
0000
0000
0100
3100
0010
,
0002
0000
0000
0000
0000
0000
0000
1003
,
0000
0010
0100
0000
0001
0000
1001
1000
,
0002
0000
0000
0000
0000
1000
1000
0000
,
2003
0000
0000
0000
0000
0100
3100
0010
,
0200
0000
0000
0000
0000
0000
0300
0010
,
0000
0001
0100
0000
0020
0000
1000
0000
,
1030
1000
0100
0000
0010
0010
0001
0000
,
0100
0100
0010
1000
0000
0001
0000
0100
,
0010
0010
1000
0000
0001
0001
0010
0000
,
0100
0100
0000
1000
1000
0100
0010
0001
,
1000
1000
0010
0000
0100
0100
0001
0000
,
1000
1000
0010
0100
0000
0001
0000
0010
,
0100
0100
1000
0000
0100
0100
0010
0000
,
0001
0001
0000
0100
0100
0010
1000
0010
,
0200
0000
0000
0000
0000
0001
0001
0000
,
0302
0000
0000
0000
0000
1000
1003
0100
,
2000
0000
0000
0000
0000
0000
3000
0001
,
0000
0100
0010
0000
1000
0000
1001
0001
,
0200
0000
0000
0000
0000
0010
0010
0000
,
0320
0000
0000
0000
0000
1000
1030
0100
,
0020
0000
0000
0000
0000
0000
0030
0001
,
0000
0100
0010
0000
1000
0000
1001
0000
,
0101
0000
0100
0010
0000
1000
0000
0010
,
0100
0001
0000
0010
0000
0100
0000
1000
,
0100
1000
0000
0001
0100
0001
0000
0100
,
0000
0010
0000
1000
0000
0001
1000
0000
,
1001
0001
0000
0100
0000
0010
0000
1000
,
0010
0100
0000
0001
0000
0010
0000
0100
,
1100
1100
1100
1100
,
1001
1001
1001
1001
,
0101
0000
0100
0110
0000
0010
1010
0000
,
1000
0001
1000
0001
0000
2000
0000
0000
,
3001
0100
0010
1000
0010
0100
0001
0010
,
0001
0100
0010
1000
0001
0100
0001
0100
,
0001
0010
0100
1000
0100
0010
0100
1000
,
0010
0100
0001
0100
0010
1000
0010
1000
,
0010
0100
0010
0100
0001
0010
0100
1000
,
0100
1000
0010
0200
0000
0000
0000
0301
,
0000
1000
0100
1000
0010
0100
0001
0100
,
0010
1000
0002
0000
0000
2003
0000
0000
,
3001
0100
0001
0100
0010
1000
0010
0100
,
0001
0010
0100
1000
0001
0100
0001
0100
,
0001
0010
0100
0010
0001
0100
0010
1000
,
0100
1000
0010
0100
0001
1000
0001
1000
,
0001
0000
0100
0010
1000
0010
0100
0001
,
1000
0100
0000
0200
0000
0000
0300
0010
,
0000
0001
0100
0000
0001
0010
0001
0100
,
0010
0000
0000
1000
0000
0000
0001
0000
0000
1000
0000
0000
0001
0000
0000
0000
1000
0000
0000
0000
0002
0000
0000
0000
,
2000
0000
0000
0000
,
0000
0000
0000
0000
0000
3003
0000
0000
;

//---------------dance-single - ----------------
#NOTES:
     dance-single:
     :
     Medium:
     6:
     0.450,0.573,0.130,0.190,0.000:
0000
0000
0000
0000
,
0000
0000
0000
0000
,
0000
0000
0000
0000
,
0000
0000
0000
0000
,
0000
0000
0000
0000
,
0000
0000
0000
0000
,
0000
0000
0000
0000
,
0000
0000
0000
0000
,
0000
0000
0000
0000
,
1000
0100
1000
0000
0001
0100
0010
0000
,
1000
0100
0010
0001
1000
0000
0001
0000
,
1000
0010
0100
0000
0001
0100
0010
0000
,
1000
0100
1000
0010
0100
0000
0001
0000
,
1000
0100
0010
0000
0001
0010
0001
0000
,
0100
0010
0100
0001
1000
0000
0100
0000
,
1000
0100
1000
0000
0010
0100
0001
0000
,
0100
0010
0100
0001
0010
0000
0100
0000
,
1000
1000
0000
0000
0010
0010
0000
0000
,
0100
0100
0000
0001
0000
1000
0000
0001
,
0100
0100
0000
0000
0010
0010
0000
0000
,
1000
1000
0000
0000
0001
0001
0000
0000
,
0100
0100
0000
0000
0010
0010
0000
0000
,
1000
1000
0000
0001
0000
0001
0000
0001
,
0100
0100
0000
0000
0010
0010
0000
0000
,
1000
1000
0000
0000
0001
0001
0000
0000
,
2000
0000
0000
3001
,
0200
0000
0000
0310
,
2000
0000
0000
0000
0000
0000
3000
0001
,
0000
0100
0020
0000
,
0230
0000
0000
0301
,
0002
0000
0000
0013
,
0020
0000
0000
0000
0000
0000
0030
0100
,
0000
1000
0100
1000
,
0001
0100
0000
0000
0010
1000
0000
0000
,
0010
0100
0000
0001
0000
0010
0000
0001
,
0100
0010
0000
0000
1000
0100
0000
0000
,
0010
0001
0000
0100
0010
1000
0001
0000
,
1000
0100
0000
0000
1000
0100
0000
0000
,
0010
0001
0000
0010
0000
0001
0000
0010
,
0100
1000
0000
0000
0100
1000
0000
0000
,
0001
0100
0000
0010
1000
0010
0100
0000
,
0002
0000
0000
1003
,
0200
0000
0000
0310
,
0002
0000
0000
0000
0000
0000
0003
0100
,
0000
0010
2000
0000
,
3020
0000
0000
0130
,
0002
0000
0000
0013
,
0200
0000
0000
0000
0000
0000
0300
1000
,
0000
0010
0100
0001
,
1001
0000
1000
0100
1000
0000
0000
0001
,
0100
0000
0010
0100
0001
0000
0000
0000
,
1000
0100
1000
0000
0001
0100
0001
0000
,
1000
0100
1000
0010
,
0100
0000
0001
1000
0001
0000
0000
1000
,
0100
0000
0001
0010
0001
0000
0000
0000
,
1100
1100
1100
1100
,
1001
1001
1001
1001
,
0101
0000
0000
0110
0000
0000
1010
0000
,
1000
0001
1000
0002
0000
1000
0000
0000
,
1003
0100
1000
0000
0001
0100
0001
0000
,
1000
0010
0100
0001
1000
0000
0000
0000
,
0001
0100
0010
0000
1000
0010
0100
0000
,
0001
0010
0100
1000
0001
0000
0000
0000
,
1000
0000
0100
0000
0010
0001
0100
0000
,
0010
1000
0010
0100
0000
0000
0001
0000
,
1000
0000
0010
0000
0100
0001
0100
0000
,
0010
1000
0020
0000
0000
1000
0000
0000
,
1030
0100
0010
0000
0001
0010
0100
0000
,
1000
0010
0100
0001
1000
0000
0001
0000
,
0100
0010
1000
0000
0010
0100
0001
0000
,
1000
0100
1000
0001
1000
0000
0010
0000
,
0100
0000
0001
0000
0100
0010
1000
0000
,
0010
0100
0000
0020
0000
0000
1000
0000
,
1030
0000
0010
0000
0100
0001
1000
0000
,
0001
0010
0100
1000
0001
0000
1000
0000
,
2002
0000
0000
0000
,
0000
0000
0000
0000
0000
3003
0000
0000
;

//---------------dance-single - ----------------
#NOTES:
     dance-single:
     :
     Easy:
     4:
     0.274,0.306,0.050,0.229,0.000:
0000
0000
0000
0000
,
0000
0000
0000
0000
,
0000
0000
0000
0000
,
0000
0000
0000
0000
,
0000
0000
0000
0000
,
0000
0000
0000
0000
,
0000
0000
0000
0000
,
0000
0000
0000
0000
,
0000
0000
0000
0000
,
1000
0000
0001
0000
,
0100
0010
1000
1000
,
0001
0000
0100
0000
,
0010
1000
0010
0100
,
0100
0000
0001
0000
,
0010
0100
1000
0010
,
0010
0000
0100
0000
,
0001
0100
0010
1000
,
1000
0000
0001
0000
,
0100
0000
0010
0000
,
1000
1000
0001
0001
,
0200
0000
0300
0000
,
0010
0000
1000
0000
,
0010
0000
0100
0000
,
0010
0010
0100
0100
,
0002
0000
0003
0000
,
2000
0000
3000
0000
,
0002
0000
0003
0000
,
0200
0000
0300
0000
,
0010
1000
0010
0000
,
0200
0000
0300
0000
,
0002
0000
0003
0000
,
0020
0000
0030
0000
,
0100
1000
0010
0000
,
1000
0000
0001
0000
,
0100
0000
0010
0000
,
1000
1000
0010
0010
,
0200
0000
0300
0000
,
0001
0000
0010
0000
,
0100
0000
1000
0000
,
0001
0001
0100
0100
,
0020
0000
0030
0000
,
2200
0000
3300
0000
,
0200
0000
0300
0000
,
0220
0000
0330
0000
,
0001
0100
0010
0000
,
0202
0000
0303
0000
,
0020
0000
0030
0000
,
2002
0000
3003
0000
,
1000
0001
0100
0000
,
0010
0010
1000
0000
,
0001
0001
0010
0000
,
1000
0100
1000
0010
,
0200
0000
0300
0000
,
0001
0001
0010
0000
,
0100
1000
0010
0000
,
0100
0100
0100
0100
,
0001
0001
0001
0001
,
1000
0000
0000
1000
0000
0000
1000
0000
,
1000
0000
0000
1000
0000
1000
0000
0000
,
1000
0100
0010
0001
,
0100
0010
1000
0000
,
0001
0100
0010
1000
,
0010
0100
0001
0000
,
1000
0000
0100
0000
,
0010
0001
0100
0000
,
0001
0000
0100
0000
,
0010
0000
1000
0000
0000
0010
0000
0000
,
1000
0100
0010
0001
,
0100
0010
1000
0000
,
0001
0100
0010
1000
,
0010
0100
0001
0000
,
1000
0000
0010
0000
,
0100
0001
1000
0000
,
0001
0000
0010
0000
,
0100
1000
0010
0000
,
2002
0000
0000
0000
,
0000
0000
0000
0000
0000
3003
0000
0000
;

//---------------dance-single - ----------------
#NOTES:
     dance-single:
     :
     Beginner:
     1:
     0.138,0.262,0.030,0.000,0.000:
0000
0000
0000
0000
,
0000
0000
0000
0000
,
0000
0000
0000
0000
,
0000
0000
0000
0000
,
0000
0000
0000
0000
,
0000
0000
0000
0000
,
0000
0000
0000
0000
,
0000
0000
0000
0000
,
0000
0000
0000
0000
,
1000
0000
0000
0000
,
1000
0000
0000
0000
,
0001
0000
0000
0000
,
0001
0000
0000
0000
,
0100
0000
0000
0000
,
0100
0000
0000
0000
,
0010
0000
0000
0000
,
0010
0000
0000
0000
,
1000
0000
1000
0000
,
0100
0000
0000
0000
,
0010
0000
0010
0000
,
0001
0000
0000
0000
,
0100
0000
0100
0000
,
0010
0000
0000
0000
,
1000
0000
1000
0000
,
0010
0000
0000
0000
,
0100
0000
0000
0000
,
0100
0000
0000
0000
,
0100
0000
0000
0000
,
0000
0000
0000
0000
,
0001
0000
0000
0000
,
0001
0000
0000
0000
,
0001
0000
0000
0000
,
0000
0000
0000
0000
,
1000
0000
1000
0000
,
0010
0000
0000
0000
,
0100
0000
0100
0000
,
0001
0000
0000
0000
,
0010
0000
0100
0000
,
0010
0000
0000
0000
,
1000
0000
0010
0000
,
0100
0000
0000
0000
,
0001
0000
0000
0000
,
0001
0000
0000
0000
,
0100
0000
0000
0000
,
0000
0000
0000
0000
,
0010
0000
0000
0000
,
0010
0000
0000
0000
,
1000
0000
0000
0000
,
0000
0000
0000
0000
,
0001
0000
0100
0000
,
0001
0000
0001
0000
,
0010
0000
0010
0000
,
0100
0000
0000
0000
,
0100
0000
0100
0000
,
1000
0000
1000
0000
,
0001
0001
0001
0001
,
0001
0001
0001
0001
,
0001
0000
0000
0000
,
1001
0000
0000
0000
,
1001
0000
1000
0000
,
1000
1000
1000
0000
,
0010
0000
0010
0000
,
0010
0010
0010
0000
,
0100
0000
0000
0000
,
0001
0000
0000
0000
,
1000
0000
0000
0000
,
0001
0000
0000
0000
,
0100
0000
0100
0000
,
0100
0100
0100
0000
,
0001
0000
0001
0000
,
0001
0001
0001
0000
,
1000
0000
0000
0000
,
0010
0000
0000
0000
,
0100
0000
0000
0000
,
0001
0000
0000
0000
,
1001
0000
0000
0000
;
