#TITLE:Bad Apple!!;
#SUBTITLE:;
#ARTIST:Alstroemeria Records;
#TITLETRANSLIT:;
#SUBTITLETRANSLIT:;
#ARTISTTRANSLIT:;
#CREDIT:;
#BANNER:Bad Apple!!.png;
#BACKGROUND:Bad Apple!!-bg.png;
#LYRICSPATH:;
#CDTITLE:cdtitlegpop.png;
#MUSIC:BAD APPLE!!.ogg;
#OFFSET:1.660;
#SAMPLESTART:27.900;
#SAMPLELENGTH:12.000;
#SELECTABLE:YES;
#BPMS:0.000=138.000,35.000=276.001,36.000=138.000,196.000=69.000,226.000=34.500,227.000=138.000,387.000=69.000;
#STOPS:35.000=0.217
;
#BGCHANGES:1.000=Bad Apple!!.avi=1.000=1=0=1,
99999=-nosongbg-=1.000=0=0=0 // don't automatically add -songbackground-
;

//---------------dance-single - ----------------
#NOTES:
     dance-single:
     :
     Easy:
     2:
     0.190,0.221,0.032,0.009,0.000:
0000
0000
0000
0000
,
0000
0000
0000
0000
,
0000
0000
0000
0000
,
0000
0000
0000
0000
,
0000
0000
0000
0000
,
0000
0000
0000
0000
,
0000
0000
0000
0000
,
0000
0000
0000
0000
,
0000
0000
0000
0000
,
1000
0000
0010
0000
,
0100
0000
0001
0010
,
0100
0000
1000
0000
,
0010
0000
0100
0001
,
1000
0000
0001
0000
,
0010
0000
0100
0100
,
0010
0000
0001
0000
,
0100
0000
0010
1000
,
0001
0010
0001
0000
,
1000
0000
0010
0100
,
0001
1000
0001
0000
,
0100
0010
1000
1000
,
0001
0010
0100
0000
,
1000
0000
0010
0100
,
0001
0100
0001
0000
,
1000
1000
0001
0001
,
0100
0010
1000
0000
,
0001
0000
1000
0100
,
1000
0010
0100
0000
,
0001
0100
0001
0100
,
0010
1000
0001
0000
,
1000
0000
0001
0010
,
0100
1000
0100
0000
,
1000
1000
0001
0001
,
1001
0000
1000
0000
,
0010
0000
0100
0000
,
0001
0000
0010
0000
,
0100
0000
1000
0000
,
1001
0000
0001
0000
,
0100
0000
0010
0000
,
1000
0000
0010
0000
,
0100
0000
0001
0000
,
1001
1000
1000
1000
,
0010
0010
0010
0010
,
0100
0100
0100
0100
,
0001
0001
0001
0001
,
1000
0100
1000
0100
,
0010
0001
0010
0001
,
1000
0010
1000
0010
,
0100
0001
0100
0001
,
1000
0000
0100
0000
,
0010
0000
0001
0000
,
0100
0000
0010
0000
,
1000
0000
0001
0000
,
0010
0000
0100
0000
,
1000
0000
0010
0000
,
0100
0000
0001
0000
,
1000
0000
1001
1000
,
0000
0010
0000
0100
,
0000
0001
0010
0001
,
0000
0100
0000
0010
,
0000
1000
0100
1000
,
0000
0010
0000
0100
,
0000
0001
0010
0100
,
0000
1000
0000
0100
,
0000
0010
0001
1000
,
0010
0100
0000
0001
,
0000
0100
0010
1000
,
0100
1000
0000
0010
,
0100
0001
0100
0010
,
1000
0001
0000
0010
,
0000
0100
1000
0100
,
0010
0001
0000
0100
,
0100
0010
0010
1000
,
0100
1000
0000
0010
,
0000
0100
0001
1000
,
0100
0010
0000
0001
,
0010
0100
1000
0010
,
0100
0001
0000
1000
,
0000
0100
0010
0001
,
0100
0010
0000
1000
,
1000
0001
0001
1001
,
1000
0010
0000
0100
,
0001
1000
0000
0001
,
0010
0100
0000
1000
,
0100
0010
0000
0001
,
0100
1000
0000
0100
,
0001
1000
0000
0001
,
0010
0100
0000
1000
,
0100
0010
0000
0011
,
0001
0001
0001
0100
,
0100
0100
0100
0010
,
0010
0010
0010
1000
,
1000
1000
1000
0001
,
1000
0001
1000
0010
,
0100
0010
0100
0001
,
0010
0100
1000
0100
,
0010
0001
1000
0001
,
0000
0100
0000
0010
,
0000
1000
0000
0001
,
0000
0010
0000
0100
,
0000
1000
0000
0100
,
0000
0010
0000
0001
,
0000
0100
0000
0010
,
0000
1000
0000
0001
,
0000
1000
0000
2002
,
0000
0000
0000
0000
,
0000
0000
0000
3003
;

//---------------dance-single - ----------------
#NOTES:
     dance-single:
     :
     Challenge:
     9:
     0.700,0.907,0.381,0.294,0.540: // measure 1
0000
0000
0000
0000
,  // measure 2
0000
0000
0000
0000
,  // measure 3
0000
0000
0000
0000
,  // measure 4
0000
0000
0000
0000
,  // measure 5
0000
0000
0000
0000
,  // measure 6
1000
0000
0000
0000
0100
0000
0000
0000
0010
0000
0000
0000
0001
1000
0001
1000
,  // measure 7
0001
0000
0100
0000
0010
0000
1000
1000
,  // measure 8
1000
0000
0000
0000
0100
0000
0000
0000
0010
0000
0000
0000
0001
0100
0001
0100
,  // measure 9
0001
0100
0010
1001
,  // measure 10
1001
0000
1000
0100
0000
0100
0010
0001
0100
0000
0010
1000
0000
1000
0100
0010
,  // measure 11
0001
0000
0100
0010
0000
0010
0100
0010
1000
0000
0001
0010
0100
0000
1000
0100
,  // measure 12
1000
0000
0001
0100
0000
0100
0010
1000
0001
0000
0010
0100
0000
0100
1000
0010
,  // measure 13
0100
0000
0001
0010
0000
0001
0100
0010
1000
0000
0001
1000
0001
0000
0100
0010
,  // measure 14
1000
0000
0001
0010
0000
0100
1000
0010
0100
0000
0001
0100
0000
0010
1000
0010
,  // measure 15
0100
0000
0001
0010
0000
0100
1000
0100
0010
0000
0001
0100
0010
0000
1000
0100
,  // measure 16
1000
0000
0001
0100
0000
0010
1000
0010
0100
0000
0001
0010
0000
0100
1000
0100
,  // measure 17
1000
0000
0000
0000
0000
0000
0010
0000
0000
0100
0000
0000
0000
0000
0000
0001
0000
0000
0100
0000
0000
0010
0000
0000
1000
0000
0000
0000
0100
0000
0000
0000
0010
0000
0000
0000
0001
0000
0000
0000
0100
0000
0000
0000
0010
0000
0000
0000
,  // measure 18
1000
0010
0100
0001
2000
0000
3001
0100
,  // measure 19
0002
0000
0203
0000
0310
1000
0010
0100
,  // measure 20
0001
0010
0100
0010
0002
0000
1003
0100
,  // measure 21
1000
0010
0100
0001
0100
0010
1000
0001
,  // measure 22
1001
1000
0100
0010
0002
0000
0103
0010
,  // measure 23
2000
0000
3020
0000
0130
0001
0100
0010
,  // measure 24
1000
0100
0010
0001
0020
0000
0130
1000
,  // measure 25
0010
0000
0000
00M0
0000
0000
0100
0000
0000
0M00
0000
0000
0001
0000
0100
0000
0010
0000
1000
0000
0100
0000
0010
0000
,  // measure 26
0001
0010
0100
1000
0020
0000
0130
0001
,  // measure 27
2000
0000
3200
0000
0310
0001
0010
0100
,  // measure 28
1000
0100
1000
0010
0002
0000
0013
1000
,  // measure 29
0100
0100
0010
0001
0100
0010
1000
0010
,  // measure 30
1010
1000
0010
0100
0002
0000
0013
0100
,  // measure 31
2000
0000
3020
0000
0130
0001
0100
1000
,  // measure 32
0100
0001
0010
0100
2000
0000
3100
0010
,  // measure 33
MM11
M11M
11MM
1MM1
,  // measure 34
0101
0100
0010
1000
0001
0000
1000
0100
,  // measure 35
0010
0001
0100
0010
1000
0000
0001
0010
,  // measure 36
0100
1000
0100
0010
0001
0000
1000
0010
,  // measure 37
0100
0001
0100
0010
2000
0001
3001
0100
,  // measure 38
0110
0010
1000
0010
0100
0000
0001
0010
,  // measure 39
0100
1000
0100
0010
0001
0000
1000
1000
,  // measure 40
0001
0100
1000
0100
0001
0000
1000
0100
,  // measure 41
0010
0000
0000
0001
0000
0000
0010
0000
0000
0001
0000
0000
1000
0000
0100
0000
1000
0000
0001
0000
0100
0000
0001
0000
,  // measure 42
1001
1000
1001
0001
1001
0000
1100
0100
,  // measure 43
1100
1000
1100
0100
1100
0000
0101
0100
,  // measure 44
0101
0001
0101
0100
0101
0000
1001
0001
,  // measure 45
1001
1000
1001
0001
1001
1000
1100
0100
,  // measure 46
0110
0010
0110
0100
0110
0000
0011
0010
,  // measure 47
0011
0001
0011
0010
0011
0000
1010
1000
,  // measure 48
1010
0010
1010
1000
1010
0000
1001
1000
,  // measure 49
1100
0000
0000
0100
0000
0000
0110
0000
0000
0010
0000
0000
0011
0000
0001
0000
0100
0000
0010
0000
1000
0000
0010
0000
,  // measure 50
1000
0100
1000
0010
0200
0000
0301
0010
0001
0100
0010
1000
0002
0000
1003
0100
,  // measure 51
1000
0010
0001
0010
2000
0000
3100
1000
0100
0010
0001
0100
0020
0000
1030
0010
,  // measure 52
0100
0001
1000
0100
2000
0000
3010
0100
0001
0100
0010
1000
0002
0000
1003
0100
,  // measure 53
1000
1000
0010
0100
0002
0000
0013
0010
0100
1000
0100
0010
0002
0000
1003
0100
,  // measure 54
1100
0100
0010
0010
0002
0100
0103
0010
1000
0010
0100
0100
0002
1000
1003
0100
,  // measure 55
1000
0100
0010
0010
0002
1000
1003
0010
0100
0001
0100
0010
2000
0100
3100
0010
,  // measure 56
0001
0001
0100
0100
0020
1000
1030
0010
0100
0001
0100
0100
0020
0100
0130
0001
,  // measure 57
1000
0000
0100
0000
0010
0000
0010
0000
0002
0000
0100
0000
0103
0000
0010
0000
1000
0010
0100
0001
2001
0000
3002
0000
1003
0000
0000
0000
0001
0000
0100
0000
,  // measure 58
0000
0010
1000
0010
0100
0000
0001
0010
0000
0100
1000
0100
0010
0000
0001
1000
,  // measure 59
0000
0001
0100
0010
1000
0000
0100
0010
0001
0000
0010
0100
1000
0000
0100
0010
,  // measure 60
0000
0100
1000
0010
0100
0000
0001
0100
0000
0010
1000
0001
0100
0000
0001
0100
,  // measure 61
0000
0010
1000
0010
0100
0000
0001
0010
0001
0000
1000
0100
1000
0000
0010
0100
,  // measure 62
0000
0001
0100
0001
0100
0000
0010
1000
0000
0001
0010
0100
0010
0000
0001
0100
,  // measure 63
0000
0010
1000
0010
0100
0000
0001
1000
0001
0000
1000
0001
1000
0000
0001
1000
,  // measure 64
0000
0001
1000
0001
0100
0000
0010
1000
0000
0010
1000
0010
0100
0000
0001
0010
,  // measure 65
0000
0000
0000
0100
0000
0000
1000
0000
0000
0100
0000
0000
0010
0000
0000
0000
0001
0000
0000
0000
0010
0000
0000
0000
0100
0000
0000
0000
1000
0000
0000
0000
0010
0000
0000
0000
1000
0000
0000
0000
0000
0000
0010
0000
0000
0000
0000
0000
,  // measure 66
0100
0001
2000
0000
3010
0100
0002
0000
,  // measure 67
0023
0000
0130
1000
0100
0010
0001
0100
,  // measure 68
0010
1000
0020
0000
0130
0001
1000
1000
,  // measure 69
0100
0010
0001
0100
0010
1000
1001
0001
,  // measure 70
0100
0010
2000
0000
3010
0100
0002
0000
,  // measure 71
0023
0000
1030
0010
0001
0100
0010
1000
,  // measure 72
0010
0001
0020
0000
1030
0100
0010
00M0
,  // measure 73
0001
0000
0000
000M
0000
0000
0100
0000
0010
0000
1000
0000
0010
0000
0100
0000
0001
0000
1000
0000
0000
0100
0000
0000
,  // measure 74
0010
0001
2000
0000
3010
0001
0020
0000
,  // measure 75
2030
0000
3100
0001
0100
1000
0010
0001
,  // measure 76
0010
0100
0002
0000
1003
0100
1000
0010
,  // measure 77
0100
0001
0010
1000
0010
0001
1001
1000
,  // measure 78
0010
0100
0002
0000
0013
0001
0200
0000
,  // measure 79
0320
0000
1030
0010
0100
0001
0010
0001
,  // measure 80
0100
0010
2000
0000
3010
0100
M1M1
0000
,  // measure 81
M11M
0000
1M1M
0000
1MM1
0000
1100
1000
,  // measure 82
0010
0100
0001
0000
1000
0100
1000
0010
,  // measure 83
0100
0001
1000
0000
0001
0010
0100
0010
,  // measure 84
0001
0100
0010
0000
1000
0010
0100
0001
,  // measure 85
0010
0100
1000
1000
0001
0100
0110
0010
,  // measure 86
1000
0010
0100
0000
0001
0010
0100
1000
,  // measure 87
0100
1000
0010
0000
0100
0001
1000
0001
,  // measure 88
0100
0010
1000
0000
0001
0010
0001
0100
,  // measure 89
0010
0000
0000
1000
0000
0000
0001
0000
0100
0000
0001
0000
1000
0000
0100
0000
1000
0000
1001
0000
0000
1000
0000
0000
,  // measure 90
1001
0001
1001
0000
1100
0100
1100
1000
,  // measure 91
1100
0100
1100
0000
0101
0100
0101
0001
,  // measure 92
0101
0100
0101
0000
1001
0001
1001
1000
,  // measure 93
1001
0001
1001
1000
1100
0100
0110
0010
,  // measure 94
0110
0100
0110
0000
0011
0010
0011
0001
,  // measure 95
0011
0010
0011
0000
1010
1000
1010
0010
,  // measure 96
1010
1000
1020
0000
0130
0001
1001
0001
,  // measure 97
0101
0000
0100
0000
0210
0000
0000
0000
0302
0000
1000
0000
1003
0100
0010
0001
,  // measure 98
0200
0000
0310
1000
0010
0100
0001
0010
0200
0000
1300
0010
0100
0010
0100
0001
,  // measure 99
0020
0000
0130
1000
0100
0010
0001
0100
0020
0000
1030
0100
1000
0010
0100
0001
,  // measure 100
0200
0000
0310
1000
0010
0100
0001
0010
0200
0000
1300
0100
0001
0100
1000
0010
,  // measure 101
0200
0000
0301
0100
1000
0100
0001
0010
0200
0000
1300
0100
0110
0010
0001
0100
,  // measure 102
0010
0000
1000
0010
0100
0001
0010
0100
1000
0000
0100
0010
0001
0100
0010
1000
,  // measure 103
0001
0000
0100
0010
1000
0001
0100
0010
1000
0000
0001
0010
0100
1000
0001
0100
,  // measure 104
0001
0000
1000
0100
1000
0100
0010
0001
1000
0000
0001
0100
0010
0100
0001
0010
,  // measure 105
0200
0000
0000
0000
1300
0000
0010
0000
0100
0000
0001
0000
1000
0000
0001
0000
1000
0000
0000
0000
0000
0000
0000
0000
2001
0000
0001
0000
0000
0001
0000
0000
,  // measure 106
0001
0000
0001
0000
0000
0001
0000
0000
0001
0000
0001
0000
0000
0001
0000
0000
0001
0000
0001
0000
0000
0001
0000
0000
0001
0000
0001
0000
0000
0001
0000
0000
,  // measure 107
0001
0000
0001
0000
0000
0001
0000
0000
0001
0000
0001
0000
0000
0001
0000
0000
0001
0000
0001
0000
0000
0002
0000
0000
3003
0000
0000
0000
0000
0000
0000
0000
;

//---------------dance-single - ----------------
#NOTES:
     dance-single:
     :
     Hard:
     8:
     0.464,0.515,0.023,0.009,0.220:
0000
0000
0000
0000
,
0000
0000
0000
0000
,
0000
0000
0000
0000
,
0000
0000
0000
0000
,
0000
0000
0000
0000
,
0000
0000
0000
0000
,
0000
0000
0000
0000
,
0000
0000
0000
0000
,
0000
0000
0000
0000
,
1000
0000
0000
0100
0000
0000
0010
0000
0001
0000
0000
0100
0000
0000
0010
0000
,
1000
0000
0000
0010
0000
0000
0100
0000
0001
0000
0001
0000
0100
0000
0010
0000
,
1000
0000
0000
0100
0000
0000
0010
0000
0001
0000
0000
0100
0000
0000
0010
0000
,
1000
0000
0000
0010
0000
0000
0100
0000
0001
0000
0001
0000
1000
0000
0100
0000
,
1000
0000
0000
0100
0000
0000
1000
0000
0010
0000
0000
0100
0000
0000
0010
0000
,
0100
0000
0000
0001
0000
0000
0010
0000
0100
0000
0100
0000
1000
0000
0010
0000
,
0100
0000
0000
0001
0000
0000
0010
0000
0001
0000
0000
0100
0000
0000
0010
0000
,
1000
0000
0000
0000
0000
0000
0000
0000
0000
0010
0000
0000
0000
0000
0000
0000
0000
0000
0100
0000
0000
0000
0000
0000
0001
0000
0000
0000
1000
0000
0000
0000
0001
0000
0000
0000
1000
0000
0000
0000
0001
0000
0000
0000
1000
0000
0000
0000
,
0001
0100
0010
1000
0010
0000
0100
0001
,
1000
0000
0001
0000
0010
0100
1000
0100
,
0010
0001
0100
0010
1000
0000
0001
0100
,
0010
1000
0010
0100
0001
0010
0100
1000
,
0001
0001
0100
0010
1000
0000
0001
0100
,
0001
0000
1000
0000
0100
0010
0001
0010
,
0100
1000
0010
0100
0001
0000
1000
0100
,
1000
0000
0000
0010
0000
0000
1000
0100
1000
0100
1000
0100
,
1000
0010
0100
0001
1000
0000
0001
0010
,
0001
0000
0100
0000
0010
1000
0010
0100
,
0001
0001
0010
0001
0100
0000
0010
1000
,
0010
0100
0001
0100
0010
1000
0001
0010
,
0100
0100
1000
0100
0010
0000
0001
0100
,
0010
0000
1000
0000
0010
0100
0001
0010
,
0100
1000
0100
0010
0001
0000
0100
0010
,
1000
0010
0100
0001
,
1001
1000
0010
0100
0001
0000
1000
0100
,
1000
0010
0100
0001
1000
0000
0001
0010
,
0100
0010
0001
0100
0010
0000
1000
0010
,
0100
0001
0100
1000
0100
0000
0001
0010
,
0100
1000
0100
0010
0001
0000
1000
0100
,
0010
0001
0010
0100
1000
0000
0001
0100
,
0010
1000
0010
0100
0001
0000
1000
0010
,
0100
0001
0100
0010
1000
0000
0001
0010
,
0100
0100
1000
1000
0001
0000
1000
1000
,
0010
0010
0100
0100
0001
0000
1000
1000
,
0001
0001
0010
0010
0100
0000
1000
1000
,
0100
0100
0010
0010
0001
0000
1000
1000
,
0010
0010
0100
0100
0001
0000
1000
0010
,
0100
0100
0001
0001
1000
0000
0001
0010
,
0100
0100
1000
1000
0001
0000
0100
0010
,
1000
0000
0000
1000
0000
0000
0010
0000
0000
0010
0000
0000
0100
0000
0001
0000
0100
0000
0001
0000
0100
0000
0001
0000
,
1000
0100
1000
0100
1000
0000
0000
0000
0001
0100
0001
0100
0001
0000
0000
0000
,
1000
0001
1000
0001
1000
0000
0000
0000
0010
0100
0010
0100
0010
0000
0000
0000
,
1000
0100
0010
0001
1000
0000
0000
0000
0001
0100
0010
1000
0001
0000
0000
0000
,
1000
0100
1000
0010
0100
0000
0000
0000
0001
0100
0010
0100
0001
0000
0000
0000
,
1000
0100
0010
0100
1000
0000
0000
0000
0001
0100
0010
0100
0001
0000
0000
0000
,
1000
0100
0010
0001
1000
0000
0000
0000
0001
0100
0010
1000
0001
0000
0000
0000
,
1000
0100
1000
0100
1000
0000
0000
0000
0001
0100
0001
0100
0001
0000
0000
0000
,
1000
0100
0010
0001
1000
0000
0001
1000
1001
0000
1000
0001
1001
0000
0000
0001
,
0000
0000
0100
0000
0010
0000
0000
1000
0000
0000
0010
0000
0100
0000
0000
0001
,
0000
0000
0010
0000
0100
0000
0100
0000
1000
0000
0010
0000
0100
0000
0000
0001
,
0000
0000
0100
0000
0010
0000
0000
1000
0000
0000
0100
0000
0010
0000
0000
0001
,
0000
0000
0010
0000
0100
0000
0100
0000
0010
0000
0001
0000
0100
0000
0000
0010
,
0000
0000
1000
0000
0010
0000
0000
0100
0000
0000
0001
0000
1000
0000
0000
0100
,
0000
0000
0010
0000
0001
0000
0001
0000
0100
0000
0010
0000
1000
0000
0000
0010
,
0000
0000
0100
0000
0001
0000
0000
0010
0000
0000
0100
0000
1000
0000
0000
0010
,
0000
0000
0000
0100
0000
0000
0001
0000
1000
0000
0001
0000
1000
0000
0001
0000
1000
0000
0001
0000
0000
0100
0000
0000
,
0010
1000
0010
0000
0100
0001
1000
0000
,
0010
0000
0100
0001
0010
0100
1000
0100
,
0010
0001
0100
0000
0010
1000
0010
0100
,
0001
0010
0100
1000
0010
0100
0001
0001
,
0010
0001
0100
0000
0010
1000
0010
0000
,
0100
0000
0001
0010
0100
1000
0100
0010
,
0001
0100
0010
0000
1000
0010
0100
0000
,
0001
0000
0000
0000
0000
0000
1000
0000
0100
0000
1000
0000
0100
0000
1000
0000
0100
0000
1000
0000
0000
1000
0000
0000
,
0010
0100
0001
0000
0100
0010
1000
0000
,
0010
0000
0100
0001
0010
0100
1000
0100
,
0010
0001
0100
0000
0010
1000
0010
0100
,
0001
0100
0010
1000
0001
0010
0100
0100
,
1000
0100
0010
0000
0001
0100
0010
0000
,
1000
0000
0010
0100
0001
0010
0100
1000
,
0100
1000
0010
0000
0100
0001
1000
0000
,
0001
0000
0010
0000
0100
0000
1100
1000
,
0010
0100
0001
0000
1000
0100
1000
0010
,
0100
0001
1000
0000
0001
0010
1000
0010
,
0001
0100
0010
0000
1000
0010
0001
0010
,
1000
0100
0010
0000
0001
0010
0100
0001
,
0100
1000
0010
0000
1000
0100
0001
0100
,
1000
0010
0100
0000
0001
0100
0010
1000
,
0100
1000
0010
0000
0100
0001
0010
0100
,
1000
0100
0010
0000
0001
0100
0010
0010
,
1000
1000
0001
0000
1000
0100
1000
1000
,
0010
0010
0100
0000
0001
0100
0010
0010
,
0100
0100
0001
0000
1000
0100
1000
1000
,
0010
0010
0100
0000
0001
0001
0010
0010
,
0100
0100
1000
0000
1000
1000
0100
0100
,
0010
0010
0001
0000
0100
0100
0010
0010
,
1000
1000
0001
0000
1000
0100
0010
0001
,
1000
0000
0001
0000
1000
0000
0000
0000
0001
0000
0100
0000
0001
0100
0001
0100
,
0001
0000
0000
0000
1000
0100
1000
0100
1000
0000
0000
0000
0001
0010
0001
0010
,
0001
0000
0000
0000
1000
0010
1000
0010
1000
0000
0000
0000
0001
1000
0001
1000
,
0001
0000
0000
0000
1000
0001
1000
0001
1000
0000
0000
0000
0010
0100
0010
0100
,
0010
0000
0000
0000
0100
0010
0100
0010
0100
0000
0000
0000
0001
0000
0010
0000
,
0100
0000
1000
0100
1000
0000
0010
0100
,
0001
0000
0000
0000
1000
0000
0001
0000
1000
0000
0000
0000
0001
0000
0100
0010
,
1000
0000
0000
0000
0001
0000
0010
0100
0010
0000
0000
0000
0100
0000
0010
0001
,
1000
0000
0000
0000
0010
0000
0100
0001
1000
0000
0000
0000
2002
0000
0000
0000
,
0000
0000
0000
0000
,
0000
0000
0000
3003
;

//---------------dance-single - ----------------
#NOTES:
     dance-single:
     :
     Medium:
     5:
     0.353,0.417,0.262,0.009,0.002:
0000
0000
0000
0000
,
0000
0000
0000
0000
,
0000
0000
0000
0000
,
0000
0000
0000
0000
,
0000
0000
0000
0000
,
0000
0000
0000
0000
,
0000
0000
0000
0000
,
0000
0000
0000
0000
,
0000
0000
0000
0000
,
1000
0000
0100
0010
0001
0000
0100
0010
,
1000
0000
0001
0010
0100
0000
1000
0000
,
0010
0000
0100
0001
1000
0000
0010
0100
,
0001
0000
1000
0100
0010
0000
0001
0000
,
1000
0000
0100
0010
0001
0000
0100
0010
,
1000
0000
0001
0100
0010
0000
1000
0000
,
0010
0000
0100
0001
1000
0000
0001
0010
,
0100
0000
1000
0100
0010
0001
0010
0001
,
1000
0100
0010
0001
,
0001
0000
0100
0000
0010
0000
1000
0100
,
0100
0010
0001
0100
,
0010
0000
0010
0000
1000
0100
0010
0000
,
0011
0001
0100
0010
,
1000
0000
0010
0000
0100
0000
0001
0001
,
0010
0100
1000
0010
,
0100
0000
0010
0000
1000
0100
0010
0001
,
1000
0010
0100
0001
,
0010
0000
0100
0000
1000
0000
0010
0100
,
0100
0001
0010
0100
,
1000
0000
0010
0000
0100
0001
1000
0000
,
1001
0100
0010
1000
,
0010
0000
0100
0000
0001
0000
0010
0100
,
0100
1000
0100
0010
,
0001
0001
1000
1000
,
1001
0001
0100
0010
,
1000
0000
0010
0000
1000
0000
0010
0100
,
0100
0001
0010
0100
,
1000
0000
0010
0000
0100
0001
1000
0000
,
1001
0001
0100
0010
,
1000
0000
0010
0000
0100
0000
0001
1000
,
1000
0001
0010
0100
,
1000
0000
0010
0000
0100
0001
0100
0010
,
1010
1010
1010
1000
,
1001
0000
1001
0000
1001
0000
0001
0100
,
0101
0101
0101
0100
,
0110
0000
0110
0000
0110
0010
1000
0000
,
1010
1010
1010
1000
,
1001
0000
1001
0000
1001
0000
0001
0010
,
0011
0011
0011
0010
,
0110
0000
0110
0000
0110
0100
1000
0001
,
1000
0100
1000
0000
0010
0100
0001
0000
,
1000
0100
0010
0000
0001
0100
0010
0000
,
1000
0010
0100
0000
0001
0010
0001
0000
,
0100
0010
1000
0000
0010
0100
0001
0000
,
1000
0100
0010
0000
0001
0010
0100
0000
,
1000
0010
0100
0000
0001
0100
0010
0000
,
1000
0100
1000
0000
0001
0100
0001
0000
,
1000
0000
0100
0000
0010
0000
0000
0000
1001
0000
1000
1000
1000
0000
0000
0000
,
0010
0100
0001
0000
1000
0100
0010
0000
,
0001
0100
0010
0000
1000
0000
0010
0000
,
0100
0001
1000
0000
0001
0010
0100
0000
,
1000
0100
0010
0000
0001
0000
0100
0000
,
0010
1000
0010
0000
0100
0001
1000
0000
,
0001
0010
0100
0000
1000
0000
0100
0000
,
0010
0001
1000
0000
0010
0100
0001
0000
,
1000
0100
0010
0001
0010
0001
1000
0000
,
0010
0100
0001
0010
,
0100
0000
1000
0000
0010
0100
0100
0000
,
0001
0010
0100
1000
,
0010
0000
0100
0001
1000
0000
0001
0000
,
0100
0010
1000
0010
,
0100
0000
0001
0000
0010
0100
0100
0000
,
1000
0010
0100
0001
,
0001
0000
1000
0100
0010
0001
1000
0000
,
0010
0100
0001
0100
,
0010
0000
1000
0000
0001
0100
0100
0000
,
0010
1000
0010
0100
,
0001
0000
0010
0100
1000
0000
0001
0000
,
0100
0010
1000
0010
,
0100
0000
0001
0000
1000
0001
0001
0000
,
0100
0010
1000
0001
,
0001
1000
1000
1001
,
0001
0100
0010
1000
,
0010
0000
0100
0000
0001
1000
1000
0000
,
0001
0010
0100
1000
,
0010
0000
0100
0001
1000
0000
0001
0000
,
0100
0010
1000
0010
,
0100
0000
0001
0000
0010
0100
0100
0000
,
0010
0001
0100
0010
,
1000
0000
0001
0100
0010
1000
1001
0000
,
1001
1001
0001
0101
,
0101
0000
0101
0000
0100
0010
1010
0000
,
1010
1010
1000
1001
,
1001
0000
1001
0001
0100
0000
0110
0000
,
0110
0110
0010
1010
,
1010
0000
1010
0000
1000
0001
1001
0000
,
1001
1001
0001
0101
,
0101
0000
0101
0000
0110
0000
1001
1000
,
0010
0000
0100
0001
1000
0000
0001
0010
,
0100
0000
1000
0100
0010
0000
0001
0100
,
0001
0000
1000
0100
1000
0000
0010
0100
,
0001
0000
1000
0100
0010
0000
0001
0010
,
1000
0000
0010
0001
0100
0000
0010
1000
,
0001
0000
0100
0010
1000
0000
0001
0100
,
1000
0000
0100
0001
1000
0000
0010
0100
,
0001
0000
1000
0100
0010
0000
2002
0000
,
0000
0000
0000
0000
,
0000
0000
0000
3003
;

//---------------dance-single - ----------------
#NOTES:
     dance-single:
     :
     Beginner:
     1:
     0.082,0.168,0.028,0.000,0.000:
0000
0000
0000
0000
,
0000
0000
0000
0000
,
0000
0000
0000
0000
,
0000
0000
0000
0000
,
0000
0000
0000
0000
,
0000
0000
0000
0000
,
0000
0000
0000
0000
,
0000
0000
0000
0000
,
0000
0000
0000
0000
,
1000
0000
0000
0000
,
1000
0000
0000
0000
,
0001
0000
0000
0000
,
0001
0000
0000
0000
,
0100
0000
0000
0000
,
0100
0000
0000
0000
,
0010
0000
0000
0000
,
0010
0000
0000
0000
,
1000
0000
0000
0000
,
1000
0000
0000
0000
,
0100
0000
0000
0000
,
0100
0000
0000
0000
,
0010
0000
0000
0000
,
0010
0000
0000
0000
,
0001
0000
0000
0000
,
0001
0000
0001
0000
,
0001
0000
0000
0000
,
0100
0000
0000
0000
,
0010
0000
0000
0000
,
1000
0000
0000
0000
,
0001
0000
0000
0000
,
0001
0000
0000
0000
,
1000
0000
0000
0000
,
1000
0000
1000
0000
,
0010
0000
0000
0000
,
0100
0000
0000
0000
,
0001
0000
0000
0000
,
0001
0000
0000
0000
,
1000
0000
0000
0000
,
0100
0000
0000
0000
,
0010
0000
0000
0000
,
0010
0000
0000
0000
,
0001
0000
0001
0000
,
0100
0000
0100
0000
,
0010
0000
0010
0000
,
1000
0000
1000
0000
,
0001
0000
0001
0000
,
0001
0000
0001
0000
,
0100
0000
0100
0000
,
0100
0000
0100
0000
,
1001
0000
0000
0000
,
0000
0000
0000
0000
,
1000
0000
0000
0000
,
0000
0000
0000
0000
,
1001
0000
0000
0000
,
0000
0000
0000
0000
,
0001
0000
0000
0000
,
0000
0000
1000
1000
,
0000
0000
0000
0010
,
0000
0000
0000
0100
,
0000
0000
0000
0001
,
0000
0000
0000
0010
,
0000
0000
0000
0100
,
0000
0000
0000
1000
,
0000
0000
0000
0001
,
0000
0000
0000
0100
,
0000
0000
0000
0100
,
0000
0000
0000
0010
,
0000
0000
0000
0010
,
0000
0000
0000
1000
,
0000
0000
0000
1000
,
0000
0000
0000
0001
,
0000
0000
0000
0001
,
0000
0001
0000
0100
,
0000
0000
0000
0100
,
0000
0000
0000
0010
,
0000
0000
0000
0010
,
0000
0000
0000
1000
,
0000
0000
0000
1000
,
0000
0000
0000
0010
,
0000
0000
0000
0010
,
0010
0010
0000
0110
,
0000
0000
0000
0100
,
0000
0000
0000
0001
,
0000
0000
0000
1000
,
0000
0000
0000
0010
,
0000
0000
0000
0100
,
0000
0000
0000
0001
,
0000
0000
0000
1000
,
0000
0000
0000
0001
,
0001
0001
0000
1000
,
1000
1000
0000
0010
,
0010
0010
0000
0100
,
0100
0100
0000
0001
,
0001
0001
0000
1000
,
1000
1000
0000
0001
,
0001
0001
0000
1000
,
1000
1000
0000
1001
,
0000
0000
0000
0000
,
0000
0000
0000
0001
,
0000
0000
0000
0000
,
0000
0000
0000
1001
,
0000
0000
0000
0000
,
0000
0000
0000
1000
,
0000
0000
0000
0000
,
0000
0000
0000
1001
;
