#TITLE:Shanghai Alice at 210BPM;
#SUBTITLE:;
#ARTIST:Unlucky Morpheus;
#TITLETRANSLIT:;
#SUBTITLETRANSLIT:;
#ARTISTTRANSLIT:;
#CREDIT:;
#BANNER:bom-bn.PNG;
#BACKGROUND:bom-bg.PNG;
#LYRICSPATH:;
#CDTITLE:!rebirth.png;
#MUSIC:Shanghai Alice at 210 BPM.ogg;
#OFFSET:-0.140;
#SAMPLESTART:18.453;
#SAMPLELENGTH:14.700;
#SELECTABLE:YES;
#BPMS:0.000=210.000,160.000=124.500,164.000=210.000;
#STOPS:;
#BGCHANGES:;

//---------------dance-single - ----------------
#NOTES:
     dance-single:
     :
     Challenge:
     14:
     1.000,1.000,0.000,0.502,1.000:
0000
0000
0000
0000
,
0000
0000
0000
0000
,
0000
0000
0000
0000
,
0000
0000
0000
0000
,
1000
0100
1000
0100
1000
0100
1000
0100
0010
0001
0010
0001
0010
0001
0010
0001
,
1000
0010
1000
0010
1000
0010
1000
0010
0100
0001
0100
0001
0100
0001
0100
0001
,
0100
0010
0100
0010
0100
0010
0100
0010
1000
0001
1000
0001
1000
0001
1000
0001
,
1000
0100
0010
0001
1000
0100
0010
0001
1000
0010
0100
0001
1000
0010
0100
0001
,
1000
0100
1000
0100
1000
0100
1000
0100
0010
0100
0010
0100
0010
0100
0010
0100
,
0010
0001
0010
0001
0010
0001
0010
0001
1000
0001
1000
0001
1000
0001
1000
0001
,
1000
0010
1000
0010
1000
0010
1000
0010
0100
0010
0100
0010
0100
0010
0100
0010
,
0100
0001
0100
0001
0100
0001
0100
0001
1000
0001
1000
0001
1000
0001
1000
0001
,
1000
0100
0010
0001
1000
0100
0010
0001
1000
0010
0100
0001
1000
0010
0100
0001
,
1000
0100
0010
0001
0010
0100
1000
0100
0010
0001
0010
0100
1000
0100
0010
0001
,
1000
0100
0010
0001
0100
0010
1000
0010
0100
0001
0010
0100
0010
0001
0100
0010
,
1000
0100
1000
0010
0100
0001
0010
0001
0010
0100
1000
0010
0100
0001
1000
0001
,
1000
0100
0010
0001
2000
0000
3002
0000
,
0203
0000
0000
0000
0310
0000
1000
0000
0002
0000
0000
0000
1003
0001
1000
0000
,
0001
0000
0100
0000
M010
0100
001M
0000
1000
0000
0100
0000
001M
0100
M010
0000
,
0002
0000
0000
0000
0103
0000
0010
0000
2000
0000
0000
0000
3001
1000
0001
0000
,
1000
0100
0010
0001
2000
0000
3002
0000
,
0203
0000
0000
0000
0310
0000
1000
0100
0020
0000
0000
0000
0032
0000
1003
0100
,
1000
0100
0010
0001
0010
0100
1000
0010
0100
0001
0100
0010
1000
0001
0010
0001
,
2000
0000
0000
0000
0000
0000
0000
0000
3002
0000
1003
0100
1000
0100
0010
0001
,
1000
0100
0001
0100
2000
0000
3020
0000
,
0230
0000
0000
0000
0301
0000
0010
0000
0002
0000
0000
0000
1003
0001
1000
0000
,
0001
0000
0100
0000
M001
0100
00M1
0000
1000
0000
0100
0000
100M
0100
10M0
0000
,
0002
0000
0000
0000
0103
0000
0010
0000
2000
0000
0000
0000
3001
1000
0001
0000
,
1000
0010
0001
0010
2000
0000
3020
0000
,
1030
0000
0000
0100
0010
0001
0010
0100
0010
0001
0100
0010
1000
0010
0100
0001
,
1000
0100
0010
0100
1000
0010
0100
0001
1000
0000
0100
0000
2000
0000
0000
0000
,
3002
0000
2000
0003
,
3001
0100
0001
0100
0001
0100
0001
0100
0010
0100
0010
0100
0010
0100
0010
0100
,
0010
1000
0010
1000
0010
1000
0010
1000
0001
1000
0001
1000
0001
1000
0001
1000
,
0001
0010
0001
0010
0001
0010
0001
0010
0100
0010
0100
0010
0100
0010
0100
0010
,
0100
1000
0100
1000
0100
1000
0100
1000
0001
1000
0001
1000
0001
1000
0001
1000
,
0001
0100
0010
1000
0001
0100
0010
1000
0001
0010
0100
1000
0001
0010
0100
1000
,
0001
0010
0100
1000
0100
0010
0001
0010
0100
1000
0100
0010
0001
0010
0100
1000
,
0001
0100
0010
1000
0100
1000
0010
0100
0001
0010
0100
0010
0100
1000
0010
0100
,
0001
1000
0100
0010
0001
0010
0100
1000
0010
0100
0001
0010
0100
0010
0001
2000
,
0002
0000
0000
0000
,
00M0
00M0
00M0
30M3
,
1000
0100
1000
0100
1000
0100
1000
0100
0010
0001
0010
0001
0010
0001
0010
0001
,
1000
0010
1000
0010
1000
0010
1000
0010
0100
0001
0100
0001
0100
0001
0100
0001
,
1000
0100
1000
0100
1000
0100
1000
0100
0010
0001
0010
0001
0010
0001
0010
0001
,
1000
0010
1000
0010
1000
0010
1000
0010
0100
0001
0100
0001
0100
0001
0100
0001
,
1000
0100
0010
0001
1000
0100
0010
0001
1000
0010
0100
0001
1000
0010
0100
0001
,
1000
0100
0010
0001
0010
0100
1000
0100
0010
0001
0010
0100
1000
0100
0010
0001
,
1000
0010
0100
0001
0100
0010
1000
0010
0100
0001
0100
0010
1000
0010
0100
0001
,
1000
0100
0010
0001
1000
0100
0010
0001
1000
0010
0100
0001
1000
0010
0100
0001
,
1000
0100
1000
0100
1000
0100
1000
0100
0010
0100
0010
0100
0010
0100
0010
0100
,
0010
0001
0010
0001
0010
0001
0010
0001
1000
0001
1000
0001
1000
0001
1000
0001
,
1000
0010
1000
0010
1000
0010
1000
0010
0100
0010
0100
0010
0100
0010
0100
0010
,
0100
0001
0100
0001
0100
0001
0100
0001
1000
0001
1000
0001
1000
0001
1000
0001
,
1000
0100
1000
0100
0010
0100
0010
0100
0010
0001
0010
0001
1000
0001
1000
0001
,
1000
0010
1000
0010
0100
0010
0100
0010
0100
0001
0100
0001
1000
0001
1000
0001
,
1000
0100
0010
0001
1000
0100
0010
0001
1000
0010
0100
0001
1000
0010
0100
0001
,
1000
0100
0010
0001
0010
0001
0100
0010
0100
0010
1000
0100
1000
0100
0010
0001
,
1000
0010
0100
0001
2000
0000
3020
0000
,
0230
0000
0000
0000
0301
0000
0010
0000
0002
0000
0000
0000
1003
0100
1000
0000
,
00M1
0000
1M00
0000
00M1
1000
0M01
0000
10M0
0000
0M01
0000
10M0
0001
1M00
0000
,
0002
0000
0000
0000
1003
0000
0001
0000
2000
0000
0000
0000
3001
1000
0001
0000
,
1000
0100
0010
0001
2000
0000
3020
0000
,
0230
0000
0000
0000
0301
0000
0010
0001
0020
0000
0000
0000
0230
0000
1300
0100
,
0010
0001
1000
0100
1000
0010
0100
0001
0010
0100
1000
0010
1000
0010
0100
0001
,
2000
0000
0000
0000
0000
0000
0000
0000
3002
0000
1003
0100
1000
0100
0010
0001
,
1000
0010
0001
0010
2000
0000
3020
0000
,
0230
0000
0000
0000
0301
0000
1000
0000
0200
0000
0000
0000
0310
0001
0010
0000
,
1000
0000
0100
0000
M001
0100
00M1
0000
0100
0000
1000
0000
00M1
0100
M001
0000
,
2000
0000
0000
0000
3010
0000
0100
0000
0002
0000
0000
0000
1003
0001
1000
0000
,
0001
0100
0010
1000
0002
0000
0023
0000
,
0130
0000
0000
1000
0100
0010
0001
0100
0010
1000
0010
0100
0001
0010
0100
1000
,
0100
1000
0010
0100
0001
0010
0001
0100
0010
0000
0100
0000
0002
0000
0000
0000
,
2003
0000
3002
0000
,
1003
0100
1000
0100
0010
0001
0010
0001
1000
0010
1000
0010
0100
0001
0100
0001
,
0100
0010
0100
0010
1000
0001
1000
0001
0100
0010
0100
0010
1000
0001
1000
0001
,
1000
0100
0010
0001
1000
0100
0010
0001
1000
0010
0100
0001
1000
0010
0100
0001
,
1000
0100
1000
0100
0010
0100
0010
0100
0010
0001
0010
0001
1000
0001
1000
0001
,
1000
0010
1000
0010
0100
0010
0100
0010
0100
0001
0100
0001
1000
0001
1000
0001
,
1000
0100
0010
0001
0010
0100
1000
0010
0100
0001
0100
0010
1000
0100
1000
0100
,
0010
0100
0010
0001
0010
0100
1000
0100
0010
0100
0010
0100
1000
0010
0100
0001
,
0100
0010
0100
0001
0010
0100
1000
0001
0010
0100
1000
0010
0100
0001
1000
0002
,
2000
0000
0000
0000
,
0000
0000
0000
0000
,
0000
0000
0000
0000
,
0000
0000
0000
0000
,
0000
0000
0000
0000
,
0000
0000
0000
0000
,
0000
0000
0000
0000
,
0000
0000
0000
0000
,
3003
0000
0000
0000
;

//---------------dance-single - ----------------
#NOTES:
     dance-single:
     :
     Hard:
     10:
     1.000,1.000,0.097,0.579,0.970:
0000
0000
0000
0000
,
0000
0000
0000
0000
,
0000
0000
0000
0000
,
0000
0000
0000
0000
,
1000
0000
0001
0100
0001
0000
1000
0100
1000
0000
0001
0100
0001
0000
1000
0001
,
1000
0000
0001
0010
0001
0000
1000
0010
1000
0000
0001
0010
0001
0000
1000
0001
,
1000
0000
0001
1000
0001
0000
1000
0001
1000
0000
0001
0100
0001
0000
1000
0100
,
1000
0000
0001
0100
0001
0000
1000
0100
1000
0000
0001
1000
0001
1000
0001
1000
,
0001
0000
0100
0000
0010
1000
0010
1000
0010
0000
0100
0000
0001
1000
0001
1000
,
0001
0000
0010
0000
0100
1000
0100
1000
0100
0000
0010
0000
0001
0100
0001
0100
,
0001
0000
0010
0000
0100
1000
0100
1000
0100
0000
0010
0000
0001
1000
0001
1000
,
0001
0000
0100
0000
0010
1000
0010
1000
0010
0000
0100
0000
0001
0010
0001
0010
,
0001
0000
0100
0000
0010
1000
0010
1000
0010
0000
0100
0000
0001
1000
0001
1000
,
0001
0000
0010
0000
0100
1000
0100
1000
0100
0000
0010
0000
0001
0100
0001
0100
,
0001
0000
0100
0000
0010
1000
0010
1000
0010
0000
0100
0000
0001
1000
0001
1000
,
0001
0000
0100
0000
0001
0100
0001
0100
0001
0100
0010
1000
0010
1000
0010
1000
,
0001
0100
0010
1000
0002
0000
0023
0000
,
0230
0000
1300
0010
0200
0000
0301
0000
,
1000
0100
2000
0000
3001
0100
0002
0000
,
2003
0000
3010
0100
0002
0000
1003
0000
,
0001
0010
0100
0010
0002
0000
0203
0000
,
0320
0000
0000
0000
1030
0000
0001
0000
0020
0000
0000
0000
0130
0000
1000
0100
,
1000
0100
1000
0100
1000
0100
1000
0100
0010
0001
0010
0001
0010
0001
0010
0001
,
2000
0000
3002
0000
,
1003
0100
0001
0100
2000
0000
3020
0000
,
0230
0000
0301
0010
0002
0000
1003
0000
,
0001
0100
0002
0000
1003
0100
2000
0000
,
3020
0000
0130
0001
2000
0000
3001
0000
,
1000
0100
0010
0001
2000
0000
3020
0000
,
0230
0000
0000
0000
0301
0000
0010
0000
0100
1000
0100
1000
0100
1000
0100
1000
,
0001
0100
0001
0100
0001
0100
0001
0100
0010
0000
0100
0000
0002
0000
0000
0000
,
2003
0000
3002
0000
,
1003
0000
1000
0000
0001
0100
0001
0100
0001
0000
0100
0000
0010
1000
0010
1000
,
0010
0000
0100
0000
0001
0100
0001
0100
0001
0000
0100
0000
0001
1000
0001
1000
,
0001
0000
0100
0000
0010
1000
0010
1000
0010
0000
0100
0000
0001
1000
0001
1000
,
0001
0000
0010
0000
0100
1000
0100
1000
0100
0000
0010
0000
0001
1000
0001
1000
,
0001
0000
0100
0000
0010
1000
0010
1000
0001
0000
0100
0000
0001
0010
0001
0010
,
0100
0000
1000
0000
0001
0100
0001
0100
0010
0000
1000
0000
0010
0100
0010
0100
,
0001
0000
1000
0000
0100
0010
0100
0010
0001
0000
0100
0000
0010
1000
0010
1000
,
0001
0000
0010
0000
0100
0010
0100
0010
0001
0000
1000
0000
0001
0100
0010
2000
,
0002
0000
0000
0000
,
0000
0000
0000
3003
,
1001
0000
1100
0000
,
0110
0000
0011
0000
,
1001
0000
1100
0000
,
1001
0000
0101
0000
,
1001
0000
0001
0100
0001
0000
1000
0100
1000
0000
0001
0010
0001
0000
1000
0010
,
1000
0000
0001
1000
0001
0000
1000
0001
1000
0000
0001
0100
0001
0000
1000
0100
,
1000
0000
0001
0010
0100
0000
1000
0100
0010
0000
0001
0100
0010
0000
1000
0010
,
0100
0000
0001
1000
0100
0000
1000
0001
0100
0000
0010
1000
0010
1000
0001
0100
,
0001
0000
1000
0000
0001
0010
0100
0010
0001
0000
1000
0000
0001
0100
0001
1000
,
0010
0000
1000
0000
0001
0010
0001
0100
0010
0000
0100
0000
0010
1000
0010
0100
,
0001
0000
1000
0000
0001
0100
0001
0010
0100
0000
1000
0000
0010
0100
0010
1000
,
0001
0000
0010
0000
0100
1000
0100
0010
0001
0000
1000
0000
0001
0100
0001
0100
,
0010
0000
1000
0000
0010
0100
0010
1000
0001
0000
1000
0000
0001
0100
0001
1000
,
0001
0000
0100
0000
0010
1000
0010
0100
0001
0000
1000
0000
0001
0010
0001
0100
,
0010
0000
1000
0000
0001
0010
0001
0100
0010
0000
1000
0000
0100
0010
0100
1000
,
0001
0000
1000
0000
0010
0100
0010
0100
0001
1000
0001
1000
0001
1000
0001
1000
,
0001
0100
0010
1000
0002
0000
0023
0000
,
0230
0000
1300
0010
0200
0000
0301
0000
,
1000
0100
2000
0000
3001
0100
0002
0000
,
2003
0000
3010
0100
0002
0000
1003
0000
,
0001
0010
0001
0100
0020
0000
2030
0000
,
3002
0000
0103
0010
2000
0000
3001
0100
,
0001
0100
0001
0100
0001
0100
0001
0100
0010
1000
0010
1000
0010
1000
0010
1000
,
0002
0000
2003
0000
,
3001
0100
0010
0100
0002
0000
0023
0000
,
0230
0000
1300
0010
0200
0000
0301
0000
,
1000
0001
2000
0000
3001
1000
0002
0000
,
2003
0000
3010
0100
0020
0000
1030
0000
,
0001
0010
0100
1000
0200
0000
0320
0000
,
0032
0000
0000
0000
1003
0100
1000
0100
0010
0001
0010
0001
0010
0001
0010
0001
,
1000
0010
1000
0010
1000
0010
1000
0010
0100
0000
0001
0000
2000
0000
0000
0000
,
3002
0000
2003
0000
,
3001
0100
0010
0100
0001
0000
1000
0000
0100
0010
0001
0010
0100
0000
1000
0000
,
0010
0100
0001
0100
0010
0000
1000
0000
0100
1000
0100
0010
0001
0000
0100
0000
,
0010
1000
0010
0100
0001
0000
1000
0000
0001
0100
0010
0100
0001
0000
1000
0000
,
0001
0010
0100
1000
0001
0000
0100
0000
0010
1000
0010
0100
0001
0000
1000
0000
,
0100
0010
0001
0010
0100
0000
1000
0000
0010
0100
0001
0100
0001
0000
1000
0000
,
0001
0100
0010
1000
0001
0000
1000
0000
0001
0010
0100
0010
0001
0000
0100
0000
,
0010
1000
0010
0100
0001
0000
1000
0000
0100
0010
0001
0010
0100
0000
1000
0000
,
0010
0100
0010
0100
0001
0000
1000
0000
0100
0010
0001
0010
0100
0000
1000
0000
,
2002
0000
0000
0000
,
0000
0000
0000
0000
,
0000
0000
0000
0000
,
0000
0000
0000
0000
,
0000
0000
0000
0000
,
0000
0000
0000
0000
,
0000
0000
0000
0000
,
0000
0000
0000
0000
,
3003
0000
0000
0000
;

//---------------dance-single - ----------------
#NOTES:
     dance-single:
     :
     Medium:
     8:
     0.724,0.782,0.425,0.164,0.000:
0000
0000
0000
0000
,
0000
0000
0000
0000
,
0000
0000
0000
0000
,
0000
0000
0000
0000
,
0101
0110
1010
1001
,
1100
0110
0011
1001
,
0101
0110
1010
1001
,
1100
1001
0101
0110
,
1001
0100
0001
0100
0010
1000
0010
1000
,
0001
0010
0001
0010
0100
1000
0100
1000
,
0001
1000
0001
1000
0010
0100
0010
0100
,
0001
1000
0001
1000
0010
0100
0010
0100
,
0001
0010
0001
0010
0100
0010
0100
0010
,
0100
1000
0100
1000
0001
1000
0001
1000
,
0001
0100
0001
0100
0010
0100
0010
0100
,
0010
1000
0010
1000
0001
1000
0001
1000
,
0001
0100
0001
0100
0001
0000
0010
0000
,
0100
0000
1000
0100
2000
0000
3000
0000
,
0001
0100
0001
0000
1000
0100
1000
0000
,
0001
0000
0010
0100
2000
0000
3000
0000
,
0001
1000
0001
1000
0001
0000
0010
0000
,
0100
0000
1000
0100
1000
0000
0001
0000
,
1000
0100
0010
0001
0100
0010
1000
0001
,
2000
0000
3002
0000
,
1003
0100
1000
0100
1000
0000
0010
0000
,
0100
0000
0001
0100
0002
0000
0003
0000
,
1000
0100
0010
0000
0001
0010
0100
0000
,
1000
0000
0010
0100
0002
0000
0003
0000
,
1000
0010
1000
0010
1000
0000
0001
0000
,
0100
0000
0010
0100
0010
0100
0001
0010
,
0100
1000
0100
0010
0001
1000
0001
0000
,
2000
0000
0001
0000
,
3001
0100
0001
0100
0010
0100
0010
0100
,
0010
1000
0010
1000
0001
1000
0001
1000
,
0001
0010
0001
0010
0100
0010
0100
0010
,
0100
1000
0100
1000
0001
1000
0001
1000
,
0001
0010
0100
1000
0001
0010
0100
1000
,
0001
0100
0010
1000
0001
0100
0010
1000
,
0001
0010
0001
0100
0010
1000
0010
0100
,
0001
0010
0100
1000
0100
0010
0001
1000
,
2002
0000
0000
0000
,
0000
0000
0000
3003
,
1100
0000
0110
0000
,
0011
0000
1001
0000
,
1100
0000
1001
0000
,
0101
0000
1001
0000
,
1100
0110
0011
1001
,
0101
0110
1010
1001
,
1100
1001
0101
1001
,
1100
0110
0011
1001
,
1100
0100
1000
0100
0010
0001
0010
0001
,
1000
0010
1000
0010
0100
0001
0100
0001
,
1000
0100
1000
0100
0010
0100
0010
0100
,
0010
0001
0010
0001
1000
0001
1000
0001
,
1000
0010
1000
0010
0100
0010
0100
0010
,
0100
0001
0100
0001
1000
0001
1000
0001
,
1000
0100
0010
0001
1000
0100
0010
0001
,
1000
0010
0100
0001
0010
0001
0100
0010
,
1000
0100
1000
0100
1000
0000
0010
0000
,
0100
0000
0001
0100
0002
0000
0003
0000
,
1000
0010
0100
0000
0001
0100
0010
0000
,
1000
0000
0001
0010
0200
0000
0300
0000
,
1000
0100
0010
0001
1000
0000
0001
0000
,
0100
0000
0010
1000
0001
0000
1000
0000
,
0001
0010
0100
1000
0010
0100
0001
1000
,
0002
0000
1000
0000
,
1003
0100
0010
0100
1000
0000
0010
0000
,
0100
0000
0001
0100
0002
0000
0003
0000
,
1000
0100
0010
0000
0001
0100
0010
0000
,
1000
0000
0001
0100
0020
0000
0030
0000
,
1000
0100
1000
0001
0100
0000
0010
0000
,
1000
0000
0001
0100
0001
0100
0010
1000
,
0001
0010
0100
0010
0001
0100
0010
0000
,
2000
0000
0001
0000
,
3001
0010
0100
1000
0001
0010
0100
1000
,
0001
0100
0010
1000
0001
0100
0010
1000
,
0001
0010
0100
1000
0100
0010
0001
0010
,
0100
1000
0100
0010
0001
0010
0100
1000
,
0001
0100
0010
1000
0010
0100
0001
0010
,
0100
1000
0100
1000
0010
0100
0001
0010
,
0001
0100
0010
1000
0010
0100
0001
0010
,
0100
0010
0001
0100
0010
1000
0001
1000
,
2002
0000
0000
0000
,
0000
0000
0000
0000
,
0000
0000
0000
0000
,
0000
0000
0000
0000
,
0000
0000
0000
0000
,
0000
0000
0000
0000
,
0000
0000
0000
0000
,
0000
0000
0000
0000
,
3003
0000
0000
0000
;

//---------------dance-single - ----------------
#NOTES:
     dance-single:
     :
     Easy:
     6:
     0.487,0.782,0.415,0.077,0.000:
0000
0000
0000
0000
,
0000
0000
0000
0000
,
0000
0000
0000
0000
,
0000
0000
0000
0000
,
1100
1100
1100
1100
,
0101
0101
0101
0101
,
0110
0110
0110
0110
,
1001
1001
1001
1001
,
1000
0100
0010
0001
,
1000
0010
0100
0001
,
1000
0100
0010
0001
,
0010
0100
1000
0010
,
0100
0001
0100
0001
,
0100
0010
0100
0010
,
1000
0001
0010
0100
,
1000
0100
0010
0001
,
1000
1000
1000
0001
,
0001
0100
0010
0000
,
1000
1000
0001
0001
,
0100
0010
1000
0000
,
0001
0010
0001
0010
,
0100
1000
0010
0100
,
0001
0001
1000
1000
,
0002
0000
1000
0000
,
1003
0100
1000
0010
,
0100
0001
1000
0000
,
0001
0001
1000
1000
,
0010
0100
0001
0000
,
1000
0100
1000
0010
,
0100
0001
0100
0010
,
1000
0001
0010
0100
,
2000
0000
0001
0000
,
3001
0001
0100
0100
,
0010
0010
1000
1000
,
0001
0001
0010
0010
,
0100
0100
0010
0010
,
0001
0010
0100
1000
,
0001
0100
0010
1000
,
0001
0010
0001
0100
,
0010
1000
0001
1000
,
2002
0000
0000
0000
,
0000
0000
0000
3003
,
1001
0000
1001
0000
,
1001
0000
1001
0000
,
1001
0000
1001
0000
,
1001
0000
1001
0000
,
1001
1001
1001
1001
,
0101
0101
0101
0101
,
1010
1010
1010
1010
,
1001
1001
1001
1001
,
1001
0000
0001
0000
0100
0010
0100
0000
,
0001
0000
0010
0000
0100
1000
0100
0000
,
0010
0000
0001
0000
0100
0010
1000
0000
,
0001
0000
0100
0000
0010
1000
0010
0000
,
0100
0000
0001
0000
1000
0001
1000
0000
,
0001
0000
0010
0000
0100
1000
0100
0000
,
0010
0000
0001
0000
0100
0010
0100
0000
,
0001
0000
1000
0000
0100
0010
0001
0000
,
1000
1000
0001
0100
,
0010
1000
0001
0000
,
1000
1000
0001
0001
,
0100
0010
1000
0000
,
0001
0010
0100
0010
,
0001
0100
0010
1000
,
0001
0100
0010
0100
,
0002
0000
1000
0000
,
1003
0100
1000
0010
,
0010
0100
0100
0000
,
0001
0001
1000
1000
,
0001
0010
0100
0000
,
1000
0010
0100
0001
,
0001
1000
0100
0010
,
0100
1000
0010
0100
,
0002
0000
1000
0000
,
1003
0100
1000
0000
0001
0100
0001
0000
,
1000
0010
1000
0000
0001
0010
0001
0000
,
1000
0100
0010
0000
0001
0010
0100
0000
,
1000
0010
0100
0000
0001
0100
0010
0000
,
1000
0000
0100
0000
0010
0001
0010
0000
,
0100
0000
1000
0000
0001
1000
0001
0000
,
0100
0000
0010
0000
1000
0001
1000
0000
,
0001
0000
0010
0000
0100
1000
0100
0000
,
2002
0000
0000
0000
,
0000
0000
0000
0000
,
0000
0000
0000
0000
,
0000
0000
0000
0000
,
0000
0000
0000
0000
,
0000
0000
0000
0000
,
0000
0000
0000
0000
,
0000
0000
0000
0000
,
3003
0000
0000
0000
;

//---------------dance-single - ----------------
#NOTES:
     dance-single:
     :
     Beginner:
     3:
     0.294,0.396,0.357,0.000,0.000: // measure 1
0000
0000
0000
0000
,  // measure 2
0000
0000
0000
0000
,  // measure 3
0000
0000
0000
0000
,  // measure 4
0000
0000
0000
0000
,  // measure 5
1001
0000
1001
0000
,  // measure 6
1001
0000
1001
0000
,  // measure 7
1001
0000
1001
0000
,  // measure 8
1001
0000
1001
0000
,  // measure 9
1001
0000
0001
0000
,  // measure 10
0001
0000
0001
0000
,  // measure 11
0100
0000
0100
0000
,  // measure 12
0100
0000
0100
0000
,  // measure 13
0010
0000
0010
0000
,  // measure 14
0010
0000
0010
0000
,  // measure 15
1000
0000
1000
0000
,  // measure 16
1000
0000
1000
0000
,  // measure 17
0001
0000
0001
0000
,  // measure 18
0100
0000
0100
0000
,  // measure 19
0010
0000
0010
0000
,  // measure 20
1000
0000
0001
0000
,  // measure 21
1000
0000
1000
0000
,  // measure 22
0001
0000
0001
0000
,  // measure 23
0100
0000
0100
0000
,  // measure 24
0001
0000
0000
0000
,  // measure 25
1000
0000
1000
0000
,  // measure 26
0100
0000
0100
0000
,  // measure 27
0010
0000
0010
0000
,  // measure 28
0001
0000
0001
0000
,  // measure 29
1000
0000
1000
0000
,  // measure 30
0010
0000
0010
0000
,  // measure 31
0100
0000
0100
0000
,  // measure 32
1001
0000
0000
0000
,  // measure 33
1000
0000
1000
0000
,  // measure 34
1000
0000
1000
0000
,  // measure 35
0001
0000
0001
0000
,  // measure 36
0001
0000
0001
0000
,  // measure 37
1000
1000
1000
1000
,  // measure 38
1000
1000
1000
0000
,  // measure 39
0001
0001
0001
0001
,  // measure 40
0001
0001
0001
0000
,  // measure 41
1001
0000
0000
0000
,  // measure 42
0000
0000
0000
0000
,  // measure 43
0110
0000
0110
0000
,  // measure 44
0110
0000
0110
0000
,  // measure 45
0110
0000
0110
0000
,  // measure 46
0110
0000
0110
0000
,  // measure 47
1001
0000
1001
0000
,  // measure 48
1001
0000
1001
0000
,  // measure 49
1001
0000
1001
0000
,  // measure 50
1001
0000
1001
0000
,  // measure 51
1000
1000
1000
1000
,  // measure 52
1000
1000
1000
1000
,  // measure 53
1000
1000
1000
1000
,  // measure 54
1000
1000
1000
0000
,  // measure 55
0001
0001
0001
0001
,  // measure 56
0001
0001
0001
0001
,  // measure 57
0001
0001
0001
0001
,  // measure 58
0001
0001
0001
0000
,  // measure 59
1000
0000
1000
0000
,  // measure 60
0001
0000
0001
0000
,  // measure 61
0100
0000
0100
0000
,  // measure 62
0010
0000
0010
0000
,  // measure 63
1000
0000
1000
0000
,  // measure 64
0100
0000
0100
0000
,  // measure 65
0010
0000
0010
0000
,  // measure 66
0001
0000
0000
0000
,  // measure 67
1000
0000
0010
0000
,  // measure 68
1000
0000
0010
0000
,  // measure 69
0100
0000
0001
0000
,  // measure 70
0100
0000
0001
0000
,  // measure 71
1000
0000
0100
0000
,  // measure 72
0010
0000
0001
0000
,  // measure 73
1000
0000
0010
0000
,  // measure 74
1001
0000
0000
0000
,  // measure 75
0110
0000
0110
0000
,  // measure 76
1001
0000
1001
0000
,  // measure 77
0110
0000
0110
0000
,  // measure 78
1001
0000
1001
0000
,  // measure 79
0010
0010
0010
0010
,  // measure 80
0010
0010
0010
0000
,  // measure 81
0100
0100
0100
0100
,  // measure 82
0100
0100
0100
0000
,  // measure 83
1001
0000
0000
0000
;
