#TITLE:UNLIMITED;
#SUBTITLE:;
#ARTIST:NMR;
#TITLETRANSLIT:;
#SUBTITLETRANSLIT:;
#ARTISTTRANSLIT:;
#GENRE:;
#CREDIT:Timer Rabbit;
#MENUCOLOR:;
#NEWMETERSYSTEM:NO;
#BANNER:digibeat_bn.PNG;
#BACKGROUND:digibeat_bg.PNG;
#LYRICSPATH:;
#CDTITLE:timerrabbit.png;
#MUSIC:digibeat.mp3;
#OFFSET:0.000;
#SAMPLESTART:40.000;
#SAMPLELENGTH:12.000;
#SELECTABLE:YES;
#LISTSORT:;
#BPMS:0.000=150.000;
#STOPS:;
#BGCHANGES:0.000=digibeat_BGM.AVI=1.000=1=1=0,
99999=-nosongbg-=1.000=0=0=0 // don't automatically add -songbackground-
;
#ATTACKS:;

//---------------dance-single - ----------------
#NOTES:
     dance-single:
     :
     Easy:
     4:
     0.335,0.300,0.311,0.180,0.000:
0000
0000
0000
0000
,
0000
0000
0000
0000
,
0000
0000
0000
1000
0000
0100
0000
1000
,
0000
0100
0000
0001
0000
0001
0000
0001
,
0000
0001
0000
0001
0000
0100
0000
0001
,
0000
0100
0000
0010
0000
0010
0000
0010
,
0000
0010
0000
1000
0000
0001
0000
1000
,
0000
0001
0000
0100
0000
0100
0000
0100
,
0000
0100
0000
0010
0000
1000
0000
0001
,
0000
0100
0000
0010
0000
0010
0000
0010
,
0000
0010
0000
1001
0000
0110
0000
1001
,
0000
0000
0000
1000
0000
1000
0000
1000
,
0000
1000
0000
0001
0000
1000
0000
0001
,
0000
0000
0000
0001
0000
0001
0000
0001
,
0000
1000
0000
0001
0000
0100
0000
0010
,
0000
0000
0000
0100
0000
0100
0000
0100
,
0000
0100
0000
0010
0000
0100
0000
1000
,
0000
0000
0000
0010
0000
0010
0000
0010
,
0000
0010
0000
0001
0000
1000
0000
0100
,
0000
0000
0000
0101
0000
0000
0000
1010
,
0000
0000
0000
1100
0000
0000
0000
1001
,
0000
0000
0000
0001
0000
1000
0000
0001
,
0000
1000
0000
0001
0000
1000
0000
0001
,
0000
0000
0000
1010
0000
0000
0000
0101
,
0000
0000
0000
0110
0000
0000
0000
1001
,
0000
0000
0000
0200
0000
0300
0000
0001
,
0000
1000
0000
0100
0000
0010
0000
0002
,
0000
0000
0000
0003
0000
0000
0000
0000
,
0000
0000
0000
0000
,
0000
0000
0000
2100
0000
0100
0000
0100
,
0000
0100
0000
0100
0000
0100
0000
3100
,
0000
0000
0000
0012
0000
0010
0000
0010
,
0000
0010
0000
0010
0000
0010
0000
0013
,
0000
0000
0000
2001
0000
0001
0000
0001
,
0000
0001
0000
0001
0000
0001
0000
3001
,
0000
0000
0000
1002
0000
1000
0000
1000
,
0000
1000
0000
1003
0000
0000
0000
1001
,
0000
0110
0000
1001
0000
0100
0000
0100
,
0000
0100
0000
0101
0000
0010
0000
0010
,
0000
0010
0000
1010
0000
1000
0000
1000
,
0000
1000
0000
1100
0000
0000
0000
0001
,
0000
1000
0000
0000
0000
1000
0000
0001
,
0000
1000
0000
0000
0000
0100
0000
0010
,
0000
0100
0000
0000
0000
0001
0000
0100
,
0000
1000
0000
0100
0000
0110
0000
1001
,
0000
0000
0000
0001
0000
0000
0000
0100
,
0000
0000
0000
1000
0000
0000
0000
0010
,
0000
0000
0000
2002
0000
3003
0000
0000
,
0100
0010
0100
0010
,
0100
0000
0001
1000
,
0001
2002
0000
0000
,
3003
0000
0000
0000
,
0000
0000
0000
0012
0000
0010
0000
0010
,
0000
0010
0000
0010
0000
0010
0000
0013
,
0000
0000
0000
2100
0000
0100
0000
0100
,
0000
0100
0000
0100
0000
0100
0000
3100
,
0000
0000
0000
2001
0000
0001
0000
0001
,
0000
0001
0000
0001
0000
0001
0000
3001
,
0000
0000
0000
1002
0000
1000
0000
1000
,
0000
1000
0000
1000
0000
1000
0000
1003
,
0000
0100
0000
0012
0000
0010
0000
0010
,
0000
0010
0000
0010
0000
0010
0000
0013
,
0000
0000
0000
2100
0000
0100
0000
0100
,
0000
0100
0000
0100
0000
0100
0000
3100
,
0000
0000
0000
2001
0000
0100
0000
0001
,
0000
0100
0000
0001
0000
0100
0000
3001
,
0000
0000
0000
1002
0000
0100
0000
1000
,
0000
0100
0000
1000
0000
0100
0000
1003
,
0000
0000
0000
2010
0000
0001
0000
0010
,
0000
0001
0000
0010
0000
0001
0000
3010
,
0000
0000
0000
1002
0000
0010
0000
1000
,
0000
0010
0000
1000
0000
0013
0000
1001
,
0000
0110
0000
2002
0000
0000
0000
0000
,
0000
3003
0000
0000
;

//---------------dance-single - ----------------
#NOTES:
     dance-single:
     :
     Medium:
     7:
     0.428,0.420,0.205,0.139,0.025:
0000
0000
0000
0000
,
0000
0000
0000
0000
,
0000
0000
0000
1000
0000
0100
0000
1000
,
0000
0100
0000
0002
0000
0000
0000
0000
,
0000
0003
0000
0001
0000
0100
0000
0001
,
0000
0100
0000
0200
0000
0000
0000
0000
,
0000
0300
0000
0010
0000
0100
0000
0010
,
0000
0100
0000
0001
0000
0001
0000
0001
,
0000
0001
0000
1000
0000
0001
0000
1000
,
0000
0001
0000
1000
0000
1000
0000
1000
,
0000
0000
0000
0000
1001
0000
0000
0110
0000
0000
2002
0000
0000
0000
0000
0000
,
3003
2100
0100
0100
,
0100
0000
0100
0000
3100
0000
0001
0100
,
0001
0102
0100
0100
,
0100
0000
0100
0000
0103
0000
1000
0100
,
1000
1002
1000
1000
,
1000
0000
1000
0000
1003
0000
1000
0001
,
1000
2001
0001
0001
,
0001
0000
0001
0000
3001
0000
1000
0001
,
0100
0000
0100
0000
1000
0010
0000
0010
,
0000
0001
0100
0000
0100
0000
0100
1000
,
0000
0000
0000
0001
0000
1000
0100
0000
,
0100
0000
0010
0100
0000
0100
0000
0100
,
0010
0000
0000
0000
1000
0000
1000
0100
,
0000
0100
0000
0100
0010
0000
0010
0000
,
0010
0001
0000
1100
0000
0010
0001
0010
,
0000
1000
0100
1000
0000
1000
0001
2000
,
0000
3000
0000
0000
,
0000
0000
0000
0000
,
0000
0000
0000
1000
0010
1000
0000
0001
,
0100
0001
0000
1000
0100
0001
0100
1000
,
0000
0001
0010
0001
0000
1000
0100
1000
,
0000
0001
0100
1000
0100
0001
0100
1000
,
0100
0000
0000
1000
0100
0001
0000
0001
,
0010
0100
0000
1000
0010
0100
0001
0100
,
0000
0010
0100
1000
0000
0100
0001
0010
,
0000
0001
0010
0100
1000
0100
0000
1001
,
0000
0110
0000
1001
0000
0001
0000
0001
,
0000
0001
0000
0101
0000
0100
0000
0100
,
0000
0100
0000
0110
0000
1000
0000
1000
,
0000
1000
0000
1010
0000
0000
0000
0110
,
0000
1001
0000
1000
0000
0001
0100
0001
,
0000
0000
0000
0001
0000
1000
0010
1000
,
0000
0000
0000
0100
0000
0100
0010
0100
,
0000
0001
0000
1001
0000
0110
0000
1001
,
0000
0000
0000
1000
0000
0010
0001
0000
,
0001
0000
0100
1000
0000
1000
0000
0100
,
0001
0000
0000
2002
0000
3003
0000
1000
,
0000
0001
0000
0000
1000
0000
0000
0001
0000
0000
1000
0000
0000
0000
0001
0000
,
0001
0000
0000
0000
0100
0000
0000
0010
0000
0000
0100
0000
0000
0001
0000
0000
,
1000
0000
0000
0110
0000
0000
2002
0000
0000
0000
0000
0000
0000
0000
0000
0000
,
0000
3003
0000
0000
,
0000
0000
0000
0000
1000
0100
1000
0000
,
0001
0010
0001
0000
1000
0001
1000
0100
,
0010
0000
0001
0100
0001
0000
0000
1000
,
0010
1000
0000
1000
0010
0001
0100
0010
,
1000
0100
0001
0000
0001
0010
0100
0000
,
0010
0100
1000
0000
1000
0001
0100
0010
,
1000
0000
0010
0001
0100
0000
0100
0010
,
1000
0000
1000
0001
0010
0100
1000
0000
,
2000
0000
3000
0000
0001
0010
0001
0000
,
1000
0100
1000
0000
0010
0100
0010
1000
,
0001
0000
1000
0100
1000
0000
0001
0010
,
0001
0000
0001
0100
0010
1000
0001
0100
,
1000
0000
0000
0000
1000
0001
0100
0000
,
1000
0001
1000
0000
1000
0010
0001
0100
,
1000
0000
0001
0100
0010
0000
0010
0100
,
1000
0000
0100
0001
1000
0010
0200
0000
,
0300
0000
0000
0000
1000
0100
0001
0000
,
0001
0010
0100
0000
1000
0010
0100
0001
,
0100
0000
0010
0100
1000
0000
0100
0001
,
0010
0000
0001
0010
0100
1000
0100
0000
,
1001
0110
2002
0000
,
0000
3003
0000
0000
;

//---------------dance-single - ----------------
#NOTES:
     dance-single:
     :
     Challenge:
     9:
     0.670,0.629,1.000,0.360,0.201: // measure 1
0000
0000
0000
0000
,  // measure 2
0000
0000
0000
0000
,  // measure 3
0000
0000
0000
0000
0000
0000
0000
0110
0000
0000
0101
0000
0000
1010
0000
0000
,  // measure 4
1100
0000
0000
1001
0000
0000
0000
0000
1100
0000
0000
0011
0000
0000
1100
0000
,  // measure 5
0000
0011
0000
0000
1100
0000
0000
0000
0110
0000
0000
1100
0000
0000
0011
0000
,  // measure 6
0000
0101
0000
0000
1001
0000
0000
0000
0101
0000
0000
1010
0000
0000
0101
0000
,  // measure 7
0000
1010
0000
0000
0101
0000
0000
0000
0010
0000
0000
0100
0000
0000
0010
0000
,  // measure 8
0000
0100
0000
0000
0010
0000
0000
0000
1001
0000
0000
0110
0000
0000
1001
0000
,  // measure 9
0000
1100
0000
0000
0101
0000
0000
0000
0001
0000
0000
1000
0000
0000
0001
0000
,  // measure 10
0000
1000
0000
0000
0001
0000
0000
0000
0100
0000
0000
0100
0000
0000
0100
0000
,  // measure 11
0000
0100
0000
0000
0000
0000
0110
0000
0000
1001
0000
0000
0110
0000
0000
0000
,  // measure 12
0000
0000
1100
1000
0100
1000
0011
0001
,  // measure 13
0010
0001
0101
0100
0001
0100
1010
0101
,  // measure 14
0000
0000
0110
0100
0010
0100
1001
1000
,  // measure 15
0001
1000
0101
0001
0100
0001
0011
1100
,  // measure 16
0000
0000
0000
2100
0100
3100
0000
0012
,  // measure 17
0010
0013
0000
0102
0100
0103
0110
1001
,  // measure 18
0000
2010
0010
3010
0000
0102
0100
0103
,  // measure 19
0000
2100
0100
0100
3100
0000
0110
1001
,  // measure 20
0000
0000
0001
0100
0010
0010
0010
1000
,  // measure 21
0001
0100
0100
0100
0010
0001
1000
2002
,  // measure 22
3003
0000
0100
0010
1000
1000
1000
0010
,  // measure 23
0100
0001
0001
0001
0100
1000
0010
0220
,  // measure 24
0330
0000
0000
0000
0001
0100
0001
0100
,  // measure 25
0100
0100
1000
0010
1000
0010
0010
0010
,  // measure 26
2002
0000
0000
0000
3003
0000
0000
0220
0000
0000
0000
0000
0330
0000
0100
0010
,  // measure 27
0100
0000
0001
0000
0000
0001
0000
0000
0001
0000
0000
0010
0000
0000
0200
0000
,  // measure 28
0000
0000
0000
0000
0300
0000
0000
0000
0110
0000
0000
1001
0000
0000
0110
0000
,  // measure 29
0000
0101
0000
0000
1010
0000
0000
0000
0100
0000
0000
0010
0000
0000
0100
0000
,  // measure 30
0000
0010
0000
0000
0000
0000
0000
0000
0011
0000
1000
0000
0100
0000
0100
0000
,  // measure 31
0100
0011
0001
0100
0010
1000
1000
2000
,  // measure 32
3000
0000
1100
0010
0001
0001
0001
1100
,  // measure 33
0100
0010
1000
0100
0100
0100
0011
0202
,  // measure 34
0303
0000
0000
0000
1100
0100
0100
0011
,  // measure 35
0010
0010
0101
0100
0100
1010
0010
0010
,  // measure 36
0020
0030
1000
0100
1000
0100
0010
0100
,  // measure 37
0010
0000
0001
0000
0010
0000
0100
0000
0200
0000
0300
0000
0000
1100
0000
0000
,  // measure 38
0000
0011
0000
0000
0000
0101
0000
0000
0100
0000
0000
0010
0000
0000
0100
0000
,  // measure 39
0000
0010
0000
0000
2002
0000
3003
0000
1000
0000
0000
0001
0000
0000
1000
0000
,  // measure 40
0000
0001
0000
0000
0220
0000
0330
0000
0101
0000
0000
1010
0000
0000
1100
0000
,  // measure 41
0000
0011
0000
0000
0220
0000
0000
0000
0330
0000
0000
0000
1001
0000
0000
0000
,  // measure 42
0110
0000
0010
0000
0001
0000
1000
1100
,  // measure 43
0000
0000
0010
0000
1000
0000
0001
0101
,  // measure 44
0000
0000
0000
0000
0001
1000
0000
0000
0100
0000
0000
0010
0000
0000
0001
0000
,  // measure 45
0000
0100
0000
0000
0010
0000
0000
0000
0110
0000
0000
0000
1001
0000
0000
0000
,  // measure 46
0110
0000
0001
1000
1000
1000
0100
0010
,  // measure 47
0010
0010
0001
0100
0100
0100
1100
0011
,  // measure 48
0000
0000
0110
0202
0000
0303
0000
1010
,  // measure 49
0000
1100
0000
0000
0011
0000
0000
0101
0000
0000
0110
0000
0000
1000
0000
0000
,  // measure 50
0001
0000
0000
0000
1000
0000
0000
0001
0000
0000
1000
0000
0000
0001
0000
0000
,  // measure 51
0100
0000
0000
0010
0000
0000
0220
0000
0000
0000
0000
0000
0000
0000
0000
0000
,  // measure 52
0000
0330
0000
0000
0000
0000
0000
0000
,  // measure 53
0000
0000
0000
0000
1100
0010
0001
0001
,  // measure 54
0001
0101
0010
1000
0001
0100
0100
0200
,  // measure 55
0300
0000
0110
0001
1000
1000
1000
0101
,  // measure 56
0010
1000
0001
0100
0100
0100
0110
2200
,  // measure 57
3300
0000
0000
0000
1001
0001
1000
0100
,  // measure 58
0010
0110
0100
0010
0001
1000
0100
0002
,  // measure 59
0003
0000
1100
0001
0100
0100
0100
0110
,  // measure 60
0100
0001
0010
1000
1000
1000
1001
0101
,  // measure 61
0000
1010
0000
0000
0000
0000
0000
0000
0011
0000
1000
0000
0100
0000
0100
0000
,  // measure 62
0100
0011
0001
0100
0010
1000
1000
2000
,  // measure 63
3000
0000
1100
0010
0001
0001
0001
1100
,  // measure 64
0100
0010
1000
0100
0100
0100
0011
0202
,  // measure 65
0303
0000
0000
0000
0110
0100
0010
0010
,  // measure 66
0010
0101
0100
0010
1000
0100
0100
0200
,  // measure 67
0300
0000
0110
0001
0100
0100
0100
1100
,  // measure 68
0010
0001
0100
0001
0001
0001
0101
2020
,  // measure 69
3030
0000
0000
1001
0001
0001
1100
1000
,  // measure 70
1000
0110
0100
0100
0101
0001
0001
0002
,  // measure 71
0000
0003
0010
0100
0010
1000
0010
0100
,  // measure 72
0001
0000
0100
0000
0001
0000
0002
0000
0003
0000
0000
0101
0000
0000
0000
1010
,  // measure 73
0000
0000
0000
1100
0000
0000
0000
2002
0000
0000
0000
0000
0000
0000
0000
0000
,  // measure 74
0000
3003
0000
0000
0000
0000
0000
0000
;

//---------------dance-single - ----------------
#NOTES:
     dance-single:
     :
     Hard:
     8:
     0.529,0.510,0.680,0.131,0.143:
0000
0000
0000
0000
,
0000
0000
0000
0000
,
0000
0000
0000
0000
0000
0000
0000
0000
1000
0000
0000
0100
0000
0000
1000
0000
,
0000
0100
0000
0000
1000
0000
0000
0011
0000
0000
1100
0000
0000
0011
0000
0000
,
1100
0000
0000
0011
0000
0000
0100
0000
0000
0010
0000
0000
0100
0000
0000
0010
,
0000
0000
0100
0000
0000
0101
0000
0000
1010
0000
0000
0101
0000
0000
1010
0000
,
0000
0101
0000
0000
1000
0000
0000
0001
0000
0000
1000
0000
0000
0001
0000
0000
,
1000
0000
0000
0001
0000
0000
1100
0000
0000
0110
0000
0000
0101
0000
0000
0110
,
0000
0000
1001
0000
0000
0100
0000
0000
0010
0000
0000
0100
0000
0000
0010
0000
,
0000
0100
0000
0000
0010
0000
0000
1000
0000
0000
0001
0000
0000
1000
0000
0001
,
0000
0000
1000
0000
0000
0000
0110
0000
0000
1001
0000
0000
0110
0000
0000
0000
,
0000
0000
1001
0000
0110
0000
0100
0010
,
0100
0000
0110
0000
1100
0000
1000
0100
,
1000
0000
1100
0000
0011
0000
0001
0010
,
0001
0000
0011
0000
0110
0000
0100
0010
,
0100
0000
0001
1000
0001
0000
1100
0000
,
1100
0000
0100
0010
0100
0000
0011
0000
,
0101
0000
0100
0010
0100
0000
0110
0000
,
1100
0000
1000
0001
1000
0000
1001
0000
,
0110
0000
1000
0100
0100
0000
0010
0001
,
0001
0000
0100
0010
0100
0010
1000
0100
,
0000
0000
0010
0001
0001
0000
0100
0010
,
0010
0000
1000
0100
1000
0010
0001
0100
,
0000
0000
0010
1000
1000
0000
0100
0010
,
0010
0000
0001
0100
0010
1000
0100
0010
,
0000
2002
3003
2200
,
3300
0022
0033
0220
,
0000
0000
0000
0000
0000
0000
0330
0000
0100
0000
0000
0010
0000
0000
0100
0000
,
0000
0010
0000
0000
0100
0000
0000
0000
1000
0000
0000
0001
0000
0000
1000
0000
,
0000
0001
0000
0000
1000
0000
0000
0000
0001
0000
1000
0000
0001
0000
0100
0000
,
0010
0000
1000
1000
0100
0010
0001
0101
,
0000
0000
0001
0100
0010
1000
0100
0010
,
0100
0000
0010
0001
0001
0100
0010
0110
,
0000
0000
0000
0000
1000
0001
1000
0010
,
0001
0000
0100
0100
0010
1000
0001
0110
,
0000
0000
1000
0001
1000
0000
0110
0000
,
0101
1010
1100
0001
,
1000
0000
0000
0000
0110
0000
0000
0000
0001
0000
0000
1000
0000
0000
0001
0000
,
0000
1000
0000
0000
0001
0000
0001
0000
0000
0000
0100
0000
0000
0010
0000
0000
,
0100
0000
0000
0010
0000
0000
0100
0000
0100
0000
0000
0000
0001
0000
0000
0100
,
0000
0001
0000
0101
0000
0000
1010
0000
,
1100
0000
1000
0001
1000
0000
0100
0010
,
0100
0000
0010
1000
0010
0000
0100
0001
,
0100
0000
0100
0010
0010
0000
0010
1000
,
1000
0001
0001
1001
0000
0110
0000
1001
,
0000
0000
0001
1000
0100
0000
0010
0001
,
0100
0000
0100
0010
0100
0000
1000
0001
,
1000
0000
1000
0001
0001
0000
0001
0100
,
0100
0000
0010
1000
0010
0000
0100
0001
,
0100
0000
2000
0000
0000
3000
0002
0000
,
0000
0003
0220
0000
0000
0000
0000
0000
,
0330
0000
0000
0000
0000
0000
0000
0000
1000
0000
0000
0001
0000
0000
1000
0000
,
0000
0001
0000
0000
1000
0000
0000
0000
2001
0000
0000
0000
0001
0000
0000
0000
,
0001
0001
3001
1001
,
0110
2100
0100
0100
,
0100
3100
0011
0101
,
1001
0000
0000
0000
1000
0001
0100
0010
,
0100
0000
0100
0100
0010
1000
0001
0110
,
0000
0000
1000
0001
0100
0010
1000
0001
,
1000
0000
0001
0100
0100
0010
1000
1100
,
0000
0011
0000
0000
0110
0000
1100
0000
,
0100
0010
0100
0000
0011
0000
0101
0000
,
1001
0000
0001
0100
0001
0000
1000
0001
,
1000
0000
0100
0010
0100
0000
0110
0000
,
0101
0000
0000
0000
0001
1000
0001
0000
,
1010
0000
0101
0000
0001
0100
0001
0000
,
1100
0000
0011
0000
0100
0010
0100
0000
,
0110
0000
0000
0000
1100
0000
0000
0000
1000
0000
0000
0001
0000
0000
1000
0000
,
0000
0001
0000
0000
0000
0000
0000
0000
0001
0000
0100
0000
0001
0000
1000
0000
,
0010
0000
0100
0100
0010
1000
0001
1001
,
0000
0000
0100
0010
0100
0000
0101
0000
,
1010
1100
0110
0001
,
1000
0110
2002
0000
,
0000
3003
0000
0000
;
