#TITLE:Prince on a Star;
#SUBTITLE:;
#ARTIST:Yuka Hino;
#TITLETRANSLIT:;
#SUBTITLETRANSLIT:;
#ARTISTTRANSLIT:;
#CREDIT:Timer Rabbit;
#BANNER:alterrock_bn.PNG;
#BACKGROUND:alterrock_bg.PNG;
#LYRICSPATH:;
#CDTITLE:timerrabbit.png;
#MUSIC:AlterRock.mp3;
#OFFSET:0.000;
#SAMPLESTART:41.379;
#SAMPLELENGTH:12.000;
#SELECTABLE:YES;
#BPMS:0.000=145.000;
#STOPS:;
#BGCHANGES:;

//---------------dance-single - ----------------
#NOTES:
     dance-single:
     :
     Easy:
     3:
     0.235,0.293,0.051,0.223,0.000: // measure 1
0000
0000
0000
0000
,  // measure 2
0000
0000
0000
0000
,  // measure 3
0000
1000
1000
1000
,  // measure 4
0000
0001
0001
0001
,  // measure 5
0000
0010
0010
0010
,  // measure 6
0000
0100
0100
0100
,  // measure 7
0000
1000
0100
1000
,  // measure 8
0000
0001
0010
0001
,  // measure 9
0000
0001
0100
0001
,  // measure 10
0000
1000
0010
1000
,  // measure 11
0000
0100
0000
0100
,  // measure 12
0000
0100
0000
0100
,  // measure 13
0000
0100
0000
0010
,  // measure 14
0000
0010
0000
0010
,  // measure 15
0000
0001
0000
0001
,  // measure 16
0000
0001
0000
0002
,  // measure 17
0000
0000
0003
1000
,  // measure 18
0000
1000
0000
1000
,  // measure 19
0000
0000
0000
0010
,  // measure 20
0100
0010
0100
0001
,  // measure 21
1000
0000
0002
0000
0000
2003
0000
0000
,  // measure 22
0000
0000
0000
3000
0000
0000
0000
0000
,  // measure 23
0000
0000
0000
0001
,  // measure 24
1000
0001
1000
0100
,  // measure 25
0010
0100
0100
0200
,  // measure 26
0000
0300
0200
0000
0300
0000
1000
0000
,  // measure 27
0001
1000
0000
0100
,  // measure 28
0010
0100
0010
1000
,  // measure 29
1000
1000
0000
0100
,  // measure 30
0010
0100
0010
0001
,  // measure 31
0001
0001
1000
0100
,  // measure 32
0001
0000
0020
0030
0010
0000
0001
0000
,  // measure 33
1000
1001
0000
0110
,  // measure 34
0000
1001
0100
0010
,  // measure 35
0100
2000
0000
0000
,  // measure 36
0000
0000
0000
0000
0000
0000
0000
3200
,  // measure 37
0000
0000
0000
0320
0000
0000
0000
0000
,  // measure 38
0000
0000
0000
0000
0000
0032
0000
0000
,  // measure 39
0000
0003
0000
1000
0000
0000
0000
1000
,  // measure 40
0000
0000
0000
1000
0000
0000
0000
1000
,  // measure 41
0000
0000
0000
0001
0000
0000
0000
0001
,  // measure 42
0000
0000
0000
0001
0000
0000
0000
0001
,  // measure 43
0000
0000
0000
0100
0000
0000
0000
0100
,  // measure 44
0000
0000
0000
0100
0000
0000
0000
0100
,  // measure 45
0000
0000
0000
0010
0000
0000
0000
0010
,  // measure 46
0000
0000
0000
0010
0000
0000
0000
0010
,  // measure 47
0000
0000
0000
0001
0000
0000
0000
0001
,  // measure 48
0000
0000
0000
0001
0000
0000
0000
0001
,  // measure 49
0000
0000
0000
1000
0000
0000
0000
1000
,  // measure 50
0000
0000
0000
1000
0000
0000
0000
1000
,  // measure 51
0000
0200
0300
0020
,  // measure 52
0030
0002
0003
2000
,  // measure 53
3000
0200
0300
0002
,  // measure 54
0003
0020
0030
0200
,  // measure 55
0300
2000
3000
0020
,  // measure 56
0030
0002
0003
0200
,  // measure 57
0300
2000
3000
0020
,  // measure 58
0030
0000
0000
0010
,  // measure 59
0100
0010
0000
0001
,  // measure 60
1000
0001
1000
0100
,  // measure 61
0100
0100
0000
1000
,  // measure 62
0001
1000
0001
0010
,  // measure 63
0010
0010
0001
0010
,  // measure 64
1000
0000
0200
0300
0100
0000
0100
0000
,  // measure 65
0010
0110
0000
1001
,  // measure 66
0000
0110
0001
1000
,  // measure 67
0001
0002
0000
0000
,  // measure 68
0000
0000
0000
0000
,  // measure 69
0000
0003
0000
0000
;

//---------------dance-single - ----------------
#NOTES:
     dance-single:
     :
     Medium:
     4:
     0.299,0.321,0.266,0.189,0.000:
0000
0000
0000
0000
,
0000
0000
0000
0000
,
0000
0001
0010
0001
,
0010
1000
1000
1000
,
0000
1000
0010
1000
,
0010
0001
0001
0001
,
0000
0001
0100
0001
,
0100
1000
1000
1000
,
0000
1000
0100
1000
,
0100
0001
0001
0001
,
0000
0001
0010
1000
,
0100
0020
0000
0000
,
0030
0000
1000
0001
,
1000
0000
0100
0010
,
0100
0110
0000
1001
,
0000
0100
0000
0020
0000
0000
0000
0000
,
0030
0000
0000
0001
1000
0001
0000
0100
,
0000
0000
0000
0010
0100
0010
0000
0010
,
0000
0000
0000
0000
0000
0000
0000
1000
,
0000
0100
0000
0001
0000
0010
0000
0100
,
0000
0020
0000
0030
0000
0020
0000
0000
,
0030
0000
1000
0000
0000
0001
0000
0000
,
1000
0000
0000
0000
0000
0000
0000
1000
,
0000
0100
0000
0001
0000
0010
0000
0200
,
0000
0300
0000
0220
0000
0000
0000
0330
,
2002
0000
3003
1000
,
0001
0000
1000
0000
0000
0001
0000
0100
,
0000
1000
0000
1000
0000
0000
0011
0000
,
0011
0000
0011
0000
0000
0000
0000
1000
,
0000
0100
0000
0001
0000
0000
1010
0000
,
1010
0000
1010
0000
0000
0010
0000
0100
,
0000
0001
0000
1000
0000
0000
1000
0000
,
0001
2000
3000
0002
,
0003
0100
0010
0200
,
0000
0300
0000
2000
0000
0000
0000
0000
,
0000
0000
0000
0000
0000
0000
3000
0200
,
0000
0000
0000
0320
0000
0000
0000
0000
,
0000
0000
0000
0000
0000
0032
0000
0000
,
0000
0000
0000
0103
0000
0100
0000
0100
,
0000
0100
0000
0100
0000
2002
0000
3003
,
0000
0010
0000
0010
0000
0010
0000
0010
,
0000
0010
0000
0001
0000
1000
0000
0001
,
0000
1000
0000
1000
0000
0100
0000
1000
,
0000
0010
0000
0001
0000
0010
0000
0100
,
0000
0010
0000
0100
0000
0001
0000
1000
,
0000
0001
0000
1000
0000
0100
0000
0010
,
0000
0100
0000
0001
0000
0010
0000
0001
,
0000
1000
0000
0100
0000
1000
0000
0100
,
0000
0010
0000
1000
0000
0010
0000
1000
,
0000
0100
0000
0001
0000
0100
0000
0001
,
0000
1100
0000
0000
0000
0011
0000
0000
,
0000
0101
0000
0000
0000
1010
0000
0100
,
0000
0011
0000
0000
0000
1100
0000
0000
,
0000
0011
0000
0000
0000
1100
0000
0010
,
0000
1010
0000
0000
0000
0110
0000
0000
,
0000
1001
0000
0000
0000
0110
0000
1001
,
0000
0110
0000
0000
0000
0100
0000
0000
,
0000
0010
0000
0000
0000
0000
0100
0000
,
0010
0000
0100
0000
0000
1000
0000
0100
,
0000
0001
0000
0001
0000
0000
1100
0000
,
1100
0000
1100
0000
0000
0000
0000
0001
,
0000
0010
0000
1000
0000
0000
0101
0000
,
0101
0000
0101
0000
0000
0100
0000
0010
,
0000
1000
0000
0001
0000
0000
0010
0000
,
0100
0020
0030
0200
,
0300
1000
0001
2000
,
0000
3000
2000
0000
0000
0000
0000
0000
,
0000
0000
0000
0000
,
0000
3000
0000
0000
0000
0000
0000
0000
;

//---------------dance-single - ----------------
#NOTES:
     dance-single:
     :
     Hard:
     7:
     0.398,0.467,0.472,0.163,0.000:
0000
0000
0000
0000
,
0000
0000
0000
0000
,
0000
0000
0010
0001
0010
0001
0010
0000
,
0011
1100
1010
0101
,
0000
0000
0100
1000
0100
1000
0100
0000
,
1100
0011
0101
1010
,
0000
0000
0100
0010
0100
0010
0100
0000
,
0110
1001
0011
1100
,
0000
0000
0001
1000
0001
1000
0001
0000
,
1001
0110
1010
0101
,
0000
1000
0100
0010
0001
0010
0001
0010
,
0001
0001
0001
0001
,
0001
0000
0001
0000
0001
0010
0001
0000
,
1000
0000
1000
0100
1000
0000
0001
0000
,
0000
0002
0003
2000
,
3000
0110
0000
2002
0000
0000
0000
3003
,
0000
0000
0000
0000
1000
0100
0001
0000
,
0001
0000
0001
0010
1000
0000
1000
0000
,
1000
0000
0000
0000
0000
0000
0000
1000
,
0001
0100
0000
0010
0000
0100
0000
0100
,
0000
0200
0000
0000
0300
0020
0000
0000
,
0000
0000
0100
0030
0000
0100
0000
0000
,
0100
0000
0000
0000
0000
0000
0000
0001
,
0100
0010
0000
0010
0000
0010
0000
0010
,
0000
0120
0000
0100
0000
0100
0000
0030
,
0001
1000
0001
0000
0000
0000
1100
0000
,
0011
0000
0101
0000
0000
0001
1000
0001
,
0100
0010
0000
0100
0000
0000
0011
0000
,
0011
0000
0011
0000
0000
0000
0000
1000
,
0100
1000
0100
1000
0000
0000
1010
0000
,
1010
0000
1010
0000
0001
0100
0001
0010
,
0002
0000
0000
0003
0001
0000
1000
0000
,
0001
1100
0000
0011
,
0000
0101
0100
0010
,
0100
0000
0000
2000
0000
0000
0000
0000
,
0000
0000
0000
0000
0000
0000
3000
0002
,
0000
0000
0000
0023
0000
0000
0000
0000
,
0000
0000
0000
0000
0000
0030
0000
0200
,
0000
0000
0000
0010
0300
0010
0000
0010
,
0000
0010
0000
0010
0000
2002
0000
3003
,
0000
0100
0000
0100
0000
0100
0000
0100
,
0000
0100
0000
0010
0000
0100
0000
0010
,
0100
0000
0001
1000
0001
1000
0000
1000
,
0000
1000
0000
0100
0000
0010
0000
0001
,
0010
0001
0000
1000
0100
1000
0010
0000
,
0100
0000
0001
0000
0010
0000
0001
0100
,
0001
0100
1000
0010
1000
0100
0000
0010
,
0000
0001
0000
0100
1000
0000
0010
0000
,
0001
0100
0010
1000
0100
0010
0001
0100
,
0010
0100
0010
0100
0010
0100
0010
0100
,
0000
1100
0000
0000
0000
0101
0000
0000
,
0000
1010
0000
0000
0000
0011
1000
0001
,
1000
0002
0000
0000
0003
1100
0000
0000
,
0000
0110
0000
0000
0000
0011
0001
1000
,
0001
2000
0000
0000
3000
0110
0000
0000
,
0000
0101
0000
0000
0000
1010
0100
0010
,
0100
0020
0000
0000
0030
1001
0000
0000
,
0000
0000
0000
0011
,
1100
0000
0101
0000
0000
0001
0100
0001
,
0010
1000
0000
0010
0000
0000
0101
0000
,
0101
0000
0101
0000
0000
0000
0000
0001
,
0010
0001
0010
0001
0000
0000
1100
0000
,
1100
0000
1100
0000
0010
1000
0010
0001
,
0200
0000
0000
0300
0010
0000
0100
0000
,
0010
1010
0000
0101
,
0000
1010
0001
1000
,
0001
0002
0000
0000
,
0000
0000
0000
0000
,
0003
0000
0000
0000
;
